<?xml version="1.0" standalone="no"?>
<!DOCTYPE svg PUBLIC "-//W3C//DTD SVG 1.1//EN" "http://www.w3.org/Graphics/SVG/1.1/DTD/svg11.dtd" >
<svg xmlns="http://www.w3.org/2000/svg" xmlns:xlink="http://www.w3.org/1999/xlink" version="1.1">
<metadata>
Created by FontForge 20170731 at Fri Nov  6 18:23:28 2020
 By Aleksey,,,
Copyright (c) 2019 by Oleh Lishchuk. All rights reserved. |DCNT
</metadata>
<defs>
<font id="MazzardH-Bold" horiz-adv-x="1243" >
  <font-face 
    font-family="Mazzard H"
    font-weight="700"
    font-stretch="semi-condensed"
    units-per-em="2048"
    panose-1="0 0 0 0 0 0 0 0 0 0"
    ascent="1546"
    descent="-502"
    x-height="1065"
    cap-height="1434"
    bbox="-186 -553 2529 2083"
    underline-thickness="102"
    underline-position="-358"
    unicode-range="U+000D-FB04"
  />
<missing-glyph horiz-adv-x="681" 
 />
    <glyph glyph-name="f_f" unicode="ff" horiz-adv-x="1376" 
d="M170 805h-154v260h154v119q0 151 113 252q112 100 282 100h144v-285h-117q-50 0 -82.5 -30.5t-32.5 -77.5v-78h342v119q0 149 113 250q114 102 282 102h146v-285h-119q-50 0 -82.5 -30.5t-32.5 -77.5v-78h232v-260h-232v-805h-307v805h-342v-805h-307v805z" />
    <glyph glyph-name="fi" unicode="fi" horiz-adv-x="1204" 
d="M477 1143v-78h232v-260h-232v-805h-307v805h-154v260h154v119q0 151 113 252q112 100 282 100h144v-285h-117q-50 0 -82.5 -30.5t-32.5 -77.5zM1118 0h-305v1065h305v-1065zM965 1518q82 0 136 -53.5t54 -135.5t-54 -135t-136 -53q-80 0 -134.5 53.5t-54.5 134.5
t54.5 135t134.5 54z" />
    <glyph glyph-name="fl" unicode="fl" horiz-adv-x="1204" 
d="M477 1143v-78h232v-260h-232v-805h-307v805h-154v260h154v119q0 151 113 252q112 100 282 100h144v-285h-117q-50 0 -82.5 -30.5t-32.5 -77.5zM1118 0h-305v1536h305v-1536z" />
    <glyph glyph-name="f_f_i" unicode="ffi" horiz-adv-x="1853" 
d="M170 0v805h-154v260h154v119q0 151 113 252q112 100 282 100h144v-285h-117q-50 0 -82.5 -30.5t-32.5 -77.5v-78h342v119q0 149 113 250q114 102 282 102h146v-285h-119q-50 0 -82.5 -30.5t-32.5 -77.5v-78h641v-1065h-305v805h-336v-805h-307v805h-342v-805h-307z
M1616 1518q80 0 134 -54t54 -135t-54 -134.5t-134 -53.5q-82 0 -136.5 53.5t-54.5 134.5q0 82 54.5 135.5t136.5 53.5z" />
    <glyph glyph-name="f_f_l" unicode="ffl" horiz-adv-x="1853" 
d="M170 805h-154v260h154v119q0 151 113 252q112 100 282 100h144v-285h-117q-50 0 -82.5 -30.5t-32.5 -77.5v-78h342v119q0 149 113 250q114 102 282 102h146v-285h-119q-50 0 -82.5 -30.5t-32.5 -77.5v-78h232v-260h-232v-805h-307v805h-342v-805h-307v805zM1462 0v1536
h305v-1536h-305z" />
    <glyph glyph-name="afii10104_afii10104" unicode="&#x457;&#x457;" horiz-adv-x="987" 
d="M399 0h-305v1065h305v-1065zM-45 1233q-44 44 -44 112.5t44 112.5t110 44t109 -44q44 -44 44 -112.5t-44 -112.5q-43 -44 -109 -44t-110 44zM895 0h-307v1065h307v-1065zM385 1233q-44 44 -44 112.5t44 112.5t110 44t109 -44q44 -44 44 -112.5t-44 -112.5
q-43 -44 -109 -44t-110 44zM811 1233q-43 44 -43 112.5t43 112.5q44 44 110.5 44t110.5 -44t44 -112.5t-44 -112.5t-110.5 -44t-110.5 44z" />
    <glyph glyph-name=".notdef" horiz-adv-x="681" 
 />
    <glyph glyph-name="uni0000" horiz-adv-x="0" 
 />
    <glyph glyph-name="uni0000" horiz-adv-x="0" 
 />
    <glyph glyph-name="uni000D" unicode="&#xd;" horiz-adv-x="512" 
 />
    <glyph glyph-name="space" unicode=" " horiz-adv-x="501" 
 />
    <glyph glyph-name="exclam" unicode="!" horiz-adv-x="518" 
d="M256 322q75 0 125.5 -50t50.5 -125t-50.5 -124.5t-125.5 -49.5q-74 0 -123 49.5t-49 124.5t49 125t123 50zM385 467h-252l-37 967h326z" />
    <glyph glyph-name="quotedbl" unicode="&#x22;" horiz-adv-x="827" 
d="M340 901h-221l-25 533h271zM709 901h-222l-22 533h268z" />
    <glyph glyph-name="numbersign" unicode="#" horiz-adv-x="1435" 
d="M35 340l-2 235h297l49 283h-256v103l2 133h297l59 340h240l-59 -340h247l60 340h239l-59 -340h254v-236h-297l-49 -283h256v-235h-299l-60 -340h-239l59 340h-248l-59 -340h-240l60 340h-252zM618 858l-49 -283h248l49 283h-248z" />
    <glyph glyph-name="dollar" unicode="$" horiz-adv-x="1234" 
d="M522 -252v234q-176 26 -300 123t-163 235l326 78q18 -63 86.5 -104.5t163.5 -41.5q89 0 150 37.5t61 93.5q0 40 -37 70q-32 28 -68 44t-110 40l-21 6q-18 5 -56 17.5t-52 15.5l-101 37q-67 28 -98 47l-9 6q-105 76 -135 123l-1 2q-58 95 -58 209q0 176 110 292.5
t294 141.5v232h207v-236q151 -26 259 -115t140 -211l-322 -75q-14 48 -66.5 80t-123.5 32q-74 0 -123 -33t-49 -84q0 -65 119 -114q63 -22 215 -68q53 -16 79 -25t61.5 -25t74.5 -40q92 -49 141 -130.5t55 -209.5q0 -185 -119 -306t-321 -146v-232h-209z" />
    <glyph glyph-name="percent" unicode="%" horiz-adv-x="1769" 
d="M422 0l-160 133l1094 1301l162 -134zM53 1083q0 162 107 269q108 108 268 108q158 0 266 -108q109 -109 109 -269q0 -165 -107 -272q-106 -106 -268 -106q-160 0 -268 108q-107 107 -107 270zM338 1174q-37 -37 -37 -90.5t37 -90.5t90 -37t90 37t37 90.5t-37 90.5t-90 37
t-90 -37zM1073 80q-106 106 -106 270q0 165 106 271q108 108 268 108q159 0 267 -108q106 -106 106 -271q0 -164 -106 -270q-107 -107 -267 -107q-161 0 -268 107zM1341 223q51 0 89 38t38 89q3 40 -20.5 72.5t-57.5 47t-73.5 8t-65.5 -37.5q-29 -26 -35 -65t8 -73.5
t45.5 -58t71.5 -20.5z" />
    <glyph glyph-name="ampersand" unicode="&#x26;" horiz-adv-x="1454" 
d="M592 -27q-225 0 -375 129q-149 131 -149 324q0 220 235 375q-96 152 -96 289q0 159 108 264q109 106 279 106q168 0 280 -106q115 -106 115 -262q0 -116 -63.5 -202t-188.5 -165l211 -217q51 111 51 254h293q0 -266 -133 -473l281 -289h-400l-82 84q-163 -111 -366 -111z
M754 295l-250 260q-3 1 -7 5.5t-8 9.5l-4 5q-110 -76 -110 -155q0 -68 63 -115t160 -47q81 0 156 37zM553 938q77 40 114.5 76t37.5 76q0 36 -31 61t-76 25q-44 0 -72 -27t-28 -70q0 -59 55 -141z" />
    <glyph glyph-name="quotesingle" unicode="'" horiz-adv-x="458" 
d="M340 901h-221l-25 533h271z" />
    <glyph glyph-name="parenleft" unicode="(" horiz-adv-x="657" 
d="M328 1602l30 36h279l-33 -45q-8 -12 -69 -127q-54 -106 -91 -215.5t-67 -267.5q-62 -339 -2 -684q17 -91 43 -180t46 -143t55.5 -127t45 -90.5t41.5 -73.5l31 -43h-279l-2 2q-159 194 -237 536q-51 211 -51 461q0 182 28.5 355t73.5 288q88 226 158 318z" />
    <glyph glyph-name="parenright" unicode=")" horiz-adv-x="657" 
d="M49 1595l-29 43h279q34 -34 100 -157q44 -77 90 -199q40 -108 70 -281q33 -165 33 -360q0 -169 -27 -335.5t-67 -280.5q-35 -106 -84 -197q-40 -80 -72 -127q-19 -32 -41 -57l-2 -2h-279l31 45q20 25 70 129q56 108 93.5 216t66.5 265q65 344 2 684q-25 158 -72 281
q-82 222 -162 333z" />
    <glyph glyph-name="asterisk" unicode="*" horiz-adv-x="966" 
d="M410 926l-193 -166l-123 213l240 84l-240 82l123 213l193 -168l-50 250h246l-47 -250l191 168l122 -213l-239 -82l239 -84l-122 -213l-191 166l47 -248h-246z" />
    <glyph glyph-name="plus" unicode="+" horiz-adv-x="1228" 
d="M479 565h-366v275h366v364h273v-364h364v-275h-364v-366h-273v366z" />
    <glyph glyph-name="comma" unicode="," horiz-adv-x="477" 
d="M416 92q0 -204 -250 -371l-90 93q119 107 119 163q-60 10 -99 60t-39 113q0 72 48 118.5t122 46.5q84 0 136.5 -62.5t52.5 -160.5z" />
    <glyph glyph-name="hyphen" unicode="-" horiz-adv-x="819" 
d="M113 397v273h594v-273h-594z" />
    <glyph glyph-name="period" unicode="." horiz-adv-x="460" 
d="M229 322q75 0 126 -50t51 -125t-51 -124.5t-126 -49.5q-74 0 -123 49.5t-49 124.5t49 125t123 50z" />
    <glyph glyph-name="slash" unicode="/" horiz-adv-x="1189" 
d="M260 -358h-260l932 1994h258z" />
    <glyph glyph-name="zero" unicode="0" horiz-adv-x="1265" 
d="M72 492v450q0 222 159 369q162 149 402 149q243 0 401 -149q162 -146 162 -369v-450q0 -222 -162 -371q-160 -148 -401 -148q-237 0 -402 148q-159 150 -159 371zM383 946v-459q0 -91 72 -153t178 -62t178 62t72 153v459q0 92 -72 153.5t-178 61.5t-178 -61.5t-72 -153.5
z" />
    <glyph glyph-name="one" unicode="1" horiz-adv-x="935" 
d="M430 1065l-233 -111l-123 269l444 211h223v-1434h-311v1065z" />
    <glyph glyph-name="two" unicode="2" horiz-adv-x="1187" 
d="M774 1006q0 66 -56 110.5t-136 44.5q-81 0 -146 -50.5t-102 -139.5l-289 137q74 165 216 258.5t321 93.5q217 0 366 -131q150 -129 150 -313q0 -222 -312 -508l-225 -209h547v-299h-1026v233l514 484q178 169 178 289z" />
    <glyph glyph-name="three" unicode="3" horiz-adv-x="1202" 
d="M774 1016q0 62 -61 103.5t-154 41.5q-168 0 -223 -112l-281 118q67 133 204 213t312 80q228 0 377 -125q150 -126 150 -313q0 -168 -142 -277q181 -117 181 -317q0 -192 -158 -326q-156 -129 -395 -129q-198 0 -346 95q-147 96 -199 249l297 103q17 -66 83.5 -107
t158.5 -41q102 0 167.5 47t65.5 119t-65 118t-164 46h-109v260h72q98 0 163.5 43.5t65.5 110.5z" />
    <glyph glyph-name="four" unicode="4" horiz-adv-x="1306" 
d="M774 0v262h-715v299l729 873h299v-873h168v-299h-168v-262h-313zM774 971l-342 -410h342v410z" />
    <glyph glyph-name="five" unicode="5" horiz-adv-x="1230" 
d="M610 -27q-201 0 -350 107t-207 282l314 84q31 -81 94.5 -127.5t148.5 -46.5q98 0 164 56.5t66 138.5q0 88 -77 147.5t-192 59.5h-407l78 760h794v-285h-538l-19 -188h139q233 0 390 -142t157 -352q0 -211 -159 -352q-157 -142 -396 -142z" />
    <glyph glyph-name="six" unicode="6" horiz-adv-x="1226" 
d="M1147 1169l-287 -135q-68 127 -227 127q-106 0 -177 -59.5t-71 -149.5v-88q107 64 254 64q222 0 377 -140q153 -138 153 -339t-157 -340q-157 -136 -389 -136q-238 0 -394 138q-155 137 -155 340v497q0 221 159 365q163 147 402 147q171 0 307.5 -78.5t204.5 -212.5z
M397 453q0 -78 64.5 -129.5t161.5 -51.5q94 0 158.5 50.5t64.5 123.5q0 78 -63.5 130.5t-159.5 52.5t-161 -51t-65 -125z" />
    <glyph glyph-name="seven" unicode="7" horiz-adv-x="1103" 
d="M729 1149h-694v285h1028v-301l-514 -1133h-344z" />
    <glyph glyph-name="eight" unicode="8" horiz-adv-x="1230" 
d="M616 -27q-240 0 -395 125t-155 312q0 206 190 335q-160 118 -160 304q0 171 148 292q149 119 372 119q222 0 371 -119q150 -120 150 -294q0 -185 -162 -304q190 -129 190 -335q0 -185 -157 -312q-156 -123 -392 -123zM842 434q0 72 -64 118t-162 46t-161.5 -46.5
t-63.5 -115.5q0 -70 64 -117t161 -47q98 0 162 46.5t64 115.5zM616 885q85 0 140 39.5t55 99.5t-55 98.5t-140 38.5q-86 0 -141 -38.5t-55 -98.5t55 -99.5t141 -39.5z" />
    <glyph glyph-name="nine" unicode="9" horiz-adv-x="1236" 
d="M63 266l283 133q68 -127 238 -127q116 0 191 59t75 148v74q-94 -64 -246 -64q-220 0 -375 140q-151 142 -151 348q0 207 155 344q157 139 388 139q230 0 387 -139q155 -137 155 -344v-494q0 -217 -166 -364q-166 -146 -407 -146q-177 0 -319 79.5t-208 213.5zM403 979
q0 -82 62 -136.5t156 -54.5t156.5 53.5t62.5 133.5t-62.5 133t-156.5 53t-156 -52t-62 -130z" />
    <glyph glyph-name="colon" unicode=":" horiz-adv-x="460" 
d="M229 322q75 0 126 -50t51 -125t-51 -124.5t-126 -49.5q-74 0 -123 49.5t-49 124.5t49 125t123 50zM57 918q0 74 49.5 124t122.5 50q75 0 126 -50t51 -124q0 -75 -51 -125t-126 -50q-74 0 -123 50t-49 125z" />
    <glyph glyph-name="semicolon" unicode=";" horiz-adv-x="460" 
d="M57 918q0 74 49.5 124t122.5 50q75 0 126 -50t51 -124q0 -75 -51 -125t-126 -50q-74 0 -123 50t-49 125zM420 92q0 -204 -250 -371l-90 93q119 107 119 163q-60 10 -100 60t-40 113q0 72 49 118.5t123 46.5q84 0 136.5 -62.5t52.5 -160.5z" />
    <glyph glyph-name="less" unicode="&#x3c;" horiz-adv-x="1228" 
d="M1096 125l-1004 467v250l1004 471v-301l-627 -295l627 -293v-299z" />
    <glyph glyph-name="equal" unicode="=" horiz-adv-x="1228" 
d="M113 817v275h1003v-275h-1003zM113 344v272h1003v-272h-1003z" />
    <glyph glyph-name="greater" unicode="&#x3e;" horiz-adv-x="1228" 
d="M1137 842v-250l-1004 -467v299l627 293l-627 295v301z" />
    <glyph glyph-name="question" unicode="?" horiz-adv-x="1218" 
d="M817 993q0 72 -66.5 120t-166.5 48q-84 0 -146 -38.5t-86 -102.5l-313 86q50 162 194 256q146 98 347 98q234 0 391 -133q159 -132 159 -334q0 -93 -38.5 -172.5t-98.5 -126.5q-126 -94 -211 -116l-39 -11l-14 -100h-258l-33 270q78 20 131 39q62 20 115 49q55 28 94 74
t39 94zM467 14q-51 54 -51 131t51 131q54 54 131 54q75 0 129 -54t54 -131t-54 -131q-51 -51 -129 -51q-80 0 -131 51z" />
    <glyph glyph-name="at" unicode="@" horiz-adv-x="1978" 
d="M57 532q0 398 267 662q266 266 663 266q262 0 475 -119q220 -122 338 -317q123 -197 123 -428q0 -225 -117 -369q-114 -144 -293 -141q-185 0 -290 141q-120 -141 -299 -141q-171 0 -289 127q-115 130 -115 319q0 190 115 320q117 129 289 129q126 0 233 -78v55h246v-532
q0 -49 33.5 -83t81.5 -34q73 0 120.5 77.5t47.5 199.5q0 257 -203 448q-200 191 -494 191q-298 0 -497 -199t-199 -494q0 -294 199 -493t491 -199q152 0 272 60l62 -217q-153 -78 -348 -78q-387 0 -650 266q-262 268 -262 661zM967 328q80 0 135 58.5t55 145.5t-55 146
t-135 59q-82 0 -136.5 -58.5t-54.5 -146.5t54.5 -146t136.5 -58z" />
    <glyph glyph-name="A" unicode="A" horiz-adv-x="1501" 
d="M352 0h-340l604 1434h269l602 -1434h-338l-98 242h-600zM932 532l-180 441l-181 -441h361z" />
    <glyph glyph-name="B" unicode="B" horiz-adv-x="1382" 
d="M840 0h-744v1434h703q196 0 329 -115q132 -114 132 -285q0 -166 -130 -284q88 -56 137.5 -144t49.5 -190q0 -178 -137 -297t-340 -119zM836 590h-414v-291h414q61 0 102 41.5t41 103.5t-41 104t-102 42zM795 1135h-373v-261h373q49 0 84 30.5t41 78.5q2 4 2 21
q0 57 -36 94t-91 37z" />
    <glyph glyph-name="C" unicode="C" horiz-adv-x="1554" 
d="M819 1460q232 0 410 -112q184 -113 272 -299l-315 -117q-55 101 -151 159t-216 58q-176 0 -295 -125q-118 -121 -118 -307q0 -185 118 -309q120 -123 295 -123q120 0 216 58t151 159l315 -117q-87 -185 -272 -301q-181 -111 -410 -111q-320 0 -536 213q-215 212 -215 531
q0 318 215 530q216 213 536 213z" />
    <glyph glyph-name="D" unicode="D" horiz-adv-x="1505" 
d="M686 0h-590v1434h590q319 0 535 -207q217 -205 217 -510t-217 -510q-216 -207 -535 -207zM686 1135h-264v-836h264q174 0 295 121q119 119 119 297q0 176 -121 297t-293 121z" />
    <glyph glyph-name="E" unicode="E" horiz-adv-x="1232" 
d="M96 1434h1071v-299h-745v-263h627v-299h-627v-274h756v-299h-1082v1434z" />
    <glyph glyph-name="F" unicode="F" horiz-adv-x="1216" 
d="M96 1434h1071v-299h-745v-267h627v-299h-627v-569h-326v1434z" />
    <glyph glyph-name="G" unicode="G" horiz-adv-x="1630" 
d="M68 717q0 317 219 530t544 213q227 0 410 -110q186 -112 277 -301l-316 -117q-54 103 -151.5 160t-219.5 57q-186 0 -305 -125q-120 -123 -120 -307q0 -182 116 -307t291 -125q123 0 227 67.5t148 177.5h-410v277h778q7 -44 7 -78q0 -320 -213 -539q-211 -217 -535 -217
q-313 0 -532 213q-215 212 -215 531z" />
    <glyph glyph-name="H" unicode="H" horiz-adv-x="1462" 
d="M422 0h-326v1434h326v-560h620v560h324v-1434h-324v575h-620v-575z" />
    <glyph glyph-name="I" unicode="I" horiz-adv-x="518" 
d="M422 0h-326v1434h326v-1434z" />
    <glyph glyph-name="J" unicode="J" horiz-adv-x="1189" 
d="M1108 1434v-899q0 -244 -168 -402q-171 -160 -422 -160q-158 0 -289.5 68t-210.5 186l271 174q35 -60 97.5 -94.5t137.5 -34.5q117 0 193 76q78 78 78 187v899h313z" />
    <glyph glyph-name="K" unicode="K" horiz-adv-x="1359" 
d="M96 0v1434h326v-580l473 580h410l-570 -701l611 -733h-410l-514 616v-616h-326z" />
    <glyph glyph-name="L" unicode="L" horiz-adv-x="1157" 
d="M96 1434h326v-1135h692v-299h-1018v1434z" />
    <glyph glyph-name="M" unicode="M" horiz-adv-x="1796" 
d="M418 0h-322v1434h322l481 -852l479 852h322v-1434h-322v827l-372 -673h-215l-373 673v-827z" />
    <glyph glyph-name="N" unicode="N" horiz-adv-x="1476" 
d="M410 0h-314v1434h289l682 -879v879h313v-1434h-288l-682 874v-874z" />
    <glyph glyph-name="O" unicode="O" horiz-adv-x="1638" 
d="M283 186q-215 212 -215 531q0 318 215 530q216 213 536 213q321 0 537 -213q217 -211 217 -530q0 -320 -217 -531q-216 -213 -537 -213q-320 0 -536 213zM819 285q177 0 297 123q119 125 119 309q0 185 -119 307q-119 125 -297 125q-176 0 -295 -125q-118 -121 -118 -307
q0 -185 118 -309q120 -123 295 -123z" />
    <glyph glyph-name="P" unicode="P" horiz-adv-x="1323" 
d="M422 471v-471h-326v1434h652q219 0 368 -140q150 -138 150 -342q0 -206 -150 -344q-146 -137 -368 -137h-326zM748 1135h-326v-365h326q78 0 129 52t51 130t-51 130.5t-129 52.5z" />
    <glyph glyph-name="Q" unicode="Q" horiz-adv-x="1638" 
d="M819 -27q-320 0 -536 213q-215 212 -215 531q0 318 215 530q216 213 536 213q321 0 537 -213q217 -211 217 -530q0 -253 -146 -449l154 -153l-213 -213l-168 168q-180 -97 -381 -97zM819 285q77 0 142 24l-195 195l213 213l209 -209q47 96 47 209q0 185 -119 307
q-119 125 -297 125q-176 0 -295 -125q-118 -121 -118 -307q0 -185 118 -309q120 -123 295 -123z" />
    <glyph glyph-name="R" unicode="R" horiz-adv-x="1378" 
d="M96 1434h672q220 0 369 -140q149 -137 149 -342q0 -135 -69 -246.5t-189 -173.5l309 -532h-360l-277 471h-278v-471h-326v1434zM768 1135h-346v-365h346q78 0 129 52t51 130t-51 130.5t-129 52.5z" />
    <glyph glyph-name="S" unicode="S" horiz-adv-x="1234" 
d="M1110 1124l-322 -75q-14 48 -66.5 80t-123.5 32q-74 0 -123 -33t-49 -84q0 -65 119 -114q63 -22 215 -68q53 -16 79 -25t61.5 -25t74.5 -40q92 -49 141 -130.5t55 -209.5q0 -209 -149 -334t-387 -125q-217 0 -375 103q-155 101 -201 264l326 78q18 -63 86.5 -104.5
t163.5 -41.5q89 0 150 37.5t61 93.5q0 40 -37 70q-32 28 -68 44t-110 40l-21 6q-18 5 -56 17.5t-52 15.5l-101 37q-67 28 -98 47l-9 6q-105 76 -135 123l-1 2q-58 95 -58 209q0 196 136 317q138 123 356 123q193 0 336 -96q140 -92 182 -240z" />
    <glyph glyph-name="T" unicode="T" horiz-adv-x="1294" 
d="M485 1135h-442v299h1208v-299h-442v-1135h-324v1135z" />
    <glyph glyph-name="U" unicode="U" horiz-adv-x="1437" 
d="M1030 582v852h324v-854q0 -256 -183 -433q-180 -174 -452 -174q-273 0 -453 174q-182 176 -182 433v854h324v-852q0 -134 88 -222t223 -88q133 0 221 88q90 90 90 222z" />
    <glyph glyph-name="V" unicode="V" horiz-adv-x="1480" 
d="M874 0h-268l-594 1434h340l389 -969l19 51l368 918h338z" />
    <glyph glyph-name="W" unicode="W" horiz-adv-x="2052" 
d="M760 0h-266l-482 1434h332l279 -912l270 912h266l273 -912l276 912h332l-479 -1434h-269l-266 866z" />
    <glyph glyph-name="X" unicode="X" horiz-adv-x="1456" 
d="M535 731l-502 703h387l309 -433l307 433h387l-501 -703l522 -731h-387l-328 461l-330 -461h-387z" />
    <glyph glyph-name="Y" unicode="Y" horiz-adv-x="1429" 
d="M549 590l-537 844h373l326 -541l336 541h370l-545 -838v-596h-323v590z" />
    <glyph glyph-name="Z" unicode="Z" horiz-adv-x="1286" 
d="M1223 299v-299h-1153v250l694 885h-688v299h1141v-250l-695 -885h701z" />
    <glyph glyph-name="bracketleft" unicode="[" horiz-adv-x="675" 
d="M373 -100h282v-258h-561v1996h561v-258h-282v-1480z" />
    <glyph glyph-name="backslash" unicode="\" horiz-adv-x="1189" 
d="M260 1636l930 -1994h-260l-930 1994h260z" />
    <glyph glyph-name="bracketright" unicode="]" horiz-adv-x="675" 
d="M580 -358h-560v258h281v1480h-281v258h560v-1996z" />
    <glyph glyph-name="asciicircum" unicode="^" horiz-adv-x="1228" 
d="M113 745l376 689h250l377 -682h-311l-191 338l-192 -345h-309z" />
    <glyph glyph-name="underscore" unicode="_" horiz-adv-x="501" 
d="M0 -369v267h502v-267h-502z" />
    <glyph glyph-name="grave" unicode="`" horiz-adv-x="710" 
d="M541 1448l-467 197l131 241l432 -272z" />
    <glyph glyph-name="a" unicode="a" 
d="M53 532q0 241 144 400q145 160 360 160q163 0 295 -99v72h305v-1065h-305v74q-128 -101 -295 -101q-215 0 -360 160q-144 163 -144 399zM610 788q-100 0 -168.5 -73.5t-68.5 -179.5q0 -110 68.5 -184.5t168.5 -74.5q99 0 168.5 75t69.5 184q0 107 -70 180t-168 73z" />
    <glyph glyph-name="b" unicode="b" 
d="M86 0v1536h307v-543q126 99 293 99q216 0 361 -160t145 -400q0 -234 -145 -399q-145 -160 -361 -160q-161 0 -293 99v-72h-307zM635 788q-100 0 -169 -73.5t-69 -179.5q0 -110 69 -184.5t169 -74.5q99 0 167 74.5t68 184.5q0 108 -69 180q-67 73 -166 73z" />
    <glyph glyph-name="c" unicode="c" horiz-adv-x="1191" 
d="M1161 725l-309 -90q-30 70 -91 111.5t-138 41.5q-109 0 -179 -73q-71 -71 -71 -180q0 -110 72 -184.5t178 -74.5q77 0 138 42t91 112l309 -90q-62 -167 -206.5 -267t-331.5 -100q-243 0 -408 160q-162 162 -162 399q0 242 162 400q165 160 408 160q187 0 331.5 -100
t206.5 -267z" />
    <glyph glyph-name="d" unicode="d" 
d="M53 532q0 241 144 400q145 160 360 160q163 0 295 -99v543h305v-1536h-305v74q-128 -101 -295 -101q-215 0 -360 160q-144 163 -144 399zM610 788q-100 0 -168.5 -73.5t-68.5 -179.5q0 -110 68.5 -184.5t168.5 -74.5q99 0 168.5 75t69.5 184q0 107 -70 180t-168 73z" />
    <glyph glyph-name="e" unicode="e" horiz-adv-x="1220" 
d="M1169 422h-792q26 -85 96.5 -135.5t163.5 -50.5q132 0 211 94l297 -68q-73 -135 -207 -212t-303 -77q-248 0 -416 160q-166 159 -166 399t162 398q162 162 403 162q240 0 402 -162q162 -158 162 -398q0 -53 -13 -110zM379 649h489q-29 82 -96.5 131t-153.5 49
q-82 0 -147.5 -49t-91.5 -131z" />
    <glyph glyph-name="f" unicode="f" horiz-adv-x="727" 
d="M477 1143v-78h232v-260h-232v-805h-307v805h-154v260h154v119q0 151 113 252q112 100 282 100h144v-285h-117q-50 0 -82.5 -30.5t-32.5 -77.5z" />
    <glyph glyph-name="g" unicode="g" 
d="M53 532q0 241 144 400q145 160 360 160q163 0 295 -99v72h305v-1042q0 -219 -156 -363q-153 -147 -383 -147q-183 0 -329 94q-147 96 -195 237l303 72q25 -50 84.5 -81.5t130.5 -31.5q101 0 170.5 61.5t69.5 153.5v56q-128 -101 -295 -101q-215 0 -360 160
q-144 163 -144 399zM610 788q-100 0 -168.5 -74t-68.5 -184q0 -106 68.5 -180t168.5 -74q97 0 168 74q70 73 70 180q0 109 -69.5 183.5t-168.5 74.5z" />
    <glyph glyph-name="h" unicode="h" horiz-adv-x="1189" 
d="M86 0v1536h307v-580q115 136 299 136q173 0 293 -117q119 -116 119 -291v-684h-305v602q0 88 -58.5 146.5t-144.5 58.5t-144.5 -58.5t-58.5 -146.5v-602h-307z" />
    <glyph glyph-name="i" unicode="i" horiz-adv-x="479" 
d="M393 0h-307v1065h307v-1065zM102 1194q-53 53 -53 135t53 135q57 54 138 54t135 -54q55 -52 55 -135t-55 -135q-53 -53 -135 -53t-138 53z" />
    <glyph glyph-name="j" unicode="j" horiz-adv-x="489" 
d="M98 1065h305v-1171q0 -150 -114 -252q-115 -103 -285 -103h-96v293h72q51 0 84.5 30t33.5 75v1128zM252 1518q80 0 134 -54t54 -135t-54 -134.5t-134 -53.5q-82 0 -136.5 53.5t-54.5 134.5q0 82 54.5 135.5t136.5 53.5z" />
    <glyph glyph-name="k" unicode="k" horiz-adv-x="1107" 
d="M86 0v1536h307v-889l301 418h363l-369 -514l408 -551h-369l-334 457v-457h-307z" />
    <glyph glyph-name="l" unicode="l" horiz-adv-x="479" 
d="M393 0h-307v1536h307v-1536z" />
    <glyph glyph-name="m" unicode="m" horiz-adv-x="1810" 
d="M393 0h-307v1065h307v-96q108 123 277 123q209 0 323 -164q105 164 320 164q172 0 293 -115q118 -112 118 -281v-696h-307v614q0 82 -51.5 137.5t-126.5 55.5t-127.5 -56t-52.5 -137v-614h-307v614q0 82 -52 137.5t-127 55.5t-127.5 -56t-52.5 -137v-614z" />
    <glyph glyph-name="n" unicode="n" horiz-adv-x="1177" 
d="M86 0v1065h307v-109q109 136 291 136q172 0 289 -117q119 -116 119 -291v-684h-308v602q0 88 -55 146.5t-139 58.5q-85 0 -141 -58.5t-56 -146.5v-602h-307z" />
    <glyph glyph-name="o" unicode="o" 
d="M215 133q-162 162 -162 399q0 240 162 398q162 162 408 162q243 0 405 -162q164 -159 164 -398q0 -235 -164 -399q-165 -160 -405 -160q-243 0 -408 160zM623 276q105 0 176 74q73 76 73 182q0 108 -73 181q-69 75 -176 75q-109 0 -179 -73q-71 -74 -71 -183
q0 -108 71 -182t179 -74z" />
    <glyph glyph-name="p" unicode="p" 
d="M393 -461h-307v1526h307v-72q126 99 293 99q216 0 361 -160t145 -400q0 -234 -145 -399q-145 -160 -361 -160q-161 0 -293 99v-533zM635 788q-100 0 -169 -74t-69 -184q0 -106 69 -180t169 -74q98 0 166 74q69 72 69 180q0 110 -68 184t-167 74z" />
    <glyph glyph-name="q" unicode="q" 
d="M53 532q0 241 144 400q145 160 360 160q163 0 295 -99v72h305v-1526h-305v535q-128 -101 -295 -101q-215 0 -360 160q-144 163 -144 399zM610 788q-100 0 -168.5 -74t-68.5 -184q0 -106 68.5 -180t168.5 -74q97 0 168 74q70 73 70 180q0 109 -69.5 183.5t-168.5 74.5z
" />
    <glyph glyph-name="r" unicode="r" horiz-adv-x="741" 
d="M393 1065v-111q108 138 326 138v-328q-47 29 -111 29q-92 0 -153.5 -63t-61.5 -157v-573h-307v1065h307z" />
    <glyph glyph-name="s" unicode="s" horiz-adv-x="983" 
d="M920 801l-281 -45q-27 90 -160 90q-121 0 -121 -70q0 -40 84 -71l191 -62q161 -51 232 -128.5t71 -199.5q0 -164 -118 -253t-320 -89q-200 0 -318 83.5t-141 236.5l283 39q30 -107 182 -107q62 0 100.5 21t38.5 57q0 53 -106 82l-195 57q-148 41 -214.5 115t-66.5 193
q0 172 115.5 257t317.5 85q184 0 295 -76.5t131 -214.5z" />
    <glyph glyph-name="t" unicode="t" horiz-adv-x="753" 
d="M16 799v266h146v207h307v-207h242v-266h-242v-400q0 -49 33 -80.5t84 -31.5h125v-287h-176q-157 0 -267 96q-106 97 -106 244v459h-146z" />
    <glyph glyph-name="u" unicode="u" horiz-adv-x="1177" 
d="M86 381v684h307v-602q0 -88 55.5 -146.5t139.5 -58.5q85 0 140.5 58.5t55.5 146.5v602h308v-1065h-308v109q-109 -136 -290 -136q-171 0 -291 117q-117 117 -117 291z" />
    <glyph glyph-name="v" unicode="v" horiz-adv-x="1171" 
d="M438 0l-426 1065h318l256 -682l256 682h317l-426 -1065h-295z" />
    <glyph glyph-name="w" unicode="w" horiz-adv-x="1591" 
d="M629 0h-281l-336 1065h310l165 -592l166 592h283l168 -592l166 592h309l-338 -1065h-278l-166 561z" />
    <glyph glyph-name="x" unicode="x" horiz-adv-x="1169" 
d="M797 0l-213 309l-211 -309h-361l389 549l-366 516h358l191 -277l190 277h359l-365 -516l387 -549h-358z" />
    <glyph glyph-name="y" unicode="y" horiz-adv-x="1130" 
d="M410 -8l6 16l-404 1057h318l231 -657l240 657h317l-452 -1176q-73 -184 -195 -267t-319 -83h-37v293h39q197 0 256 160z" />
    <glyph glyph-name="z" unicode="z" horiz-adv-x="1005" 
d="M59 0v211l453 573h-442v281h864v-211l-451 -573h461v-281h-885z" />
    <glyph glyph-name="braceleft" unicode="{" horiz-adv-x="733" 
d="M569 1638h144v-254h-115q-51 0 -85 -33t-34 -83v-338q0 -116 -57.5 -190t-161.5 -99q104 -25 161.5 -100t57.5 -191v-336q0 -51 34 -84.5t85 -33.5h115v-254h-144q-157 0 -264 104q-104 104 -104 260v340q0 50 -42 92t-93 62l-46 14v250l50 16q30 12 80 56q51 45 51 98
v340q0 156 104 260q107 104 264 104z" />
    <glyph glyph-name="bar" unicode="|" horiz-adv-x="423" 
d="M330 -358h-236v1996h236v-1996z" />
    <glyph glyph-name="braceright" unicode="}" horiz-adv-x="733" 
d="M20 1384v254h144q156 0 260 -104q106 -103 106 -260v-340q0 -49 43 -91.5t95 -62.5l45 -16v-250l-51 -18q-26 -8 -82 -54q-50 -44 -50 -96v-340q0 -157 -106 -260q-104 -104 -260 -104h-144v254h115q51 0 84 33.5t33 84.5v336q0 115 58.5 190.5t162.5 100.5
q-104 25 -162.5 99.5t-58.5 189.5v338q0 50 -33 83t-84 33h-115z" />
    <glyph glyph-name="asciitilde" unicode="~" horiz-adv-x="1228" 
d="M780 522q-48 0 -100.5 19t-89.5 41.5t-74 41.5t-57 19q-37 0 -63.5 -31t-26.5 -75h-256q0 161 98 268q99 108 238 108q89 0 190 -61q103 -59 131 -59q37 0 62.5 31t27.5 75h256q0 -161 -98 -268q-100 -109 -238 -109z" />
    <glyph glyph-name="exclamdown" unicode="&#xa1;" horiz-adv-x="518" 
d="M84 918q0 75 49 124.5t123 49.5q75 0 125.5 -49.5t50.5 -124.5q0 -74 -50.5 -124.5t-125.5 -50.5q-73 0 -122.5 50.5t-49.5 124.5zM96 -369l37 975h252l37 -975h-326z" />
    <glyph glyph-name="cent" unicode="&#xa2;" horiz-adv-x="1191" 
d="M518 -53v219q-202 34 -336 186q-129 153 -129 365q0 214 129 364q135 153 336 187v219h207v-219q153 -26 267.5 -121t168.5 -238l-309 -90q-30 70 -91 112t-138 42q-108 0 -179 -74q-71 -71 -71 -180q0 -110 72 -184t178 -74q77 0 138 41.5t91 111.5l309 -90
q-54 -143 -168.5 -237.5t-267.5 -120.5v-219h-207z" />
    <glyph glyph-name="sterling" unicode="&#xa3;" horiz-adv-x="1261" 
d="M1165 0h-1108v299h156v293h-127v205h127v192q0 201 141 336q144 135 348 135q178 0 322 -102q148 -105 193 -254l-314 -86q-20 62 -75 102.5t-121 40.5q-75 0 -128 -50.5t-53 -119.5v-194h361v-205h-361v-293h639v-299z" />
    <glyph glyph-name="currency" unicode="&#xa4;" horiz-adv-x="1163" 
d="M262 236l-168 165l144 144q-39 79 -39 172q0 94 43 176l-148 145l168 166l146 -145q79 39 172 39q97 0 174 -41l147 147l166 -166l-147 -147q38 -72 38 -174q0 -104 -38 -170l145 -146l-164 -165l-145 143q-82 -43 -176.5 -43t-176.5 43zM434 717q0 -61 42 -103.5
t104 -42.5q61 0 103 42t42 104q0 61 -41.5 103t-103.5 42t-104 -41t-42 -104z" />
    <glyph glyph-name="yen" unicode="&#xa5;" horiz-adv-x="1429" 
d="M530 618l-518 816h373l324 -539l338 539h370l-532 -816h239v-202h-252v-72h252v-205h-252v-139h-323v139h-252v205h252v72h-252v202h233z" />
    <glyph glyph-name="brokenbar" unicode="&#xa6;" horiz-adv-x="423" 
d="M330 1638v-831h-236v831h236zM94 -358v831h236v-831h-236z" />
    <glyph glyph-name="section" unicode="&#xa7;" horiz-adv-x="968" 
d="M489 -393q-169 0 -294 94q-121 93 -156 246l278 82q12 -72 61 -117t116 -45q63 0 105 38t42 95q0 84 -78 119l-250 112q-115 51 -177 143t-62 210q0 133 84 237q-84 96 -84 242q0 170 116 283q120 114 299 114q158 0 271 -88q115 -89 149 -229l-274 -84q-11 62 -52 101.5
t-96 39.5t-90 -37.5t-35 -93.5q0 -84 56 -108l256 -109q121 -51 188.5 -146t67.5 -214q0 -134 -88 -238q88 -101 88 -242q0 -173 -127 -288q-126 -117 -314 -117zM555 612l-166 72q-11 -5 -22 -33t-11 -61q0 -89 66 -117l178 -80q41 35 41 90q0 91 -86 129z" />
    <glyph glyph-name="dieresis" unicode="&#xa8;" horiz-adv-x="909" 
d="M121 1483q-47 47 -47 117t47 114q47 47 117 47t114 -47q44 -44 44 -114t-44 -117q-44 -44 -114 -44t-117 44zM672 1761q69 0 115.5 -46.5t46.5 -115.5t-46.5 -115t-115.5 -46q-68 0 -115 46t-47 115t47 115.5t115 46.5z" />
    <glyph glyph-name="copyright" unicode="&#xa9;" horiz-adv-x="1603" 
d="M803 1452q304 0 518 -217q215 -215 215 -518q0 -302 -215 -520q-215 -215 -518 -215q-305 0 -520 215t-215 520t215 520t520 215zM803 98q251 0 434 183q182 182 182 436t-182 436t-434 182q-256 0 -438 -182q-181 -181 -181 -436q0 -257 181 -438t438 -181zM813 1126
q129 0 231 -61.5t152 -167.5l-186 -68q-58 113 -197 113q-94 0 -156.5 -63.5t-62.5 -159.5q0 -97 62.5 -161t156.5 -64q136 0 197 110l186 -69q-51 -105 -153 -166.5t-230 -61.5q-179 0 -299 117q-119 119 -119 293q0 175 119 291q118 118 299 118z" />
    <glyph glyph-name="ordfeminine" unicode="&#xaa;" horiz-adv-x="856" 
d="M29 1061q0 164 98 274q99 111 242 111q116 0 202 -74v62h234v-746h-234v64q-86 -74 -202 -74q-146 0 -244 110q-96 113 -96 273zM274 1063q0 -66 43 -112t103 -46t103.5 46t43.5 112q0 63 -43.5 108.5t-103.5 45.5t-103 -45.5t-43 -108.5z" />
    <glyph glyph-name="guillemotleft" unicode="&#xab;" horiz-adv-x="1173" 
d="M459 123l-408 409l408 410l174 -174l-236 -236l236 -235zM934 123l-410 409l410 410l172 -174l-236 -236l236 -235z" />
    <glyph glyph-name="logicalnot" unicode="&#xac;" horiz-adv-x="1228" 
d="M856 305v277h-743v272h1003v-549h-260z" />
    <glyph glyph-name="uni00AD" unicode="&#xad;" horiz-adv-x="819" 
d="M113 397v273h594v-273h-594z" />
    <glyph glyph-name="registered" unicode="&#xae;" horiz-adv-x="1603" 
d="M803 1452q304 0 518 -217q215 -215 215 -518q0 -302 -215 -520q-215 -215 -518 -215q-305 0 -520 215t-215 520t215 520t520 215zM803 98q251 0 434 183q182 182 182 436t-182 436t-434 182q-256 0 -438 -182q-181 -181 -181 -436q0 -257 181 -438t438 -181zM674 319
h-195v795h375q127 0 211 -78q86 -77 86 -196q0 -158 -141 -234l166 -287h-213l-144 248h-145v-248zM854 940h-180v-197h180q42 0 70 27.5t28 69.5q0 43 -27.5 71.5t-70.5 28.5z" />
    <glyph glyph-name="overscore" unicode="&#xaf;" horiz-adv-x="788" 
d="M715 1499h-641v227h641v-227z" />
    <glyph glyph-name="degree" unicode="&#xb0;" horiz-adv-x="856" 
d="M53 1186q0 161 107 268q109 109 268 109q157 0 266 -109t109 -268q0 -166 -107 -273q-106 -106 -268 -106q-160 0 -268 108q-107 107 -107 271zM338 1276q-37 -37 -37 -90t37 -90t90 -37t90 37t37 90t-37 90t-90 37t-90 -37z" />
    <glyph glyph-name="plusminus" unicode="&#xb1;" horiz-adv-x="1228" 
d="M479 719h-366v274h366v365h273v-365h364v-274h-364v-287h-273v287zM113 76v272h1003v-272h-1003z" />
    <glyph glyph-name="twosuperior" unicode="&#xb2;" horiz-adv-x="653" 
d="M414 1292q0 32 -28 54t-67 22q-86 0 -129 -100l-170 84q41 91 121 142.5t178 51.5q123 0 205 -73q84 -72 84 -173q0 -124 -174 -276l-106 -100h284v-176h-569v135l281 262q90 84 90 147z" />
    <glyph glyph-name="threesuperior" unicode="&#xb3;" horiz-adv-x="665" 
d="M418 1294q0 31 -30 52.5t-77 21.5q-87 0 -114 -59l-164 53q36 83 114 133.5t179 50.5q119 0 202 -71q82 -70 82 -179q0 -86 -84 -139q107 -52 107 -164q0 -111 -88 -184q-87 -72 -217 -72q-109 0 -190.5 54t-112.5 143l172 61q8 -36 42 -58t83 -22q50 0 83 24t33 60
q0 35 -32.5 58.5t-81.5 23.5h-60v138h39q49 0 82 21.5t33 53.5z" />
    <glyph glyph-name="acute" unicode="&#xb4;" horiz-adv-x="710" 
d="M170 1448l-96 166l432 272l131 -241z" />
    <glyph glyph-name="mu" unicode="&#xb5;" horiz-adv-x="1177" 
d="M494 -27q-61 0 -123 19v-453h-285v1526h307v-602q0 -88 55.5 -146.5t139.5 -58.5q85 0 140.5 58.5t55.5 146.5v602h308v-1065h-308v109q-109 -136 -290 -136z" />
    <glyph glyph-name="paragraph" unicode="&#xb6;" horiz-adv-x="1431" 
d="M494 1434h890v-224h-196v-1568h-236v1568h-223v-1568h-235v933q-182 0 -308 123q-123 123 -123 306q0 184 123 307q126 123 308 123z" />
    <glyph glyph-name="middot" unicode="&#xb7;" horiz-adv-x="460" 
d="M229 891q75 0 126 -49.5t51 -124.5t-51 -124.5t-126 -49.5q-74 0 -123 49.5t-49 124.5t49 124.5t123 49.5z" />
    <glyph glyph-name="cedilla" unicode="&#xb8;" horiz-adv-x="643" 
d="M195 -174l43 174h208l-18 -82q6 -1 15 -3.5t33 -15t42.5 -29t33.5 -48t15 -70.5q0 -94 -76.5 -156.5t-193.5 -62.5q-54 0 -110.5 15t-84.5 34l-28 19l28 137q52 -43 138 -43q51 0 85.5 17.5t34.5 43.5q0 24 -38 42.5t-84 23.5z" />
    <glyph glyph-name="onesuperior" unicode="&#xb9;" horiz-adv-x="501" 
d="M227 1325l-129 -59l-67 155l248 115h131v-788h-183v577z" />
    <glyph glyph-name="ordmasculine" unicode="&#xba;" horiz-adv-x="858" 
d="M430 1446q172 0 285 -113q116 -110 116 -272q0 -163 -116 -273q-113 -110 -285 -110q-174 0 -287 110q-114 111 -114 273q0 161 114 272q113 113 287 113zM430 905q63 0 109.5 46.5t46.5 109.5t-46.5 109.5t-109.5 46.5q-66 0 -112 -46.5t-46 -109.5t46 -109.5t112 -46.5
z" />
    <glyph glyph-name="guillemotright" unicode="&#xbb;" horiz-adv-x="1173" 
d="M713 942l409 -410l-409 -409l-174 174l235 235l-235 236zM240 942l409 -410l-409 -409l-174 174l235 235l-235 236z" />
    <glyph glyph-name="onequarter" unicode="&#xbc;" horiz-adv-x="1677" 
d="M1419 1434l-1005 -1434h-256l1007 1434h254zM991 141v178l395 469h177v-471h88v-176h-88v-141h-187v141h-385zM227 1223l-129 -60l-67 156l248 115h131v-789h-183v578zM1376 516l-164 -199h164v199z" />
    <glyph glyph-name="onehalf" unicode="&#xbd;" horiz-adv-x="1728" 
d="M414 0h-256l1007 1434h254zM1266 520l-172 84q41 91 122 143t179 52q119 0 202 -74q84 -72 84 -172q0 -127 -172 -277l-108 -100h287v-176h-570v135l281 262q90 84 90 148q0 32 -27.5 54t-66.5 22q-86 0 -129 -101zM98 1163l-67 156l248 115h131v-789h-183v578z" />
    <glyph glyph-name="threequarters" unicode="&#xbe;" horiz-adv-x="1814" 
d="M547 0h-254l1005 1434h254zM1130 141v178l396 469h176v-471h88v-176h-88v-141h-186v141h-386zM328 635q-109 0 -190.5 53.5t-112.5 142.5l172 62q8 -36 42 -58t83 -22q50 0 83 24t33 60q0 35 -32.5 58.5t-81.5 23.5h-60v137h39q49 0 82 22t33 54q0 31 -30 52.5t-77 21.5
q-86 0 -114 -60l-164 54q36 83 114 133.5t179 50.5q118 0 202 -72q82 -70 82 -178q0 -86 -84 -139q107 -49 107 -164q0 -111 -88 -184q-87 -72 -217 -72zM1516 516l-166 -199h166v199z" />
    <glyph glyph-name="questiondown" unicode="&#xbf;" horiz-adv-x="1206" 
d="M389 61q0 -69 68 -118t166 -49q84 0 145.5 38.5t85.5 102.5l313 -86q-50 -158 -196 -256q-147 -99 -344 -99q-236 0 -394 134q-157 133 -157 335q0 93 38.5 172.5t98.5 124.5q123 95 209 119l41 10l14 109h258l33 -281q-38 -3 -131 -36q-43 -14 -117 -52
q-54 -29 -92.5 -74.5t-38.5 -93.5zM737 1038q54 -54 54 -129q0 -77 -54 -131q-51 -51 -129 -51q-80 0 -131 51t-51 131q0 78 51 129q54 54 131 54q75 0 129 -54z" />
    <glyph glyph-name="Agrave" unicode="&#xc0;" horiz-adv-x="1501" 
d="M352 0h-340l604 1434h269l602 -1434h-338l-98 242h-600zM848 1542l-467 199l131 239l432 -272zM932 532l-180 441l-181 -441h361z" />
    <glyph glyph-name="Aacute" unicode="&#xc1;" horiz-adv-x="1501" 
d="M352 0h-340l604 1434h269l602 -1434h-338l-98 242h-600zM1110 1741l-467 -199l-94 166l432 272zM932 532l-180 441l-181 -441h361z" />
    <glyph glyph-name="Acircumflex" unicode="&#xc2;" horiz-adv-x="1501" 
d="M352 0h-340l604 1434h269l602 -1434h-338l-98 242h-600zM477 1534l-108 158l374 272h15l375 -272l-109 -156l-274 156zM932 532l-180 441l-181 -441h361z" />
    <glyph glyph-name="Atilde" unicode="&#xc3;" horiz-adv-x="1501" 
d="M451 242l-99 -242h-340l604 1434h269l602 -1434h-338l-98 242h-600zM596 1579h-205q0 106 72 184q74 80 176 80q64 0 125 -43q65 -41 80 -41q25 0 43 21.5t18 52.5h203q0 -110 -72 -188q-70 -76 -172 -76q-64 0 -129 41q-62 41 -80 41q-25 0 -42 -20.5t-17 -51.5z
M932 532l-180 441l-181 -441h361z" />
    <glyph glyph-name="Adieresis" unicode="&#xc4;" horiz-adv-x="1501" 
d="M451 242l-99 -242h-340l604 1434h269l602 -1434h-338l-98 242h-600zM416 1577q-44 47 -44 117t44 114q47 47 117 47t114 -47q47 -44 47 -114t-47 -117q-44 -44 -114 -44t-117 44zM967 1855q69 0 116 -46t47 -115t-47 -115.5t-116 -46.5q-68 0 -114 46.5t-46 115.5t46 115
t114 46zM932 532l-180 441l-181 -441h361z" />
    <glyph glyph-name="Aring" unicode="&#xc5;" horiz-adv-x="1501" 
d="M451 242l-99 -242h-340l604 1434h269l602 -1434h-338l-98 242h-600zM999 1776q0 -106 -73 -179q-74 -71 -176 -71q-103 0 -177 71q-71 74 -71 179q0 102 71 176q73 73 177 73q103 0 176 -73t73 -176zM932 532l-180 441l-181 -441h361zM750 1712q30 0 47.5 20t17.5 43.5
t-17.5 43.5t-47.5 20q-29 0 -45.5 -20t-16.5 -43.5t16.5 -43.5t45.5 -20z" />
    <glyph glyph-name="AE" unicode="&#xc6;" horiz-adv-x="2097" 
d="M518 242l-141 -242h-365l865 1434h1148v-299h-684v-263h568v-299h-568v-274h695v-299h-1018v242h-500zM690 532h328v558z" />
    <glyph glyph-name="Ccedilla" unicode="&#xc7;" horiz-adv-x="1554" 
d="M68 717q0 318 215 530q216 213 536 213q232 0 410 -112q184 -113 272 -299l-315 -117q-55 101 -151 159t-216 58q-176 0 -295 -125q-118 -121 -118 -307q0 -185 118 -309q120 -123 295 -123q120 0 216 58t151 159l315 -117q-79 -163 -226.5 -270t-334.5 -133l-14 -64
q6 -1 15.5 -3.5t33.5 -15t43 -29t34 -48t15 -70.5q0 -94 -76.5 -156.5t-193.5 -62.5q-54 0 -111.5 15t-85.5 34l-27 19l29 137q52 -43 137 -43q51 0 86 17.5t35 43.5q0 24 -38.5 42.5t-84.5 23.5l-43 4l35 151q-285 30 -475 238q-186 207 -186 502z" />
    <glyph glyph-name="Egrave" unicode="&#xc8;" horiz-adv-x="1232" 
d="M96 0v1434h1071v-299h-745v-263h627v-299h-627v-274h756v-299h-1082zM821 1708l-94 -166l-469 199l131 239z" />
    <glyph glyph-name="Eacute" unicode="&#xc9;" horiz-adv-x="1232" 
d="M96 1434h1071v-299h-745v-263h627v-299h-627v-274h756v-299h-1082v1434zM522 1542l-96 166l432 272l131 -239z" />
    <glyph glyph-name="Ecircumflex" unicode="&#xca;" horiz-adv-x="1232" 
d="M96 0v1434h1071v-299h-745v-263h627v-299h-627v-274h756v-299h-1082zM354 1534l-108 158l375 272h14l375 -272l-109 -156l-272 156z" />
    <glyph glyph-name="Edieresis" unicode="&#xcb;" horiz-adv-x="1232" 
d="M1178 0h-1082v1434h1071v-299h-745v-263h627v-299h-627v-274h756v-299zM729 1577q-44 47 -44 117t44 114q47 47 117.5 47t114.5 -47q47 -44 47 -114t-47 -117q-44 -44 -114.5 -44t-117.5 44zM524 1577q-44 -44 -114 -44t-117 44q-44 47 -44 117t44 114q47 47 117 47
t114 -47q47 -44 47 -114t-47 -117z" />
    <glyph glyph-name="Igrave" unicode="&#xcc;" horiz-adv-x="518" 
d="M422 0h-326v1434h326v-1434zM358 1542l-469 199l131 239l433 -272z" />
    <glyph glyph-name="Iacute" unicode="&#xcd;" horiz-adv-x="518" 
d="M422 0h-326v1434h326v-1434zM152 1542l-95 166l432 272l132 -239z" />
    <glyph glyph-name="Icircumflex" unicode="&#xce;" horiz-adv-x="518" 
d="M422 0h-326v1434h326v-1434zM258 1692l-272 -158l-109 158l375 272h14l375 -272l-109 -156z" />
    <glyph glyph-name="Idieresis" unicode="&#xcf;" horiz-adv-x="518" 
d="M422 0h-326v1434h326v-1434zM-74 1577q-47 47 -47 117t47 114q44 47 115 47t115 -47q47 -44 47 -114t-47 -117q-44 -44 -115 -44t-115 44zM360 1577q-44 47 -44 117t44 114q47 47 117.5 47t114.5 -47q47 -44 47 -114t-47 -117q-44 -44 -114.5 -44t-117.5 44z" />
    <glyph glyph-name="Eth" unicode="&#xd0;" horiz-adv-x="1560" 
d="M16 586v262h136v586h589q321 0 537 -207q217 -205 217 -510t-217 -510q-216 -207 -537 -207h-589v586h-136zM477 1135v-287h348v-262h-348v-287h264q176 0 297 121q119 119 119 297t-119 297q-121 121 -297 121h-264z" />
    <glyph glyph-name="Ntilde" unicode="&#xd1;" horiz-adv-x="1476" 
d="M96 0v1434h289l682 -879v879h313v-1434h-288l-682 874v-874h-314zM584 1579h-203q0 106 72 184q74 80 174 80q64 0 125 -43q65 -41 82 -41q25 0 42 21.5t17 52.5h205q0 -110 -72 -188q-70 -76 -172 -76q-64 0 -129 41q-62 41 -80 41q-25 0 -43 -21t-18 -51z" />
    <glyph glyph-name="Ograve" unicode="&#xd2;" horiz-adv-x="1638" 
d="M283 186q-215 212 -215 531q0 318 215 530q216 213 536 213q321 0 537 -213q217 -211 217 -530q0 -320 -217 -531q-216 -213 -537 -213q-320 0 -536 213zM819 285q177 0 297 123q119 125 119 309q0 185 -119 307q-119 125 -297 125q-176 0 -295 -125q-118 -121 -118 -307
q0 -185 118 -309q120 -123 295 -123zM918 1542l-467 199l131 239l432 -272z" />
    <glyph glyph-name="Oacute" unicode="&#xd3;" horiz-adv-x="1638" 
d="M283 186q-215 212 -215 531q0 318 215 530q216 213 536 213q321 0 537 -213q217 -211 217 -530q0 -320 -217 -531q-216 -213 -537 -213q-320 0 -536 213zM819 285q177 0 297 123q119 125 119 309q0 185 -119 307q-119 125 -297 125q-176 0 -295 -125q-118 -121 -118 -307
q0 -185 118 -309q120 -123 295 -123zM713 1542l-97 166l433 272l131 -239z" />
    <glyph glyph-name="Ocircumflex" unicode="&#xd4;" horiz-adv-x="1638" 
d="M283 186q-215 212 -215 531q0 318 215 530q216 213 536 213q321 0 537 -213q217 -211 217 -530q0 -320 -217 -531q-216 -213 -537 -213q-320 0 -536 213zM819 285q177 0 297 123q119 125 119 309q0 185 -119 307q-119 125 -297 125q-176 0 -295 -125q-118 -121 -118 -307
q0 -185 118 -309q120 -123 295 -123zM819 1692l-272 -158l-109 158l375 272h14l375 -272l-108 -156z" />
    <glyph glyph-name="Otilde" unicode="&#xd5;" horiz-adv-x="1638" 
d="M283 186q-215 212 -215 531q0 318 215 530q216 213 536 213q321 0 537 -213q217 -211 217 -530q0 -320 -217 -531q-216 -213 -537 -213q-320 0 -536 213zM819 285q177 0 297 123q119 125 119 309q0 185 -119 307q-119 125 -297 125q-176 0 -295 -125q-118 -121 -118 -307
q0 -185 118 -309q120 -123 295 -123zM664 1579h-203q0 107 71 184q74 80 175 80q63 0 127 -43q65 -41 79 -41q25 0 42.5 21.5t17.5 52.5h205q0 -110 -72 -188q-70 -76 -172 -76q-64 0 -129 41q-62 41 -80 41q-25 0 -43 -21t-18 -51z" />
    <glyph glyph-name="Odieresis" unicode="&#xd6;" horiz-adv-x="1638" 
d="M283 186q-215 212 -215 531q0 318 215 530q216 213 536 213q321 0 537 -213q217 -211 217 -530q0 -320 -217 -531q-216 -213 -537 -213q-320 0 -536 213zM819 285q177 0 297 123q119 125 119 309q0 185 -119 307q-119 125 -297 125q-176 0 -295 -125q-118 -121 -118 -307
q0 -185 118 -309q120 -123 295 -123zM485 1577q-44 47 -44 117t44 114q47 47 117.5 47t114.5 -47q47 -44 47 -114t-47 -117q-44 -44 -114.5 -44t-117.5 44zM1036 1855q69 0 116.5 -46t47.5 -115t-47.5 -115.5t-116.5 -46.5q-68 0 -113.5 46.5t-45.5 115.5t45.5 115t113.5 46
z" />
    <glyph glyph-name="multiply" unicode="&#xd7;" horiz-adv-x="1228" 
d="M420 717l-303 301l192 194l305 -301l306 303l192 -192l-303 -305l303 -301l-192 -195l-306 303l-305 -303l-192 195z" />
    <glyph glyph-name="Oslash" unicode="&#xd8;" horiz-adv-x="1638" 
d="M264 76l53 80q-119 100 -184 245.5t-65 315.5q0 318 215 530q216 213 536 213q190 0 355 -80l55 80l149 -102l-55 -80q250 -218 250 -561q0 -320 -217 -531q-216 -213 -537 -213q-190 0 -350 80l-57 -80zM1133 1006l-480 -687q75 -34 166 -34q177 0 297 123
q119 125 119 309q0 175 -102 289zM508 426l479 688q-78 35 -168 35q-176 0 -295 -125q-118 -121 -118 -307q0 -171 102 -291z" />
    <glyph glyph-name="Ugrave" unicode="&#xd9;" horiz-adv-x="1437" 
d="M1030 582v852h324v-854q0 -256 -183 -433q-180 -174 -452 -174q-273 0 -453 174q-182 176 -182 433v854h324v-852q0 -134 88 -222t223 -88q133 0 221 88q90 90 90 222zM817 1542l-467 199l131 239l432 -272z" />
    <glyph glyph-name="Uacute" unicode="&#xda;" horiz-adv-x="1437" 
d="M1030 582v852h324v-854q0 -256 -183 -433q-180 -174 -452 -174q-273 0 -453 174q-182 176 -182 433v854h324v-852q0 -134 88 -222t223 -88q133 0 221 88q90 90 90 222zM612 1542l-96 166l432 272l131 -239z" />
    <glyph glyph-name="Ucircumflex" unicode="&#xdb;" horiz-adv-x="1437" 
d="M1030 582v852h324v-854q0 -256 -183 -433q-180 -174 -452 -174q-273 0 -453 174q-182 176 -182 433v854h324v-852q0 -134 88 -222t223 -88q133 0 221 88q90 90 90 222zM719 1692l-275 -158l-108 158l375 272h14l375 -272l-109 -156z" />
    <glyph glyph-name="Udieresis" unicode="&#xdc;" horiz-adv-x="1437" 
d="M1030 582v852h324v-854q0 -256 -183 -433q-180 -174 -452 -174q-273 0 -453 174q-182 176 -182 433v854h324v-852q0 -134 88 -222t223 -88q133 0 221 88q90 90 90 222zM385 1577q-47 47 -47 117t47 114q47 47 117 47t114 -47q47 -44 47 -114t-47 -117q-44 -44 -114 -44
t-117 44zM936 1855q69 0 116.5 -46t47.5 -115t-47.5 -115.5t-116.5 -46.5q-68 0 -115 46.5t-47 115.5t47 115t115 46z" />
    <glyph glyph-name="Yacute" unicode="&#xdd;" horiz-adv-x="1429" 
d="M549 0v590l-537 844h373l326 -541l336 541h370l-545 -838v-596h-323zM1077 1741l-467 -199l-96 166l432 272z" />
    <glyph glyph-name="Thorn" unicode="&#xde;" horiz-adv-x="1323" 
d="M96 0v1434h326v-236h326q220 0 368 -139q150 -138 150 -342q0 -206 -150 -344q-146 -137 -368 -137h-326v-236h-326zM748 899h-326v-364h326q78 0 129 52t51 130t-51 130t-129 52z" />
    <glyph glyph-name="germandbls" unicode="&#xdf;" horiz-adv-x="1224" 
d="M557 1264q-70 0 -117 -43t-47 -109v-1112h-307v1165q0 168 133 283t334 115q188 0 315 -103q129 -102 129 -256q0 -52 -22.5 -106t-49 -90.5t-49 -74.5t-22.5 -63q0 -41 33.5 -78.5t81 -73.5t95 -80.5t81 -119t33.5 -170.5q0 -195 -141 -281.5t-455 -86.5v299
q164 0 224 20.5t60 75.5q0 71 -114 145q-36 24 -57.5 40t-54 47.5t-51 61.5t-32.5 75t-14 96q-2 60 20.5 118.5t50 94.5t50 70.5t20.5 52.5q0 38 -37.5 63t-89.5 25z" />
    <glyph glyph-name="agrave" unicode="&#xe0;" 
d="M557 -27q-215 0 -360 160q-144 163 -144 399q0 241 144 400q145 160 360 160q163 0 295 -99v72h305v-1065h-305v74q-128 -101 -295 -101zM373 535q0 -110 68.5 -184.5t168.5 -74.5q99 0 168.5 75t69.5 184q0 107 -70 180t-168 73q-100 0 -168.5 -73.5t-68.5 -179.5z
M825 1360l-96 -166l-467 199l131 239z" />
    <glyph glyph-name="aacute" unicode="&#xe1;" 
d="M557 -27q-215 0 -360 160q-144 163 -144 399q0 241 144 400q145 160 360 160q163 0 295 -99v72h305v-1065h-305v74q-128 -101 -295 -101zM373 535q0 -110 68.5 -184.5t168.5 -74.5q99 0 168.5 75t69.5 184q0 107 -70 180t-168 73q-100 0 -168.5 -73.5t-68.5 -179.5z
M991 1393l-467 -199l-96 166l432 272z" />
    <glyph glyph-name="acircumflex" unicode="&#xe2;" 
d="M557 -27q-215 0 -360 160q-144 163 -144 399q0 241 144 400q145 160 360 160q163 0 295 -99v72h305v-1065h-305v74q-128 -101 -295 -101zM373 535q0 -110 68.5 -184.5t168.5 -74.5q99 0 168.5 75t69.5 184q0 107 -70 180t-168 73q-100 0 -168.5 -73.5t-68.5 -179.5z
M356 1186l-108 157l375 273h14l375 -273l-109 -155l-272 155z" />
    <glyph glyph-name="atilde" unicode="&#xe3;" 
d="M557 -27q-215 0 -360 160q-144 163 -144 399q0 241 144 400q145 160 360 160q163 0 295 -99v72h305v-1065h-305v74q-128 -101 -295 -101zM373 535q0 -110 68.5 -184.5t168.5 -74.5q99 0 168.5 75t69.5 184q0 107 -70 180t-168 73q-100 0 -168.5 -73.5t-68.5 -179.5z
M475 1231h-205q0 107 74 184q74 80 174 80q64 0 125 -43q65 -41 82 -41q25 0 42 21.5t17 52.5h205q0 -112 -71 -189q-69 -75 -175 -75q-65 0 -127 41t-79 41q-25 0 -43.5 -21t-18.5 -51z" />
    <glyph glyph-name="adieresis" unicode="&#xe4;" 
d="M53 532q0 241 144 400q145 160 360 160q163 0 295 -99v72h305v-1065h-305v74q-128 -101 -295 -101q-215 0 -360 160q-144 163 -144 399zM610 788q-100 0 -168.5 -73.5t-68.5 -179.5q0 -110 68.5 -184.5t168.5 -74.5q99 0 168.5 75t69.5 184q0 107 -70 180t-168 73z
M412 1184q-68 0 -115 46.5t-47 115.5t47 115t115 46q69 0 115 -46t46 -115t-46 -115.5t-115 -46.5zM848 1507q69 0 115.5 -46t46.5 -115t-46.5 -115.5t-115.5 -46.5q-68 0 -115 46.5t-47 115.5t47 115t115 46z" />
    <glyph glyph-name="aring" unicode="&#xe5;" 
d="M557 -27q-215 0 -360 160q-144 163 -144 399q0 241 144 400q145 160 360 160q163 0 295 -99v72h305v-1065h-305v74q-128 -101 -295 -101zM631 1178q-104 0 -178 71q-72 75 -72 178q0 102 72 177q73 73 178 73q103 0 176 -73q74 -74 74 -177q0 -104 -74 -178
q-74 -71 -176 -71zM373 535q0 -110 68.5 -184.5t168.5 -74.5q99 0 168.5 75t69.5 184q0 107 -70 180t-168 73q-100 0 -168.5 -73.5t-68.5 -179.5zM584 1473q-17 -19 -17 -45.5t17 -45.5q19 -19 47 -19t45 19q19 19 19 45.5t-19 45.5q-17 19 -45 19t-47 -19z" />
    <glyph glyph-name="ae" unicode="&#xe6;" horiz-adv-x="2019" 
d="M553 -27q-211 0 -356 160q-144 163 -144 399q0 241 144 400q145 160 356 160q167 0 299 -105v78h305v-70q135 97 301 97q220 0 369 -162q151 -160 151 -398q0 -62 -10 -110h-792q26 -85 96.5 -135.5t163.5 -50.5q132 0 211 94l297 -68q-68 -135 -192.5 -212t-281.5 -77
q-176 0 -313 101v-74h-305v78q-132 -105 -299 -105zM373 535q0 -110 68.5 -184.5t168.5 -74.5q99 0 168.5 75t69.5 184q0 107 -70 180t-168 73q-100 0 -168.5 -73.5t-68.5 -179.5zM1178 649h487q-26 82 -93.5 131t-154.5 49q-82 0 -147.5 -49t-91.5 -131z" />
    <glyph glyph-name="ccedilla" unicode="&#xe7;" horiz-adv-x="1191" 
d="M496 -174l36 154q-210 30 -346 184q-133 154 -133 368q0 242 162 400q165 160 408 160q187 0 331.5 -100t206.5 -267l-309 -90q-30 70 -91 111.5t-138 41.5q-109 0 -179 -73q-71 -71 -71 -180q0 -110 72 -184.5t178 -74.5q77 0 138 42t91 112l309 -90q-51 -140 -162 -234
t-258 -120l-14 -68q6 -1 15.5 -3.5t33.5 -15t43 -29t34 -48t15 -70.5q0 -94 -77.5 -156.5t-194.5 -62.5q-54 0 -110.5 15t-84.5 34l-26 19l28 137q52 -43 138 -43q51 0 86 17.5t35 43.5q0 24 -39 42.5t-86 23.5z" />
    <glyph glyph-name="egrave" unicode="&#xe8;" horiz-adv-x="1220" 
d="M1169 422h-792q26 -85 96.5 -135.5t163.5 -50.5q132 0 211 94l297 -68q-73 -135 -207 -212t-303 -77q-248 0 -416 160q-166 159 -166 399t162 398q162 162 403 162q240 0 402 -162q162 -158 162 -398q0 -53 -13 -110zM379 649h489q-29 82 -96.5 131t-153.5 49
q-82 0 -147.5 -49t-91.5 -131zM719 1194l-467 199l131 239l432 -272z" />
    <glyph glyph-name="eacute" unicode="&#xe9;" horiz-adv-x="1220" 
d="M1169 422h-792q26 -85 96.5 -135.5t163.5 -50.5q132 0 211 94l297 -68q-73 -135 -207 -212t-303 -77q-248 0 -416 160q-166 159 -166 399t162 398q162 162 403 162q240 0 402 -162q162 -158 162 -398q0 -53 -13 -110zM379 649h489q-29 82 -96.5 131t-153.5 49
q-82 0 -147.5 -49t-91.5 -131zM514 1194l-96 166l432 272l131 -239z" />
    <glyph glyph-name="ecircumflex" unicode="&#xea;" horiz-adv-x="1220" 
d="M1169 422h-792q26 -85 96.5 -135.5t163.5 -50.5q132 0 211 94l297 -68q-73 -135 -207 -212t-303 -77q-248 0 -416 160q-166 159 -166 399t162 398q162 162 403 162q240 0 402 -162q162 -158 162 -398q0 -53 -13 -110zM379 649h489q-29 82 -96.5 131t-153.5 49
q-82 0 -147.5 -49t-91.5 -131zM621 1343l-273 -157l-108 157l374 273h15l375 -273l-109 -155z" />
    <glyph glyph-name="edieresis" unicode="&#xeb;" horiz-adv-x="1220" 
d="M1169 422h-792q26 -85 96.5 -135.5t163.5 -50.5q132 0 211 94l297 -68q-73 -135 -207 -212t-303 -77q-248 0 -416 160q-166 159 -166 399t162 398q162 162 403 162q240 0 402 -162q162 -158 162 -398q0 -53 -13 -110zM379 649h489q-29 82 -96.5 131t-153.5 49
q-82 0 -147.5 -49t-91.5 -131zM287 1229q-44 47 -44 117t44 114q47 47 117 47t114 -47q47 -44 47 -114t-47 -117q-44 -44 -114 -44t-117 44zM838 1507q69 0 116 -46t47 -115t-47 -115.5t-116 -46.5q-68 0 -114 46.5t-46 115.5t46 115t114 46z" />
    <glyph glyph-name="igrave" unicode="&#xec;" horiz-adv-x="479" 
d="M393 0h-307v1065h307v-1065zM-88 1391l131 241l432 -272l-96 -166z" />
    <glyph glyph-name="iacute" unicode="&#xed;" horiz-adv-x="479" 
d="M393 0h-307v1065h307v-1065zM-6 1360l432 272l131 -241l-467 -197z" />
    <glyph glyph-name="icircumflex" unicode="&#xee;" horiz-adv-x="487" 
d="M397 0h-307v1065h307v-1065zM4 1194l-121 149l353 273h14l352 -273l-121 -147l-237 147z" />
    <glyph glyph-name="idieresis" unicode="&#xef;" horiz-adv-x="493" 
d="M399 0h-305v1065h305v-1065zM-45 1233q-44 44 -44 112.5t44 112.5t110 44t109 -44q44 -44 44 -112.5t-44 -112.5q-43 -44 -109 -44t-110 44zM317 1233q-43 44 -43 112.5t43 112.5q44 44 111 44t111 -44t44 -112.5t-44 -112.5t-111 -44t-111 44z" />
    <glyph glyph-name="eth" unicode="&#xf0;" 
d="M623 1092q89 0 184 -29q-73 135 -225 188l-88 -139l-144 92l53 84q-73 6 -157 6v269q178 0 313 -27l86 133l143 -90l-59 -94q235 -94 348.5 -323.5t114.5 -624.5q0 -245 -164 -404q-165 -160 -405 -160q-243 0 -408 160q-162 162 -162 399q0 240 162 398q162 162 408 162
zM623 276q105 0 176 74q73 76 73 182q0 108 -73 181q-69 75 -176 75q-109 0 -179 -73q-71 -74 -71 -183q0 -108 71 -182t179 -74z" />
    <glyph glyph-name="ntilde" unicode="&#xf1;" horiz-adv-x="1177" 
d="M86 0v1065h307v-109q109 136 291 136q172 0 289 -117q119 -116 119 -291v-684h-308v602q0 88 -55 146.5t-139 58.5q-85 0 -141 -58.5t-56 -146.5v-602h-307zM444 1231h-202q0 107 71 184q74 80 174 80q63 0 127 -43q65 -41 80 -41q25 0 42.5 21.5t17.5 52.5h204
q0 -112 -71 -189q-69 -75 -172 -75q-64 0 -129 41q-62 41 -80 41q-25 0 -43.5 -21t-18.5 -51z" />
    <glyph glyph-name="ograve" unicode="&#xf2;" 
d="M215 133q-162 162 -162 399q0 240 162 398q162 162 408 162q243 0 405 -162q164 -159 164 -398q0 -235 -164 -399q-165 -160 -405 -160q-243 0 -408 160zM623 276q105 0 176 74q73 76 73 182q0 108 -73 181q-69 75 -176 75q-109 0 -179 -73q-71 -74 -71 -183
q0 -108 71 -182t179 -74zM721 1194l-467 199l129 239l432 -272z" />
    <glyph glyph-name="oacute" unicode="&#xf3;" 
d="M215 133q-162 162 -162 399q0 240 162 398q162 162 408 162q243 0 405 -162q164 -159 164 -398q0 -235 -164 -399q-165 -160 -405 -160q-243 0 -408 160zM623 276q105 0 176 74q73 76 73 182q0 108 -73 181q-69 75 -176 75q-109 0 -179 -73q-71 -74 -71 -183
q0 -108 71 -182t179 -74zM516 1194l-96 166l432 272l131 -239z" />
    <glyph glyph-name="ocircumflex" unicode="&#xf4;" 
d="M215 133q-162 162 -162 399q0 240 162 398q162 162 408 162q243 0 405 -162q164 -159 164 -398q0 -235 -164 -399q-165 -160 -405 -160q-243 0 -408 160zM623 276q105 0 176 74q73 76 73 182q0 108 -73 181q-69 75 -176 75q-109 0 -179 -73q-71 -74 -71 -183
q0 -108 71 -182t179 -74zM623 1343l-275 -157l-108 157l374 273h15l375 -273l-109 -155z" />
    <glyph glyph-name="otilde" unicode="&#xf5;" 
d="M215 133q-162 162 -162 399q0 240 162 398q162 162 408 162q243 0 405 -162q164 -159 164 -398q0 -235 -164 -399q-165 -160 -405 -160q-243 0 -408 160zM623 276q105 0 176 74q73 76 73 182q0 108 -73 181q-69 75 -176 75q-109 0 -179 -73q-71 -74 -71 -183
q0 -108 71 -182t179 -74zM467 1231h-205q0 107 74 184q74 80 174 80q64 0 125 -43q65 -41 82 -41q25 0 42 21.5t17 52.5h205q0 -111 -72 -189q-69 -75 -174 -75q-65 0 -127 41t-80 41q-25 0 -43 -21t-18 -51z" />
    <glyph glyph-name="odieresis" unicode="&#xf6;" 
d="M215 133q-162 162 -162 399q0 240 162 398q162 162 408 162q243 0 405 -162q164 -159 164 -398q0 -235 -164 -399q-165 -160 -405 -160q-243 0 -408 160zM623 276q105 0 176 74q73 76 73 182q0 108 -73 181q-69 75 -176 75q-109 0 -179 -73q-71 -74 -71 -183
q0 -108 71 -182t179 -74zM287 1229q-44 47 -44 117t44 114q47 47 117 47t114 -47q47 -44 47 -114t-47 -117q-44 -44 -114 -44t-117 44zM723 1229q-44 47 -44 117t44 114q47 47 117 47t114 -47q47 -44 47 -114t-47 -117q-44 -44 -114 -44t-117 44z" />
    <glyph glyph-name="divide" unicode="&#xf7;" horiz-adv-x="1228" 
d="M113 582v272h1003v-272h-1003zM483 156q-51 51 -51 131q0 78 51 129q53 53 131 53q76 0 129 -53q54 -54 54 -129q0 -77 -54 -131q-52 -52 -129 -52q-79 0 -131 52zM483 1016q-51 51 -51 131q0 78 51 129q53 53 131 53q76 0 129 -53q54 -54 54 -129q0 -77 -54 -131
q-51 -51 -129 -51q-80 0 -131 51z" />
    <glyph glyph-name="oslash" unicode="&#xf8;" 
d="M623 1092q131 0 251 -54l37 54l136 -95l-35 -51q180 -158 180 -414q0 -235 -164 -399q-165 -160 -405 -160q-139 0 -254 56l-37 -56l-135 95l36 53q-180 158 -180 411q0 240 162 398q162 162 408 162zM825 682l-276 -395q37 -11 74 -11q105 0 176 74q73 76 73 182
q0 79 -47 150zM418 385l276 393q-33 10 -71 10q-109 0 -179 -73q-71 -74 -71 -183q0 -85 45 -147z" />
    <glyph glyph-name="ugrave" unicode="&#xf9;" horiz-adv-x="1177" 
d="M494 -27q-171 0 -291 117q-117 117 -117 291v684h307v-602q0 -88 55.5 -146.5t139.5 -58.5q85 0 140.5 58.5t55.5 146.5v602h308v-1065h-308v109q-109 -136 -290 -136zM784 1360l-96 -166l-467 199l131 239z" />
    <glyph glyph-name="uacute" unicode="&#xfa;" horiz-adv-x="1177" 
d="M494 -27q-171 0 -291 117q-117 117 -117 291v684h307v-602q0 -88 55.5 -146.5t139.5 -58.5q85 0 140.5 58.5t55.5 146.5v602h308v-1065h-308v109q-109 -136 -290 -136zM950 1393l-467 -199l-96 166l432 272z" />
    <glyph glyph-name="ucircumflex" unicode="&#xfb;" horiz-adv-x="1177" 
d="M86 381v684h307v-602q0 -88 55.5 -146.5t139.5 -58.5q85 0 140.5 58.5t55.5 146.5v602h308v-1065h-308v109q-109 -136 -290 -136q-171 0 -291 117q-117 117 -117 291zM590 1343l-275 -157l-108 157l375 273h14l375 -273l-109 -155z" />
    <glyph glyph-name="udieresis" unicode="&#xfc;" horiz-adv-x="1177" 
d="M86 381v684h307v-602q0 -88 55.5 -146.5t139.5 -58.5q85 0 140.5 58.5t55.5 146.5v602h308v-1065h-308v109q-109 -136 -290 -136q-171 0 -291 117q-117 117 -117 291zM256 1229q-47 47 -47 117t47 114q47 47 117 47t114 -47q47 -44 47 -114t-47 -117q-44 -44 -114 -44
t-117 44zM807 1184q-68 0 -115 46.5t-47 115.5t47 115t115 46q69 0 116.5 -46t47.5 -115t-47.5 -115.5t-116.5 -46.5z" />
    <glyph glyph-name="yacute" unicode="&#xfd;" horiz-adv-x="1130" 
d="M416 8l-404 1057h318l231 -657l240 657h317l-452 -1176q-73 -184 -195 -267t-319 -83h-37v293h39q197 0 256 160zM459 1194l-97 166l433 272l131 -239z" />
    <glyph glyph-name="thorn" unicode="&#xfe;" 
d="M393 -461h-307v1997h307v-543q126 99 293 99q216 0 361 -160t145 -400q0 -234 -145 -399q-145 -160 -361 -160q-161 0 -293 99v-533zM635 788q-100 0 -169 -74t-69 -184q0 -106 69 -180t169 -74q98 0 166 74q69 72 69 180q0 110 -68 184t-167 74z" />
    <glyph glyph-name="ydieresis" unicode="&#xff;" horiz-adv-x="1130" 
d="M416 8l-404 1057h318l231 -657l240 657h317l-452 -1176q-73 -184 -195 -267t-319 -83h-37v293h39q197 0 256 160zM463 1229q-44 -44 -114.5 -44t-117.5 44q-44 47 -44 117t44 114q47 47 117.5 47t114.5 -47q47 -44 47 -114t-47 -117zM782 1184q-68 0 -113.5 46.5
t-45.5 115.5t45.5 115t113.5 46q69 0 116.5 -46t47.5 -115t-47.5 -115.5t-116.5 -46.5z" />
    <glyph glyph-name="Amacron" unicode="&#x100;" horiz-adv-x="1501" 
d="M352 0h-340l604 1434h269l602 -1434h-338l-98 242h-600zM430 1593v228h641v-228h-641zM932 532l-180 441l-181 -441h361z" />
    <glyph glyph-name="amacron" unicode="&#x101;" 
d="M53 532q0 241 144 400q145 160 360 160q163 0 295 -99v72h305v-1065h-305v74q-128 -101 -295 -101q-215 0 -360 160q-144 163 -144 399zM373 535q0 -110 68.5 -184.5t168.5 -74.5q99 0 168.5 75t69.5 184q0 107 -70 180t-168 73q-100 0 -168.5 -73.5t-68.5 -179.5z
M950 1473v-228h-641v228h641z" />
    <glyph glyph-name="Abreve" unicode="&#x102;" horiz-adv-x="1501" 
d="M451 242l-99 -242h-340l604 1434h269l602 -1434h-338l-98 242h-600zM408 1864h213q0 -61 36.5 -101.5t90.5 -40.5q55 0 89.5 40t34.5 102h213q0 -144 -96 -240t-241 -96q-148 0 -244 96t-96 240zM932 532l-180 441l-181 -441h361z" />
    <glyph glyph-name="abreve" unicode="&#x103;" 
d="M557 -27q-215 0 -360 160q-144 163 -144 399q0 241 144 400q145 160 360 160q163 0 295 -99v72h305v-1065h-305v74q-128 -101 -295 -101zM610 788q-100 0 -168.5 -73.5t-68.5 -179.5q0 -110 68.5 -184.5t168.5 -74.5q99 0 168.5 75t69.5 184q0 107 -70 180t-168 73z
M287 1516h215q0 -62 36 -102t91 -40t89 40t34 102h215q0 -146 -99 -240q-96 -96 -241 -96q-143 0 -244 96q-96 96 -96 240z" />
    <glyph glyph-name="Aogonek" unicode="&#x104;" horiz-adv-x="1501" 
d="M352 0h-340l604 1434h269l602 -1434h-49l-35 -31q-24 -24 -55 -71q-33 -50 -33 -93q0 -71 78 -71q24 0 50 10.5t40 22.5l14 12l84 -109l-35 -30q-22 -22 -92 -52q-63 -32 -133 -32q-94 0 -156.5 55t-62.5 141q0 53 28.5 114t63.5 101l31 33h-76l-98 242h-600zM932 532
l-180 441l-181 -441h361z" />
    <glyph glyph-name="aogonek" unicode="&#x105;" 
d="M557 -27q-215 0 -360 160q-144 163 -144 399q0 241 144 400q145 160 360 160q163 0 295 -99v72h305v-1065h-39q-99 -87 -119 -164q-4 -28 -4 -31q0 -71 78 -71q24 0 50 10.5t40 22.5l15 12l82 -109l-35 -30q-22 -22 -90 -52q-63 -32 -136 -32q-94 0 -155.5 55t-61.5 141
q0 53 28.5 116t61.5 99l31 33h-51v74q-128 -101 -295 -101zM373 535q0 -110 68.5 -184.5t168.5 -74.5q99 0 168.5 75t69.5 184q0 107 -70 180t-168 73q-100 0 -168.5 -73.5t-68.5 -179.5z" />
    <glyph glyph-name="Cacute" unicode="&#x106;" horiz-adv-x="1554" 
d="M819 1460q232 0 410 -112q184 -113 272 -299l-315 -117q-55 101 -151 159t-216 58q-176 0 -295 -125q-118 -121 -118 -307q0 -185 118 -309q120 -123 295 -123q120 0 216 58t151 159l315 -117q-87 -185 -272 -301q-181 -111 -410 -111q-320 0 -536 213q-215 212 -215 531
q0 318 215 530q216 213 536 213zM711 1542l-97 166l433 272l131 -239z" />
    <glyph glyph-name="cacute" unicode="&#x107;" horiz-adv-x="1191" 
d="M1161 725l-309 -90q-30 70 -91 111.5t-138 41.5q-109 0 -179 -73q-71 -71 -71 -180q0 -110 72 -184.5t178 -74.5q77 0 138 42t91 112l309 -90q-62 -167 -206.5 -267t-331.5 -100q-243 0 -408 160q-162 162 -162 399q0 242 162 400q165 160 408 160q187 0 331.5 -100
t206.5 -267zM510 1194l-96 166l432 272l131 -239z" />
    <glyph glyph-name="Ccircumflex" unicode="&#x108;" horiz-adv-x="1554" 
d="M819 1460q232 0 410 -112q184 -113 272 -299l-315 -117q-55 101 -151 159t-216 58q-176 0 -295 -125q-118 -121 -118 -307q0 -185 118 -309q120 -123 295 -123q120 0 216 58t151 159l315 -117q-87 -185 -272 -301q-181 -111 -410 -111q-320 0 -536 213q-215 212 -215 531
q0 318 215 530q216 213 536 213zM817 1692l-274 -158l-109 158l375 272h14l375 -272l-108 -156z" />
    <glyph glyph-name="ccircumflex" unicode="&#x109;" horiz-adv-x="1191" 
d="M1161 725l-309 -90q-30 70 -91 111.5t-138 41.5q-109 0 -179 -73q-71 -71 -71 -180q0 -110 72 -184.5t178 -74.5q77 0 138 42t91 112l309 -90q-62 -167 -206.5 -267t-331.5 -100q-243 0 -408 160q-162 162 -162 399q0 242 162 400q165 160 408 160q187 0 331.5 -100
t206.5 -267zM616 1343l-274 -157l-109 157l375 273h15l374 -273l-108 -155z" />
    <glyph glyph-name="Cdotaccent" unicode="&#x10a;" horiz-adv-x="1554" 
d="M819 1460q232 0 410 -112q184 -113 272 -299l-315 -117q-55 101 -151 159t-216 58q-176 0 -295 -125q-118 -121 -118 -307q0 -185 118 -309q120 -123 295 -123q120 0 216 58t151 159l315 -117q-87 -185 -272 -301q-181 -111 -410 -111q-320 0 -536 213q-215 212 -215 531
q0 318 215 530q216 213 536 213zM643 1708q0 74 49.5 124t122.5 50q75 0 125.5 -50t50.5 -124q0 -75 -50.5 -124.5t-125.5 -49.5q-74 0 -123 49.5t-49 124.5z" />
    <glyph glyph-name="cdotaccent" unicode="&#x10b;" horiz-adv-x="1191" 
d="M1161 725l-309 -90q-30 70 -91 111.5t-138 41.5q-109 0 -179 -73q-71 -71 -71 -180q0 -110 72 -184.5t178 -74.5q77 0 138 42t91 112l309 -90q-62 -167 -206.5 -267t-331.5 -100q-243 0 -408 160q-162 162 -162 399q0 242 162 400q165 160 408 160q187 0 331.5 -100
t206.5 -267zM442 1360q0 74 49.5 124t124.5 50q74 0 124.5 -50.5t50.5 -123.5q0 -75 -50.5 -124.5t-124.5 -49.5q-75 0 -124.5 49.5t-49.5 124.5z" />
    <glyph glyph-name="Ccaron" unicode="&#x10c;" horiz-adv-x="1554" 
d="M819 1460q232 0 410 -112q184 -113 272 -299l-315 -117q-55 101 -151 159t-216 58q-176 0 -295 -125q-118 -121 -118 -307q0 -185 118 -309q120 -123 295 -123q120 0 216 58t151 159l315 -117q-87 -185 -272 -301q-181 -111 -410 -111q-320 0 -536 213q-215 212 -215 531
q0 318 215 530q216 213 536 213zM817 1808l273 156l108 -156l-375 -274h-14l-375 274l109 158z" />
    <glyph glyph-name="ccaron" unicode="&#x10d;" horiz-adv-x="1191" 
d="M1161 725l-309 -90q-30 70 -91 111.5t-138 41.5q-109 0 -179 -73q-71 -71 -71 -180q0 -110 72 -184.5t178 -74.5q77 0 138 42t91 112l309 -90q-62 -167 -206.5 -267t-331.5 -100q-243 0 -408 160q-162 162 -162 399q0 242 162 400q165 160 408 160q187 0 331.5 -100
t206.5 -267zM616 1460l273 156l108 -156l-374 -274h-15l-375 274l109 158z" />
    <glyph glyph-name="Dcaron" unicode="&#x10e;" horiz-adv-x="1505" 
d="M686 0h-590v1434h590q319 0 535 -207q217 -205 217 -510t-217 -510q-216 -207 -535 -207zM686 1135h-264v-836h264q174 0 295 121q119 119 119 297t-119 297q-121 121 -295 121zM514 1534h-14l-375 274l108 158l273 -158l274 156l109 -156z" />
    <glyph glyph-name="dcaron" unicode="&#x10f;" horiz-adv-x="1558" 
d="M53 532q0 241 144 400q145 160 360 160q170 0 295 -101v545h305v-1536h-305v74q-128 -101 -295 -101q-215 0 -360 160q-144 163 -144 399zM1245 1427q0 57 39.5 96.5t99.5 39.5q67 0 110.5 -50t43.5 -124q0 -158 -205 -287l-71 76q93 72 96 110q-50 11 -81.5 49.5
t-31.5 89.5zM612 788q-102 0 -172 -73q-67 -73 -67 -180q0 -111 68 -185t171 -74q100 0 170 74.5t70 184.5q0 106 -70 179.5t-170 73.5z" />
    <glyph glyph-name="Dcroat" unicode="&#x110;" horiz-adv-x="1560" 
d="M16 586v262h136v586h589q321 0 537 -207q217 -205 217 -510t-217 -510q-216 -207 -537 -207h-589v586h-136zM477 1135v-287h348v-262h-348v-287h264q176 0 297 121q119 119 119 297t-119 297q-121 121 -297 121h-264z" />
    <glyph glyph-name="dslash" unicode="&#x111;" horiz-adv-x="1259" 
d="M53 532q0 241 144 400q145 160 360 160q163 0 295 -99v181h-320v208h320v154h305v-154h92v-208h-92v-1174h-305v74q-128 -101 -295 -101q-215 0 -360 160q-144 163 -144 399zM610 788q-100 0 -168.5 -73.5t-68.5 -179.5q0 -110 68.5 -184.5t168.5 -74.5q99 0 168.5 75
t69.5 184q0 107 -70 180t-168 73z" />
    <glyph glyph-name="Emacron" unicode="&#x112;" horiz-adv-x="1232" 
d="M96 1434h1071v-299h-745v-263h627v-299h-627v-274h756v-299h-1082v1434zM307 1593v228h641v-228h-641z" />
    <glyph glyph-name="emacron" unicode="&#x113;" horiz-adv-x="1220" 
d="M1169 422h-792q26 -85 96.5 -135.5t163.5 -50.5q132 0 211 94l297 -68q-73 -135 -207 -212t-303 -77q-248 0 -416 160q-166 159 -166 399t162 398q162 162 403 162q240 0 402 -162q162 -158 162 -398q0 -53 -13 -110zM379 649h489q-29 82 -96.5 131t-153.5 49
q-82 0 -147.5 -49t-91.5 -131zM940 1245h-639v228h639v-228z" />
    <glyph glyph-name="Ebreve" unicode="&#x114;" horiz-adv-x="1232" 
d="M1178 0h-1082v1434h1071v-299h-745v-263h627v-299h-627v-274h756v-299zM285 1864h213q0 -61 36.5 -101.5t92.5 -40.5q54 0 88.5 40t34.5 102h215q0 -146 -99 -240q-96 -96 -241 -96q-143 0 -244 96q-96 96 -96 240z" />
    <glyph glyph-name="ebreve" unicode="&#x115;" horiz-adv-x="1220" 
d="M1169 422h-792q26 -85 96.5 -135.5t163.5 -50.5q132 0 211 94l297 -68q-73 -135 -207 -212t-303 -77q-248 0 -416 160q-166 159 -166 399t162 398q162 162 403 162q240 0 402 -162q162 -158 162 -398q0 -53 -13 -110zM379 649h489q-29 82 -96.5 131t-153.5 49
q-82 0 -147.5 -49t-91.5 -131zM279 1516h213q0 -61 36 -101.5t90 -40.5q55 0 90 40t35 102h213q0 -146 -98 -240q-96 -96 -242 -96q-145 0 -241 96t-96 240z" />
    <glyph glyph-name="Edotaccent" unicode="&#x116;" horiz-adv-x="1232" 
d="M96 1434h1071v-299h-745v-263h627v-299h-627v-274h756v-299h-1082v1434zM453 1708q0 74 50.5 124t123.5 50q75 0 124.5 -50t49.5 -124q0 -75 -49.5 -124.5t-124.5 -49.5q-74 0 -124 49.5t-50 124.5z" />
    <glyph glyph-name="edotaccent" unicode="&#x117;" horiz-adv-x="1220" 
d="M1169 422h-792q26 -85 96.5 -135.5t163.5 -50.5q132 0 211 94l297 -68q-73 -135 -207 -212t-303 -77q-248 0 -416 160q-166 159 -166 399t162 398q162 162 403 162q240 0 402 -162q162 -158 162 -398q0 -53 -13 -110zM379 649h489q-29 82 -96.5 131t-153.5 49
q-82 0 -147.5 -49t-91.5 -131zM446 1360q0 74 50 124t125 50t124.5 -50t49.5 -124q0 -75 -49.5 -124.5t-124.5 -49.5t-125 49.5t-50 124.5z" />
    <glyph glyph-name="Eogonek" unicode="&#x118;" horiz-adv-x="1232" 
d="M903 0h-807v1434h1071v-299h-745v-263h627v-299h-627v-274h756v-299h-60l-35 -31q-24 -24 -55 -71q-33 -50 -33 -93q0 -71 76 -71q24 0 51 10.5t41 22.5l13 12l84 -109l-35 -30q-22 -22 -92 -52q-63 -32 -134 -32q-94 0 -156.5 55t-62.5 141q0 53 28.5 114t63.5 101z" />
    <glyph glyph-name="eogonek" unicode="&#x119;" horiz-adv-x="1220" 
d="M53 532q0 240 162 398q162 162 403 162q240 0 402 -162q162 -158 162 -398q0 -53 -13 -110h-792q26 -85 96.5 -135.5t163.5 -50.5q132 0 211 94l297 -68q-120 -221 -377 -274q-109 -103 -109 -183q0 -71 76 -71q24 0 51 10.5t41 22.5l13 12l84 -109l-35 -30
q-22 -22 -92 -52q-63 -32 -133 -32q-94 0 -156 55t-62 141q0 107 103 228q-219 27 -359 182q-137 152 -137 370zM618 829q-82 0 -147.5 -49t-91.5 -131h489q-29 82 -96.5 131t-153.5 49z" />
    <glyph glyph-name="Ecaron" unicode="&#x11a;" horiz-adv-x="1232" 
d="M96 0v1434h1071v-299h-745v-263h627v-299h-627v-274h756v-299h-1082zM635 1534h-14l-375 274l108 158l275 -158l272 156l109 -156z" />
    <glyph glyph-name="ecaron" unicode="&#x11b;" horiz-adv-x="1220" 
d="M1169 422h-792q26 -85 96.5 -135.5t163.5 -50.5q132 0 211 94l297 -68q-73 -135 -207 -212t-303 -77q-248 0 -416 160q-166 159 -166 399t162 398q162 162 403 162q240 0 402 -162q162 -158 162 -398q0 -53 -13 -110zM379 649h489q-29 82 -96.5 131t-153.5 49
q-82 0 -147.5 -49t-91.5 -131zM621 1460l274 156l109 -156l-375 -274h-15l-374 274l108 158z" />
    <glyph glyph-name="Gcircumflex" unicode="&#x11c;" horiz-adv-x="1630" 
d="M68 717q0 317 219 530t544 213q227 0 410 -110q186 -112 277 -301l-316 -117q-54 103 -151.5 160t-219.5 57q-186 0 -305 -125q-120 -123 -120 -307q0 -182 116 -307t291 -125q123 0 227 67.5t148 177.5h-410v277h778q7 -44 7 -78q0 -320 -213 -539q-211 -217 -535 -217
q-313 0 -532 213q-215 212 -215 531zM817 1692l-274 -158l-109 158l375 272h14l375 -272l-108 -156z" />
    <glyph glyph-name="gcircumflex" unicode="&#x11d;" 
d="M557 -27q-215 0 -360 160q-144 163 -144 399q0 241 144 400q145 160 360 160q163 0 295 -99v72h305v-1042q0 -219 -156 -363q-153 -147 -383 -147q-183 0 -329 94q-147 96 -195 237l303 72q25 -50 84.5 -81.5t130.5 -31.5q101 0 170.5 61.5t69.5 153.5v56
q-128 -101 -295 -101zM610 788q-100 0 -168.5 -74t-68.5 -184q0 -106 68.5 -180t168.5 -74q97 0 168 74q70 73 70 180q0 109 -69.5 183.5t-168.5 74.5zM614 1343l-274 -157l-109 157l375 273h15l374 -273l-108 -155z" />
    <glyph glyph-name="Gbreve" unicode="&#x11e;" horiz-adv-x="1630" 
d="M68 717q0 317 219 530t544 213q227 0 410 -110q186 -112 277 -301l-316 -117q-54 103 -151.5 160t-219.5 57q-186 0 -305 -125q-120 -123 -120 -307q0 -182 116 -307t291 -125q123 0 227 67.5t148 177.5h-410v277h778q7 -44 7 -78q0 -320 -213 -539q-211 -217 -535 -217
q-313 0 -532 213q-215 212 -215 531zM473 1864h213q0 -61 36.5 -101.5t92.5 -40.5q55 0 89 40t34 102h215q0 -146 -98 -240q-96 -96 -242 -96q-143 0 -244 96q-96 96 -96 240z" />
    <glyph glyph-name="gbreve" unicode="&#x11f;" 
d="M557 -27q-215 0 -360 160q-144 163 -144 399q0 241 144 400q145 160 360 160q163 0 295 -99v72h305v-1042q0 -219 -156 -363q-153 -147 -383 -147q-183 0 -329 94q-147 96 -195 237l303 72q25 -50 84.5 -81.5t130.5 -31.5q101 0 170.5 61.5t69.5 153.5v56
q-128 -101 -295 -101zM610 788q-100 0 -168.5 -74t-68.5 -184q0 -106 68.5 -180t168.5 -74q97 0 168 74q70 73 70 180q0 109 -69.5 183.5t-168.5 74.5zM270 1516h213q0 -61 36.5 -101.5t92.5 -40.5q55 0 89 40t34 102h215q0 -146 -98 -240q-96 -96 -242 -96q-142 0 -243 96
q-97 97 -97 240z" />
    <glyph glyph-name="Gdotaccent" unicode="&#x120;" horiz-adv-x="1630" 
d="M68 717q0 317 219 530t544 213q227 0 410 -110q186 -112 277 -301l-316 -117q-54 103 -151.5 160t-219.5 57q-186 0 -305 -125q-120 -123 -120 -307q0 -182 116 -307t291 -125q123 0 227 67.5t148 177.5h-410v277h778q7 -44 7 -78q0 -320 -213 -539q-211 -217 -535 -217
q-313 0 -532 213q-215 212 -215 531zM643 1708q0 74 49.5 124t122.5 50q75 0 125.5 -50t50.5 -124q0 -75 -50.5 -124.5t-125.5 -49.5q-74 0 -123 49.5t-49 124.5z" />
    <glyph glyph-name="gdotaccent" unicode="&#x121;" 
d="M53 532q0 241 144 400q145 160 360 160q163 0 295 -99v72h305v-1042q0 -219 -156 -363q-153 -147 -383 -147q-183 0 -329 94q-147 96 -195 237l303 72q25 -50 84.5 -81.5t130.5 -31.5q101 0 170.5 61.5t69.5 153.5v56q-128 -101 -295 -101q-215 0 -360 160
q-144 163 -144 399zM610 788q-100 0 -168.5 -74t-68.5 -184q0 -106 68.5 -180t168.5 -74q97 0 168 74q70 73 70 180q0 109 -69.5 183.5t-168.5 74.5zM440 1360q0 74 49.5 124t122.5 50q75 0 125.5 -50t50.5 -124q0 -75 -50.5 -124.5t-125.5 -49.5q-74 0 -123 49.5t-49 124.5
z" />
    <glyph glyph-name="uni0122" unicode="&#x122;" horiz-adv-x="1630" 
d="M68 717q0 317 219 530t544 213q227 0 410 -110q186 -112 277 -301l-316 -117q-54 103 -151.5 160t-219.5 57q-186 0 -305 -125q-120 -123 -120 -307q0 -182 116 -307t291 -125q123 0 227 67.5t148 177.5h-410v277h778q7 -44 7 -78q0 -320 -213 -539q-211 -217 -535 -217
q-313 0 -532 213q-215 212 -215 531zM993 -266q0 -49 -21.5 -96.5t-48.5 -79t-61 -59t-51 -38t-25 -14.5l-69 74q93 72 96 112q-47 7 -80 48t-33 92q0 57 40 96t100 39q67 0 110 -50t43 -124z" />
    <glyph glyph-name="uni0123" unicode="&#x123;" 
d="M557 -27q-215 0 -360 160q-144 163 -144 399q0 241 144 400q145 160 360 160q163 0 295 -99v72h305v-1042q0 -219 -156 -363q-153 -147 -383 -147q-183 0 -329 94q-147 96 -195 237l303 72q25 -50 84.5 -81.5t130.5 -31.5q101 0 170.5 61.5t69.5 153.5v56
q-128 -101 -295 -101zM610 788q-100 0 -168.5 -74t-68.5 -184q0 -106 68.5 -180t168.5 -74q97 0 168 74q70 73 70 180q0 109 -69.5 183.5t-168.5 74.5zM455 1354q0 158 204 286l72 -75q-96 -75 -96 -111q50 -11 81.5 -49.5t31.5 -89.5q0 -57 -40 -96t-100 -39q-67 0 -110 50
t-43 124z" />
    <glyph glyph-name="Hcircumflex" unicode="&#x124;" horiz-adv-x="1462" 
d="M422 575v-575h-326v1434h326v-560h620v560h324v-1434h-324v575h-620zM459 1534l-109 158l375 272h14l375 -272l-108 -156l-275 156z" />
    <glyph glyph-name="hcircumflex" unicode="&#x125;" horiz-adv-x="1189" 
d="M393 602v-602h-307v1536h307v-580q115 136 299 136q173 0 293 -117q119 -116 119 -291v-684h-305v602q0 88 -58.5 146.5t-144.5 58.5t-144.5 -58.5t-58.5 -146.5zM240 1774l-273 -158l-108 158l374 272h15l375 -272l-109 -156z" />
    <glyph glyph-name="Hbar" unicode="&#x126;" horiz-adv-x="1550" 
d="M1397 1434v-181h137v-239h-137v-1014h-324v575h-620v-575h-326v1014h-111v239h111v181h326v-181h620v181h324zM1073 874v140h-620v-140h620z" />
    <glyph glyph-name="hbar" unicode="&#x127;" horiz-adv-x="1206" 
d="M408 1536v-154h317v-208h-317v-220q114 138 299 138q174 0 294 -117q119 -116 119 -291v-684h-307v602q0 88 -57.5 146.5t-143.5 58.5q-88 0 -146 -58.5t-58 -146.5v-602h-308v1174h-90v208h90v154h308z" />
    <glyph glyph-name="Itilde" unicode="&#x128;" horiz-adv-x="518" 
d="M422 0h-326v1434h326v-1434zM104 1579h-204q0 108 73 184q71 80 174 80q64 0 125 -43q65 -41 82 -41q25 0 42.5 21.5t17.5 52.5h202q0 -111 -71 -188q-70 -76 -172 -76q-65 0 -127 41t-80 41q-26 0 -44 -20.5t-18 -51.5z" />
    <glyph glyph-name="itilde" unicode="&#x129;" horiz-adv-x="505" 
d="M408 0h-308v1065h308v-1065zM113 1231h-203q0 108 70 184q68 80 161 80q61 0 119 -43q59 -41 78 -41q23 0 39 21.5t16 52.5h203q0 -112 -68 -189q-63 -75 -161 -75q-62 0 -121 41t-76 41q-24 0 -40.5 -21t-16.5 -51z" />
    <glyph glyph-name="Imacron" unicode="&#x12a;" horiz-adv-x="518" 
d="M422 0h-326v1434h326v-1434zM580 1593h-641v228h641v-228z" />
    <glyph glyph-name="imacron" unicode="&#x12b;" horiz-adv-x="485" 
d="M397 0h-307v1065h307v-1065zM-61 1245v228h608v-228h-608z" />
    <glyph glyph-name="Ibreve" unicode="&#x12c;" horiz-adv-x="518" 
d="M422 0h-326v1434h326v-1434zM-84 1864h213q0 -61 36.5 -101.5t92.5 -40.5q54 0 88.5 40t34.5 102h213q0 -144 -96 -240t-242 -96q-143 0 -244 96q-96 96 -96 240z" />
    <glyph glyph-name="ibreve" unicode="&#x12d;" horiz-adv-x="485" 
d="M397 0h-307v1065h307v-1065zM-88 1516h213q0 -62 33.5 -102t87.5 -40q51 0 82.5 40t31.5 102h215q0 -146 -94 -240q-96 -96 -237 -96q-142 0 -238 96q-94 94 -94 240z" />
    <glyph glyph-name="Iogonek" unicode="&#x12e;" horiz-adv-x="518" 
d="M39 -248q0 53 29 116t63 99l31 33h-66v1434h326v-1434h-47l-35 -31q-24 -24 -55 -71q-33 -50 -33 -93q0 -65 67 -71q70 0 115 45l84 -109l-35 -30q-22 -22 -92 -52q-63 -32 -133 -32q-94 0 -156.5 55t-62.5 141z" />
    <glyph glyph-name="iogonek" unicode="&#x12f;" horiz-adv-x="479" 
d="M246 -444q-94 0 -155.5 55t-61.5 141q0 53 28.5 116t61.5 99l31 33h-64v1065h307v-1065h-28l-35 -31q-27 -27 -56 -71q-32 -49 -32 -93q0 -65 67 -71q70 0 115 45l82 -109l-35 -30q-22 -22 -92 -52q-63 -32 -133 -32zM375 1194q-53 -53 -135 -53t-138 53q-53 53 -53 135
t53 135q57 54 138 54t135 -54q55 -52 55 -135t-55 -135z" />
    <glyph glyph-name="Idot" unicode="&#x130;" horiz-adv-x="518" 
d="M422 0h-326v1434h326v-1434zM84 1708q0 74 50 124t124 50q75 0 124.5 -50t49.5 -124q0 -75 -49.5 -124.5t-124.5 -49.5q-74 0 -124 49.5t-50 124.5z" />
    <glyph glyph-name="dotlessi" unicode="&#x131;" horiz-adv-x="479" 
d="M393 0h-307v1065h307v-1065z" />
    <glyph glyph-name="IJ" unicode="&#x132;" horiz-adv-x="1708" 
d="M422 0h-326v1434h326v-1434zM1624 1434v-899q0 -244 -168 -402q-171 -160 -422 -160q-158 0 -289.5 68t-207.5 186l268 174q35 -60 97.5 -94.5t137.5 -34.5q116 0 194.5 76t78.5 187v899h311z" />
    <glyph glyph-name="ij" unicode="&#x133;" horiz-adv-x="968" 
d="M393 0h-307v1065h307v-1065zM102 1194q-53 53 -53 135t53 135q57 54 138 54t135 -54q55 -52 55 -135t-55 -135q-53 -53 -135 -53t-138 53zM575 1065h308v-1171q0 -149 -115 -252t-285 -103h-96v293h72q51 0 83.5 30t32.5 75v1128zM729 1518q82 0 135.5 -53.5t53.5 -135.5
t-53.5 -135t-135.5 -53q-80 0 -134 53.5t-54 134.5t54 135t134 54z" />
    <glyph glyph-name="Jcircumflex" unicode="&#x134;" horiz-adv-x="1189" 
d="M1108 1434v-899q0 -244 -168 -402q-171 -160 -422 -160q-158 0 -289.5 68t-210.5 186l271 174q35 -60 97.5 -94.5t137.5 -34.5q117 0 193 76q78 78 78 187v899h313zM942 1692l-272 -158l-109 158l375 272h14l375 -272l-108 -156z" />
    <glyph glyph-name="jcircumflex" unicode="&#x135;" horiz-adv-x="489" 
d="M98 1065h305v-1171q0 -150 -114 -252q-115 -103 -285 -103h-96v293h72q51 0 84.5 30t33.5 75v1128zM250 1343l-275 -157l-108 157l377 273h12l377 -273l-109 -155z" />
    <glyph glyph-name="uni0136" unicode="&#x136;" horiz-adv-x="1359" 
d="M96 0v1434h326v-580l473 580h410l-570 -701l611 -733h-410l-514 616v-616h-326zM639 -367q-47 7 -80 48t-33 92q0 57 40 96t100 39q67 0 110 -50t43 -124q0 -114 -96 -203l-61 -53q-14 -11 -46 -29l-2 -2l-71 74q96 75 96 112z" />
    <glyph glyph-name="uni0137" unicode="&#x137;" horiz-adv-x="1107" 
d="M393 0h-307v1536h307v-889l301 418h363l-369 -514l408 -551h-369l-334 457v-457zM418 -227q0 57 39.5 96t99.5 39q67 0 110.5 -50t43.5 -124q0 -113 -97 -203l-61 -53q-16 -13 -45 -29v-2h-2l-72 74q96 75 96 112q-47 7 -79.5 48t-32.5 92z" />
    <glyph glyph-name="Lacute" unicode="&#x139;" horiz-adv-x="1157" 
d="M1114 0h-1018v1434h326v-1135h692v-299zM57 1708l432 272l132 -239l-467 -199z" />
    <glyph glyph-name="lacute" unicode="&#x13a;" horiz-adv-x="479" 
d="M393 0h-307v1536h307v-1536zM133 1624l-96 166l432 272l131 -239z" />
    <glyph glyph-name="uni013B" unicode="&#x13b;" horiz-adv-x="1157" 
d="M96 0v1434h326v-1135h692v-299h-1018zM489 -227q0 57 40 96t100 39q67 0 110 -50t43 -124q0 -114 -96 -203l-61 -53q-16 -13 -45 -29l-2 -2l-72 74q93 72 96 112q-47 7 -80 48t-33 92z" />
    <glyph glyph-name="uni013C" unicode="&#x13c;" horiz-adv-x="479" 
d="M393 0h-307v1536h307v-1536zM385 -266q0 -47 -19.5 -92.5t-44.5 -76t-58 -58.5t-50.5 -39.5t-30.5 -19.5l-2 -1l-71 74q96 75 96 112q-47 7 -80 48t-33 92q0 57 39.5 96t99.5 39q67 0 110.5 -50t43.5 -124z" />
    <glyph glyph-name="Lcaron" unicode="&#x13d;" horiz-adv-x="1157" 
d="M96 0v1434h326v-1135h692v-299h-1018zM637 1325q0 57 38.5 96t98.5 39q67 0 110.5 -49.5t43.5 -124.5q0 -161 -203 -287l-74 76q96 75 99 111q-50 11 -81.5 49.5t-31.5 89.5z" />
    <glyph glyph-name="lcaron" unicode="&#x13e;" horiz-adv-x="792" 
d="M393 0h-307v1536h307v-1536zM479 1427q0 57 39.5 96.5t99.5 39.5q67 0 110.5 -50t43.5 -124q0 -47 -19.5 -92.5t-44.5 -76t-58 -58.5t-50.5 -39.5t-30.5 -19.5l-2 -1l-71 76q96 75 96 110q-50 11 -81.5 49.5t-31.5 89.5z" />
    <glyph glyph-name="Ldot" unicode="&#x13f;" horiz-adv-x="1157" 
d="M96 0v1434h326v-1135h692v-299h-1018zM838 543q-75 0 -124.5 49.5t-49.5 124.5t49.5 124.5t124.5 49.5q74 0 124 -49.5t50 -124.5t-50 -124.5t-124 -49.5z" />
    <glyph glyph-name="ldot" unicode="&#x140;" horiz-adv-x="940" 
d="M393 0h-307v1536h307v-1536zM709 891q75 0 124.5 -49.5t49.5 -124.5t-49.5 -124.5t-124.5 -49.5q-74 0 -124 49.5t-50 124.5t50 124.5t124 49.5z" />
    <glyph glyph-name="Lslash" unicode="&#x141;" horiz-adv-x="1273" 
d="M213 436l-68 -41l-129 223l197 121v695h324v-496l206 127l129 -223l-335 -207v-336h694v-299h-1018v436z" />
    <glyph glyph-name="lslash" unicode="&#x142;" horiz-adv-x="524" 
d="M416 1536v-614l108 61v-240l-108 -61v-682h-307v504l-109 -62v240l109 61v793h307z" />
    <glyph glyph-name="Nacute" unicode="&#x143;" horiz-adv-x="1476" 
d="M96 0v1434h289l682 -879v879h313v-1434h-288l-682 874v-874h-314zM1100 1741l-467 -199l-96 166l432 272z" />
    <glyph glyph-name="nacute" unicode="&#x144;" horiz-adv-x="1177" 
d="M393 602v-602h-307v1065h307v-109q109 136 291 136q172 0 289 -117q119 -116 119 -291v-684h-308v602q0 88 -55 146.5t-139 58.5q-85 0 -141 -58.5t-56 -146.5zM961 1393l-467 -199l-97 166l432 272z" />
    <glyph glyph-name="uni0145" unicode="&#x145;" horiz-adv-x="1476" 
d="M410 0h-314v1434h289l682 -879v879h313v-1434h-288l-682 874v-874zM725 -367q-47 7 -80 48t-33 92q0 57 40 96t100 39q67 0 110 -50t43 -124q0 -49 -21.5 -96.5t-48.5 -79t-61 -59t-51 -38t-25 -14.5l-69 74q93 72 96 112z" />
    <glyph glyph-name="uni0146" unicode="&#x146;" horiz-adv-x="1177" 
d="M393 0h-307v1065h307v-109q109 136 291 136q172 0 289 -117q119 -116 119 -291v-684h-308v602q0 88 -55 146.5t-139 58.5q-85 0 -141 -58.5t-56 -146.5v-602zM575 -367q-47 7 -79.5 48t-32.5 92q0 57 39.5 96t99.5 39q67 0 110.5 -50t43.5 -124q0 -47 -19.5 -92.5
t-44.5 -76t-58 -58.5t-50.5 -39.5t-30.5 -19.5l-2 -1l-72 74q96 75 96 112z" />
    <glyph glyph-name="Ncaron" unicode="&#x147;" horiz-adv-x="1476" 
d="M96 0v1434h289l682 -879v879h313v-1434h-288l-682 874v-874h-314zM745 1534h-14l-375 274l109 158l274 -158l273 156l108 -156z" />
    <glyph glyph-name="ncaron" unicode="&#x148;" horiz-adv-x="1177" 
d="M393 602v-602h-307v1065h307v-109q109 136 291 136q172 0 289 -117q119 -116 119 -291v-684h-308v602q0 88 -55 146.5t-139 58.5q-85 0 -141 -58.5t-56 -146.5zM606 1186h-14l-375 274l109 158l274 -158l272 156l109 -156z" />
    <glyph glyph-name="Eng" unicode="&#x14a;" horiz-adv-x="1476" 
d="M1067 1434h313v-1360q0 -244 -168 -402q-170 -159 -421 -159l6 299q104 0 179 63t89 160l-655 839v-874h-314v1434h289l682 -879v879z" />
    <glyph glyph-name="eng" unicode="&#x14b;" horiz-adv-x="1177" 
d="M86 0v1065h307v-109q109 136 291 136q172 0 289 -117q119 -116 119 -291v-793q0 -148 -115 -251t-285 -103h-98v293h74q51 0 83.5 29.5t32.5 74.5v668q0 88 -55 146.5t-139 58.5q-85 0 -141 -58.5t-56 -146.5v-602h-307z" />
    <glyph glyph-name="Omacron" unicode="&#x14c;" horiz-adv-x="1638" 
d="M283 186q-215 212 -215 531q0 318 215 530q216 213 536 213q321 0 537 -213q217 -211 217 -530q0 -320 -217 -531q-216 -213 -537 -213q-320 0 -536 213zM819 285q177 0 297 123q119 125 119 309q0 185 -119 307q-119 125 -297 125q-176 0 -295 -125q-118 -121 -118 -307
q0 -185 118 -309q120 -123 295 -123zM1139 1593h-639v228h639v-228z" />
    <glyph glyph-name="omacron" unicode="&#x14d;" 
d="M215 133q-162 162 -162 399q0 240 162 398q162 162 408 162q243 0 405 -162q164 -159 164 -398q0 -235 -164 -399q-165 -160 -405 -160q-243 0 -408 160zM623 276q105 0 176 74q73 76 73 182q0 108 -73 181q-69 75 -176 75q-109 0 -179 -73q-71 -74 -71 -183
q0 -108 71 -182t179 -74zM942 1245h-641v228h641v-228z" />
    <glyph glyph-name="Obreve" unicode="&#x14e;" horiz-adv-x="1638" 
d="M283 186q-215 212 -215 531q0 318 215 530q216 213 536 213q321 0 537 -213q217 -211 217 -530q0 -320 -217 -531q-216 -213 -537 -213q-320 0 -536 213zM819 285q177 0 297 123q119 125 119 309q0 185 -119 307q-119 125 -297 125q-176 0 -295 -125q-118 -121 -118 -307
q0 -185 118 -309q120 -123 295 -123zM477 1864h213q0 -61 36.5 -101.5t90.5 -40.5q55 0 90 40t35 102h213q0 -146 -98 -240q-96 -96 -242 -96t-242 96t-96 240z" />
    <glyph glyph-name="obreve" unicode="&#x14f;" 
d="M215 133q-162 162 -162 399q0 240 162 398q162 162 408 162q243 0 405 -162q164 -159 164 -398q0 -235 -164 -399q-165 -160 -405 -160q-243 0 -408 160zM623 276q105 0 176 74q73 76 73 182q0 108 -73 181q-69 75 -176 75q-109 0 -179 -73q-71 -74 -71 -183
q0 -108 71 -182t179 -74zM279 1516h213q0 -61 36.5 -101.5t92.5 -40.5q55 0 88.5 40t33.5 102h215q0 -146 -98 -240q-96 -96 -242 -96q-142 0 -243 96q-96 96 -96 240z" />
    <glyph glyph-name="Ohungarumlaut" unicode="&#x150;" horiz-adv-x="1638" 
d="M283 186q-215 212 -215 531q0 318 215 530q216 213 536 213q321 0 537 -213q217 -211 217 -530q0 -320 -217 -531q-216 -213 -537 -213q-320 0 -536 213zM819 285q177 0 297 123q119 125 119 309q0 185 -119 307q-119 125 -297 125q-176 0 -295 -125q-118 -121 -118 -307
q0 -185 118 -309q120 -123 295 -123zM610 1524l-143 125l293 364l203 -184zM1044 1524l-143 125l293 364l203 -184z" />
    <glyph glyph-name="ohungarumlaut" unicode="&#x151;" 
d="M215 133q-162 162 -162 399q0 240 162 398q162 162 408 162q243 0 405 -162q164 -159 164 -398q0 -235 -164 -399q-165 -160 -405 -160q-243 0 -408 160zM623 276q105 0 176 74q73 76 73 182q0 108 -73 181q-69 75 -176 75q-109 0 -179 -73q-71 -74 -71 -183
q0 -108 71 -182t179 -74zM414 1176l-146 124l293 365l203 -184zM848 1176l-146 124l293 365l203 -184z" />
    <glyph glyph-name="OE" unicode="&#x152;" horiz-adv-x="2390" 
d="M819 -27q-320 0 -536 213q-215 212 -215 531q0 318 215 530q216 213 536 213q252 0 438 -131v105h1063v-299h-737v-263h621v-299h-621v-274h748v-299h-1074v104q-186 -131 -438 -131zM819 285q177 0 297 123q119 125 119 309q0 185 -119 307q-119 125 -297 125
q-176 0 -295 -125q-118 -121 -118 -307q0 -185 118 -309q120 -123 295 -123z" />
    <glyph glyph-name="oe" unicode="&#x153;" horiz-adv-x="2039" 
d="M623 1092q248 0 411 -166q159 166 406 166q241 0 399 -162q160 -160 160 -398q0 -62 -10 -110h-793q26 -85 96.5 -135.5t163.5 -50.5q132 0 211 94l297 -68q-69 -134 -204 -211.5t-304 -77.5q-254 0 -420 166q-166 -166 -413 -166q-243 0 -408 160q-162 162 -162 399
q0 240 162 398q162 162 408 162zM623 276q105 0 176 74q73 76 73 182q0 108 -73 181q-69 75 -176 75q-109 0 -179 -73q-71 -74 -71 -183q0 -108 71 -182t179 -74zM1198 649h488q-26 82 -93.5 131t-154.5 49q-82 0 -148 -49t-92 -131z" />
    <glyph glyph-name="Racute" unicode="&#x154;" horiz-adv-x="1378" 
d="M422 0h-326v1434h672q220 0 369 -140q149 -137 149 -342q0 -135 -69 -246.5t-189 -173.5l309 -532h-360l-277 471h-278v-471zM768 1135h-346v-365h346q78 0 129 52t51 130t-51 130.5t-129 52.5zM952 1741l-467 -199l-96 166l432 272z" />
    <glyph glyph-name="racute" unicode="&#x155;" horiz-adv-x="741" 
d="M393 1065v-111q108 138 326 138v-328q-47 29 -111 29q-92 0 -153.5 -63t-61.5 -157v-573h-307v1065h307zM276 1194l-96 166l432 272l131 -239z" />
    <glyph glyph-name="uni0156" unicode="&#x156;" horiz-adv-x="1378" 
d="M96 1434h672q220 0 369 -140q149 -137 149 -342q0 -135 -69 -246.5t-189 -173.5l309 -532h-360l-277 471h-278v-471h-326v1434zM768 1135h-346v-365h346q78 0 129 52t51 130t-51 130.5t-129 52.5zM684 -367q-47 7 -80 48t-33 92q0 57 40 96t100 39q67 0 110 -50t43 -124
q0 -114 -96 -203l-61 -53q-16 -13 -45 -29l-3 -2l-71 74q96 75 96 112z" />
    <glyph glyph-name="uni0157" unicode="&#x157;" horiz-adv-x="741" 
d="M393 1065v-111q108 138 326 138v-328q-47 29 -111 29q-92 0 -153.5 -63t-61.5 -157v-573h-307v1065h307zM393 -266q0 -114 -96 -203l-61 -53q-14 -11 -46 -29l-2 -2l-71 74q96 75 96 112q-47 7 -80 48t-33 92q0 57 40 96t100 39q67 0 110 -50t43 -124z" />
    <glyph glyph-name="Rcaron" unicode="&#x158;" horiz-adv-x="1378" 
d="M422 0h-326v1434h672q220 0 369 -140q149 -137 149 -342q0 -135 -69 -246.5t-189 -173.5l309 -532h-360l-277 471h-278v-471zM768 1135h-346v-365h346q78 0 129 52t51 130t-51 130.5t-129 52.5zM586 1534l-377 274l108 158l275 -158l274 156l109 -156l-377 -274h-12z" />
    <glyph glyph-name="rcaron" unicode="&#x159;" horiz-adv-x="741" 
d="M393 1065v-111q108 138 326 138v-328q-47 29 -111 29q-92 0 -153.5 -63t-61.5 -157v-573h-307v1065h307zM383 1460l272 156l109 -156l-375 -274h-14l-375 274l109 158z" />
    <glyph glyph-name="Sacute" unicode="&#x15a;" horiz-adv-x="1234" 
d="M1110 1124l-322 -75q-14 48 -66.5 80t-123.5 32q-74 0 -123 -33t-49 -84q0 -65 119 -114q63 -22 215 -68q53 -16 79 -25t61.5 -25t74.5 -40q92 -49 141 -130.5t55 -209.5q0 -209 -149 -334t-387 -125q-217 0 -375 103q-155 101 -201 264l326 78q18 -63 86.5 -104.5
t163.5 -41.5q89 0 150 37.5t61 93.5q0 40 -37 70q-32 28 -68 44t-110 40l-21 6q-18 5 -56 17.5t-52 15.5l-101 37q-67 28 -98 47l-9 6q-105 76 -135 123l-1 2q-58 95 -58 209q0 196 136 317q138 123 356 123q193 0 336 -96q140 -92 182 -240zM506 1542l-96 166l432 272
l131 -239z" />
    <glyph glyph-name="sacute" unicode="&#x15b;" horiz-adv-x="983" 
d="M920 801l-281 -45q-27 90 -160 90q-121 0 -121 -70q0 -40 84 -71l191 -62q161 -51 232 -128.5t71 -199.5q0 -164 -118 -253t-320 -89q-200 0 -318 83.5t-141 236.5l283 39q30 -107 182 -107q62 0 100.5 21t38.5 57q0 53 -106 82l-195 57q-148 41 -214.5 115t-66.5 193
q0 172 115.5 257t317.5 85q184 0 295 -76.5t131 -214.5zM383 1194l-96 166l432 272l131 -239z" />
    <glyph glyph-name="Scircumflex" unicode="&#x15c;" horiz-adv-x="1234" 
d="M1110 1124l-322 -75q-14 48 -66.5 80t-123.5 32q-74 0 -123 -33t-49 -84q0 -65 119 -114q63 -22 215 -68q53 -16 79 -25t61.5 -25t74.5 -40q92 -49 141 -130.5t55 -209.5q0 -209 -149 -334t-387 -125q-217 0 -375 103q-155 101 -201 264l326 78q18 -63 86.5 -104.5
t163.5 -41.5q89 0 150 37.5t61 93.5q0 40 -37 70q-32 28 -68 44t-110 40l-21 6q-18 5 -56 17.5t-52 15.5l-101 37q-67 28 -98 47l-9 6q-105 76 -135 123l-1 2q-58 95 -58 209q0 196 136 317q138 123 356 123q193 0 336 -96q140 -92 182 -240zM612 1692l-274 -158l-109 158
l375 272h14l375 -272l-108 -156z" />
    <glyph glyph-name="scircumflex" unicode="&#x15d;" horiz-adv-x="983" 
d="M920 801l-281 -45q-27 90 -160 90q-121 0 -121 -70q0 -40 84 -71l191 -62q161 -51 232 -128.5t71 -199.5q0 -164 -118 -253t-320 -89q-200 0 -318 83.5t-141 236.5l283 39q30 -107 182 -107q62 0 100.5 21t38.5 57q0 53 -106 82l-195 57q-148 41 -214.5 115t-66.5 193
q0 172 115.5 257t317.5 85q184 0 295 -76.5t131 -214.5zM489 1343l-274 -157l-109 157l375 273h15l374 -273l-108 -155z" />
    <glyph glyph-name="Scedilla" unicode="&#x15e;" horiz-adv-x="1234" 
d="M522 -174l37 151q-187 15 -323 115q-137 104 -177 248l326 78q18 -63 86.5 -104.5t163.5 -41.5q89 0 150 37.5t61 93.5q0 40 -37 70q-32 28 -68 44t-110 40l-21 6q-18 5 -56 17.5t-52 15.5l-101 37q-67 28 -98 47l-9 6q-105 76 -135 123l-1 2q-58 95 -58 209
q0 196 136 317q138 123 356 123q193 0 336 -96q140 -92 182 -240l-322 -75q-14 48 -66.5 80t-123.5 32q-74 0 -123 -33t-49 -84q0 -65 119 -114q63 -22 215 -68q53 -16 79 -25t61.5 -25t74.5 -40q92 -49 141 -130.5t55 -209.5q0 -175 -107.5 -292.5t-293.5 -153.5l-14 -68
q6 -1 15 -3.5t33 -15t42.5 -29t33.5 -48t15 -70.5q0 -94 -76.5 -156.5t-193.5 -62.5q-54 0 -111.5 15t-85.5 34l-27 19l29 137q52 -43 137 -43q51 0 86 17.5t35 43.5q0 24 -38.5 42.5t-84.5 23.5z" />
    <glyph glyph-name="scedilla" unicode="&#x15f;" horiz-adv-x="983" 
d="M389 -174l37 149q-166 13 -266.5 96.5t-120.5 221.5l283 39q30 -107 182 -107q62 0 100.5 21t38.5 57q0 53 -106 82l-195 57q-148 41 -214.5 115t-66.5 193q0 172 115.5 257t317.5 85q184 0 295 -76.5t131 -214.5l-281 -45q-27 90 -160 90q-121 0 -121 -70q0 -40 84 -71
l191 -62q161 -51 232 -128.5t71 -199.5q0 -133 -78.5 -217.5t-220.5 -111.5l-16 -68q6 -1 15.5 -3.5t33.5 -15t43 -29t34 -48t15 -70.5q0 -94 -76.5 -156.5t-193.5 -62.5q-54 0 -111.5 15t-85.5 34l-27 19l29 137q52 -43 137 -43q51 0 86 17.5t35 43.5q0 24 -39 42.5
t-86 23.5z" />
    <glyph glyph-name="Scaron" unicode="&#x160;" horiz-adv-x="1234" 
d="M1110 1124l-322 -75q-14 48 -66.5 80t-123.5 32q-74 0 -123 -33t-49 -84q0 -65 119 -114q63 -22 215 -68q53 -16 79 -25t61.5 -25t74.5 -40q92 -49 141 -130.5t55 -209.5q0 -209 -149 -334t-387 -125q-217 0 -375 103q-155 101 -201 264l326 78q18 -63 86.5 -104.5
t163.5 -41.5q89 0 150 37.5t61 93.5q0 40 -37 70q-32 28 -68 44t-110 40l-21 6q-18 5 -56 17.5t-52 15.5l-101 37q-67 28 -98 47l-9 6q-105 76 -135 123l-1 2q-58 95 -58 209q0 196 136 317q138 123 356 123q193 0 336 -96q140 -92 182 -240zM612 1808l273 156l108 -156
l-375 -274h-14l-375 274l109 158z" />
    <glyph glyph-name="scaron" unicode="&#x161;" horiz-adv-x="983" 
d="M920 801l-281 -45q-27 90 -160 90q-121 0 -121 -70q0 -40 84 -71l191 -62q161 -51 232 -128.5t71 -199.5q0 -164 -118 -253t-320 -89q-200 0 -318 83.5t-141 236.5l283 39q30 -107 182 -107q62 0 100.5 21t38.5 57q0 53 -106 82l-195 57q-148 41 -214.5 115t-66.5 193
q0 172 115.5 257t317.5 85q184 0 295 -76.5t131 -214.5zM489 1460l273 156l108 -156l-374 -274h-15l-375 274l109 158z" />
    <glyph glyph-name="uni0162" unicode="&#x162;" horiz-adv-x="1294" 
d="M485 0v1135h-442v299h1208v-299h-442v-1135h-324zM627 -367q-47 7 -80 48t-33 92q0 57 39.5 96t99.5 39q67 0 110.5 -50t43.5 -124q0 -114 -96 -203l-62 -53q-16 -13 -45 -29l-2 -2l-72 74q97 75 97 112z" />
    <glyph glyph-name="uni0163" unicode="&#x163;" horiz-adv-x="753" 
d="M16 799v266h146v207h307v-207h242v-266h-242v-400q0 -49 33 -80.5t84 -31.5h125v-287h-176q-157 0 -267 96q-106 97 -106 244v459h-146zM588 -266q0 -135 -148 -249q-17 -13 -57 -38l-72 74q97 75 97 112q-47 7 -80 48t-33 92q0 57 39.5 96t99.5 39q67 0 110.5 -50
t43.5 -124z" />
    <glyph glyph-name="Tcaron" unicode="&#x164;" horiz-adv-x="1294" 
d="M43 1434h1208v-299h-442v-1135h-324v1135h-442v299zM653 1534h-12l-377 274l109 158l274 -158l275 156l108 -156z" />
    <glyph glyph-name="tcaron" unicode="&#x165;" horiz-adv-x="845" 
d="M16 799v266h146v207h307v-207h242v-266h-242v-400q0 -49 33 -80.5t84 -31.5h125v-287h-176q-157 0 -267 96q-106 97 -106 244v459h-146zM825 1384q0 -111 -96 -200l-61 -54q-12 -10 -45 -28l-2 -2l-72 74q93 72 96 112q-47 8 -80 48t-33 91q0 57 40 96.5t100 39.5
q67 0 110 -50.5t43 -126.5z" />
    <glyph glyph-name="Tbar" unicode="&#x166;" horiz-adv-x="1294" 
d="M1040 508h-231v-508h-324v508h-231v285h231v342h-442v299h1208v-299h-442v-342h231v-285z" />
    <glyph glyph-name="tbar" unicode="&#x167;" horiz-adv-x="753" 
d="M162 799h-146v266h146v207h307v-207h242v-266h-242v-144h170v-192h-170v-64q0 -49 33 -80.5t84 -31.5h125v-287h-176q-157 0 -267 96q-106 97 -106 244v123h-107v192h107v144z" />
    <glyph glyph-name="Utilde" unicode="&#x168;" horiz-adv-x="1437" 
d="M1030 582v852h324v-854q0 -256 -183 -433q-180 -174 -452 -174q-273 0 -453 174q-182 176 -182 433v854h324v-852q0 -134 88 -222t223 -88q133 0 221 88q90 90 90 222zM563 1579h-203q0 106 72 184q74 80 174 80q64 0 125 -43q65 -41 82 -41q25 0 42 21.5t17 52.5h205
q0 -111 -71 -188q-70 -76 -172 -76q-64 0 -129 41q-62 41 -80 41q-25 0 -43.5 -21t-18.5 -51z" />
    <glyph glyph-name="utilde" unicode="&#x169;" horiz-adv-x="1177" 
d="M86 381v684h307v-602q0 -88 55.5 -146.5t139.5 -58.5q85 0 140.5 58.5t55.5 146.5v602h308v-1065h-308v109q-109 -136 -290 -136q-171 0 -291 117q-117 117 -117 291zM434 1231h-203q0 106 72 184q74 80 174 80q63 0 127 -43q65 -41 80 -41q25 0 42 21.5t17 52.5h205
q0 -112 -71 -189q-69 -75 -172 -75q-65 0 -130 41q-62 41 -79 41q-25 0 -43.5 -21t-18.5 -51z" />
    <glyph glyph-name="Umacron" unicode="&#x16a;" horiz-adv-x="1437" 
d="M1030 582v852h324v-854q0 -256 -183 -433q-180 -174 -452 -174q-273 0 -453 174q-182 176 -182 433v854h324v-852q0 -134 88 -222t223 -88q133 0 221 88q90 90 90 222zM1038 1593h-641v228h641v-228z" />
    <glyph glyph-name="umacron" unicode="&#x16b;" horiz-adv-x="1177" 
d="M494 -27q-171 0 -291 117q-117 117 -117 291v684h307v-602q0 -88 55.5 -146.5t139.5 -58.5q85 0 140.5 58.5t55.5 146.5v602h308v-1065h-308v109q-109 -136 -290 -136zM909 1473v-228h-639v228h639z" />
    <glyph glyph-name="Ubreve" unicode="&#x16c;" horiz-adv-x="1437" 
d="M1030 582v852h324v-854q0 -256 -183 -433q-180 -174 -452 -174q-273 0 -453 174q-182 176 -182 433v854h324v-852q0 -134 88 -222t223 -88q133 0 221 88q90 90 90 222zM375 1864h215q0 -62 36 -102t91 -40t90 40t35 102h213q0 -146 -99 -240q-96 -96 -241 -96
q-143 0 -244 96q-96 96 -96 240z" />
    <glyph glyph-name="ubreve" unicode="&#x16d;" horiz-adv-x="1177" 
d="M86 381v684h307v-602q0 -88 55.5 -146.5t139.5 -58.5q85 0 140.5 58.5t55.5 146.5v602h308v-1065h-308v109q-109 -136 -290 -136q-171 0 -291 117q-117 117 -117 291zM246 1516h215q0 -62 36 -102t91 -40t90 40t35 102h213q0 -146 -99 -240q-96 -96 -241 -96
q-143 0 -244 96q-96 96 -96 240z" />
    <glyph glyph-name="Uring" unicode="&#x16e;" horiz-adv-x="1437" 
d="M1030 582v852h324v-854q0 -256 -183 -433q-180 -174 -452 -174q-273 0 -453 174q-182 176 -182 433v854h324v-852q0 -134 88 -222t223 -88q133 0 221 88q90 90 90 222zM469 1776q0 101 72 176q73 73 178 73q103 0 176 -73q74 -74 74 -176q0 -105 -74 -179
q-74 -71 -176 -71q-104 0 -178 71q-72 75 -72 179zM674 1821q-16 -16 -18 -36.5t8.5 -36.5t26.5 -26.5t36.5 -8.5t36.5 18q20 20 18 46t-20 41.5t-41.5 20.5t-46.5 -18z" />
    <glyph glyph-name="uring" unicode="&#x16f;" horiz-adv-x="1177" 
d="M86 381v684h307v-602q0 -88 55.5 -146.5t139.5 -58.5q85 0 140.5 58.5t55.5 146.5v602h308v-1065h-308v109q-109 -136 -290 -136q-171 0 -291 117q-117 117 -117 291zM590 1178q-104 0 -178 71q-72 75 -72 178q0 102 72 177q73 73 178 73q103 0 176 -73q74 -74 74 -177
q0 -104 -74 -178q-74 -71 -176 -71zM635 1473q-17 19 -45 19t-47 -19q-17 -19 -17 -45.5t17 -45.5q19 -19 47 -19t45 19q19 19 19 45.5t-19 45.5z" />
    <glyph glyph-name="Uhungarumlaut" unicode="&#x170;" horiz-adv-x="1437" 
d="M1030 582v852h324v-854q0 -256 -183 -433q-180 -174 -452 -174q-273 0 -453 174q-182 176 -182 433v854h324v-852q0 -134 88 -222t223 -88q133 0 221 88q90 90 90 222zM510 1524l-145 125l294 364l201 -184zM944 1524l-145 125l293 364l202 -184z" />
    <glyph glyph-name="uhungarumlaut" unicode="&#x171;" horiz-adv-x="1177" 
d="M86 381v684h307v-602q0 -88 55.5 -146.5t139.5 -58.5q85 0 140.5 58.5t55.5 146.5v602h308v-1065h-308v109q-109 -136 -290 -136q-171 0 -291 117q-117 117 -117 291zM1165 1481l-350 -305l-145 124l295 365zM381 1176l-143 124l292 365l201 -184z" />
    <glyph glyph-name="Uogonek" unicode="&#x172;" horiz-adv-x="1437" 
d="M84 580v854h324v-852q0 -134 88 -222t223 -88q133 0 221 88q90 90 90 222v852h324v-854q0 -215 -131 -377q-130 -161 -340 -211q-44 -36 -79.5 -89t-35.5 -98q0 -34 21 -52.5t55 -18.5q24 0 51 10.5t41 22.5l12 12l84 -109l-35 -30q-22 -22 -92 -52q-63 -32 -133 -32
q-94 0 -155.5 55t-61.5 141q0 110 98 223q-243 20 -409 193q-160 171 -160 412z" />
    <glyph glyph-name="uogonek" unicode="&#x173;" horiz-adv-x="1177" 
d="M86 381v684h307v-602q0 -88 55.5 -146.5t139.5 -58.5q85 0 140.5 58.5t55.5 146.5v602h308v-1065h-29l-35 -31q-24 -24 -55 -71q-33 -50 -33 -93q0 -34 21 -52.5t55 -18.5q24 0 51 10.5t41 22.5l12 12l84 -109l-35 -30q-22 -22 -92 -52q-63 -32 -133 -32q-94 0 -155.5 55
t-61.5 141q0 54 28 117t62 98l31 33h-64v109q-109 -136 -290 -136q-171 0 -291 117q-117 117 -117 291z" />
    <glyph glyph-name="Wcircumflex" unicode="&#x174;" horiz-adv-x="2052" 
d="M760 0h-266l-482 1434h332l279 -912l270 912h266l273 -912l276 912h332l-479 -1434h-269l-266 866zM1026 1692l-272 -158l-109 158l375 272h14l375 -272l-109 -156z" />
    <glyph glyph-name="wcircumflex" unicode="&#x175;" horiz-adv-x="1591" 
d="M348 0l-336 1065h310l165 -592l166 592h283l168 -592l166 592h309l-338 -1065h-278l-166 561l-168 -561h-281zM797 1343l-275 -157l-108 157l374 273h15l375 -273l-109 -155z" />
    <glyph glyph-name="Ycircumflex" unicode="&#x176;" horiz-adv-x="1429" 
d="M549 590l-537 844h373l326 -541l336 541h370l-545 -838v-596h-323v590zM442 1534l-108 158l375 272h14l375 -272l-109 -156l-272 156z" />
    <glyph glyph-name="ycircumflex" unicode="&#x177;" horiz-adv-x="1130" 
d="M416 8l-404 1057h318l231 -657l240 657h317l-452 -1176q-73 -184 -195 -267t-319 -83h-37v293h39q197 0 256 160zM291 1186l-109 157l377 273h12l377 -273l-108 -155l-275 155z" />
    <glyph glyph-name="Ydieresis" unicode="&#x178;" horiz-adv-x="1429" 
d="M549 590l-537 844h373l326 -541l336 541h370l-545 -838v-596h-323v590zM817 1808q47 47 117.5 47t114.5 -47q47 -44 47 -114t-47 -117q-44 -44 -114.5 -44t-117.5 44q-44 47 -44 117t44 114zM381 1577q-44 47 -44 117t44 114q47 47 117 47t114 -47q47 -44 47 -114
t-47 -117q-44 -44 -114 -44t-117 44z" />
    <glyph glyph-name="Zacute" unicode="&#x179;" horiz-adv-x="1286" 
d="M1223 299v-299h-1153v250l694 885h-688v299h1141v-250l-695 -885h701zM541 1542l-97 166l433 272l131 -239z" />
    <glyph glyph-name="zacute" unicode="&#x17a;" horiz-adv-x="1005" 
d="M944 281v-281h-885v211l453 573h-442v281h864v-211l-451 -573h461zM864 1393l-467 -199l-96 166l432 272z" />
    <glyph glyph-name="Zdotaccent" unicode="&#x17b;" horiz-adv-x="1286" 
d="M1223 0h-1153v250l694 885h-688v299h1141v-250l-695 -885h701v-299zM473 1708q0 74 49.5 124t124.5 50q73 0 123.5 -50t50.5 -124q0 -75 -50 -124.5t-124 -49.5q-75 0 -124.5 49.5t-49.5 124.5z" />
    <glyph glyph-name="zdotaccent" unicode="&#x17c;" horiz-adv-x="1005" 
d="M944 281v-281h-885v211l453 573h-442v281h864v-211l-451 -573h461zM504 1186q-75 0 -124.5 49.5t-49.5 124.5q0 74 49.5 124t124.5 50q74 0 124 -50t50 -124q0 -75 -50 -124.5t-124 -49.5z" />
    <glyph glyph-name="Zcaron" unicode="&#x17d;" horiz-adv-x="1286" 
d="M1223 0h-1153v250l694 885h-688v299h1141v-250l-695 -885h701v-299zM653 1534h-14l-375 274l109 158l274 -158l273 156l108 -156z" />
    <glyph glyph-name="zcaron" unicode="&#x17e;" horiz-adv-x="1005" 
d="M944 281v-281h-885v211l453 573h-442v281h864v-211l-451 -573h461zM496 1186l-375 274l108 158l275 -158l272 156l109 -156l-375 -274h-14z" />
    <glyph glyph-name="uni018F" unicode="&#x18f;" horiz-adv-x="1638" 
d="M819 1460q321 0 537 -213q217 -211 217 -530q0 -320 -217 -531q-216 -213 -537 -213q-320 0 -536 213q-215 215 -215 533q0 68 10 133h1145q-43 134 -152.5 215.5t-251.5 81.5q-191 0 -311 -135l-324 121q100 153 267 239t368 86zM819 285q134 0 239.5 72t155.5 196h-788
q47 -123 153.5 -195.5t239.5 -72.5z" />
    <glyph glyph-name="florin" unicode="&#x192;" horiz-adv-x="831" 
d="M-41 -461h-145l51 285h117q49 0 86.5 30.5t48.5 77.5l129 732h-154l45 260h154l45 260q27 149 158 250q132 102 299 102h145l-49 -285h-119q-50 0 -88 -30.5t-45 -77.5l-39 -219h231l-45 -260h-233l-135 -773q-27 -147 -158 -249q-133 -103 -299 -103z" />
    <glyph glyph-name="uni01DD" unicode="&#x1dd;" horiz-adv-x="1220" 
d="M51 643h793q-29 85 -100 135.5t-164 50.5q-128 0 -207 -94l-297 68q72 134 207.5 211.5t300.5 77.5q249 0 417 -160q166 -159 166 -400q0 -238 -161 -399q-165 -160 -404 -160q-236 0 -401 160q-162 162 -162 399q0 58 12 111zM842 416h-490q29 -82 96.5 -131t153.5 -49
q81 0 146 49t94 131z" />
    <glyph glyph-name="Aringacute" unicode="&#x1fa;" horiz-adv-x="1501" 
d="M451 242l-99 -242h-340l600 1423q-110 73 -110 209q0 102 71 176q74 74 177 74q63 0 120 -31l367 232l131 -240l-375 -157q6 -27 6 -54q0 -137 -110 -207l598 -1425h-338l-98 242h-600zM932 532l-180 441l-181 -441h361zM750 1569q30 0 47.5 20t17.5 43.5t-17.5 43.5
t-47.5 20q-29 0 -45.5 -20t-16.5 -43.5t16.5 -43.5t45.5 -20z" />
    <glyph glyph-name="aringacute" unicode="&#x1fb;" 
d="M557 -27q-215 0 -360 160q-144 163 -144 399q0 241 144 400q145 160 360 160q163 0 295 -99v72h305v-1065h-305v74q-128 -101 -295 -101zM381 1427q0 102 72 177q73 73 178 73q74 0 129 -37l356 226l131 -242l-370 -156q4 -32 4 -41q0 -104 -74 -178q-74 -71 -176 -71
q-104 0 -178 71q-72 75 -72 178zM373 535q0 -110 68.5 -184.5t168.5 -74.5q99 0 168.5 75t69.5 184q0 107 -70 180t-168 73q-100 0 -168.5 -73.5t-68.5 -179.5zM584 1473q-17 -19 -17 -45.5t17 -45.5q19 -19 47 -19t45 19q19 19 19 45.5t-19 45.5q-17 19 -45 19t-47 -19z
" />
    <glyph glyph-name="AEacute" unicode="&#x1fc;" horiz-adv-x="2097" 
d="M377 0h-365l865 1434h1148v-299h-684v-263h568v-299h-568v-274h695v-299h-1018v242h-500zM1520 1741l-467 -199l-95 166l433 272zM690 532h328v558z" />
    <glyph glyph-name="aeacute" unicode="&#x1fd;" horiz-adv-x="2019" 
d="M553 -27q-211 0 -356 160q-144 163 -144 399q0 241 144 400q145 160 356 160q167 0 299 -105v78h305v-70q135 97 301 97q220 0 369 -162q151 -160 151 -398q0 -62 -10 -110h-792q26 -85 96.5 -135.5t163.5 -50.5q132 0 211 94l297 -68q-68 -135 -192.5 -212t-281.5 -77
q-176 0 -313 101v-74h-305v78q-132 -105 -299 -105zM373 535q0 -110 68.5 -184.5t168.5 -74.5q99 0 168.5 75t69.5 184q0 107 -70 180t-168 73q-100 0 -168.5 -73.5t-68.5 -179.5zM1356 1393l-467 -199l-96 166l432 272zM1178 649h487q-26 82 -93.5 131t-154.5 49
q-82 0 -147.5 -49t-91.5 -131z" />
    <glyph glyph-name="Oslashacute" unicode="&#x1fe;" horiz-adv-x="1638" 
d="M264 76l53 80q-119 100 -184 245.5t-65 315.5q0 318 215 530q216 213 536 213q190 0 355 -80l55 80l149 -102l-55 -80q250 -218 250 -561q0 -320 -217 -531q-216 -213 -537 -213q-190 0 -350 80l-57 -80zM1133 1006l-480 -687q75 -34 166 -34q177 0 297 123
q119 125 119 309q0 175 -102 289zM508 426l479 688q-78 35 -168 35q-176 0 -295 -125q-118 -121 -118 -307q0 -171 102 -291zM713 1542l-97 166l433 272l131 -239z" />
    <glyph glyph-name="oslashacute" unicode="&#x1ff;" 
d="M623 1092q131 0 251 -54l37 54l136 -95l-35 -51q180 -158 180 -414q0 -235 -164 -399q-165 -160 -405 -160q-139 0 -254 56l-37 -56l-135 95l36 53q-180 158 -180 411q0 240 162 398q162 162 408 162zM825 682l-276 -395q37 -11 74 -11q105 0 176 74q73 76 73 182
q0 79 -47 150zM418 385l276 393q-33 10 -71 10q-109 0 -179 -73q-71 -74 -71 -183q0 -85 45 -147zM516 1194l-96 166l432 272l131 -239z" />
    <glyph glyph-name="uni0218" unicode="&#x218;" horiz-adv-x="1234" 
d="M1110 1124l-322 -75q-14 48 -66.5 80t-123.5 32q-74 0 -123 -33t-49 -84q0 -65 119 -114q63 -22 215 -68q53 -16 79 -25t61.5 -25t74.5 -40q92 -49 141 -130.5t55 -209.5q0 -209 -149 -334t-387 -125q-217 0 -375 103q-155 101 -201 264l326 78q18 -63 86.5 -104.5
t163.5 -41.5q89 0 150 37.5t61 93.5q0 40 -37 70q-32 28 -68 44t-110 40l-21 6q-18 5 -56 17.5t-52 15.5l-101 37q-67 28 -98 47l-9 6q-105 76 -135 123l-1 2q-58 95 -58 209q0 196 136 317q138 123 356 123q193 0 336 -96q140 -92 182 -240zM825 -266q0 -49 -21.5 -96.5
t-48.5 -79t-61 -59t-51 -38t-25 -14.5l-69 74q93 72 96 112q-47 7 -80 48t-33 92q0 57 40 96t100 39q67 0 110 -50t43 -124z" />
    <glyph glyph-name="uni0219" unicode="&#x219;" horiz-adv-x="983" 
d="M920 801l-281 -45q-27 90 -160 90q-121 0 -121 -70q0 -40 84 -71l191 -62q161 -51 232 -128.5t71 -199.5q0 -164 -118 -253t-320 -89q-200 0 -318 83.5t-141 236.5l283 39q30 -107 182 -107q62 0 100.5 21t38.5 57q0 53 -106 82l-195 57q-148 41 -214.5 115t-66.5 193
q0 172 115.5 257t317.5 85q184 0 295 -76.5t131 -214.5zM690 -266q0 -135 -148 -249q-17 -13 -57 -38l-69 74q93 72 96 112q-47 7 -80 48t-33 92q0 57 40.5 96t97.5 39q67 0 110 -49.5t43 -124.5z" />
    <glyph glyph-name="uni021A" unicode="&#x21a;" horiz-adv-x="1294" 
d="M485 0v1135h-442v299h1208v-299h-442v-1135h-324zM627 -367q-47 7 -80 48t-33 92q0 57 39.5 96t99.5 39q67 0 110.5 -50t43.5 -124q0 -114 -96 -203l-62 -53q-16 -13 -45 -29l-2 -2l-72 74q97 75 97 112z" />
    <glyph glyph-name="uni021B" unicode="&#x21b;" horiz-adv-x="753" 
d="M16 799v266h146v207h307v-207h242v-266h-242v-400q0 -49 33 -80.5t84 -31.5h125v-287h-176q-157 0 -267 96q-106 97 -106 244v459h-146zM588 -266q0 -135 -148 -249q-17 -13 -57 -38l-72 74q97 75 97 112q-47 7 -80 48t-33 92q0 57 39.5 96t99.5 39q67 0 110.5 -50
t43.5 -124z" />
    <glyph glyph-name="uni0237" unicode="&#x237;" horiz-adv-x="489" 
d="M98 1065h305v-1171q0 -150 -114 -252q-115 -103 -285 -103h-96v293h72q51 0 84.5 30t33.5 75v1128z" />
    <glyph glyph-name="uni0259" unicode="&#x259;" horiz-adv-x="1220" 
d="M51 643h793q-29 85 -100 135.5t-164 50.5q-128 0 -207 -94l-297 68q72 134 207.5 211.5t300.5 77.5q249 0 417 -160q166 -159 166 -400q0 -238 -161 -399q-165 -160 -404 -160q-236 0 -401 160q-162 162 -162 399q0 58 12 111zM842 416h-490q29 -82 96.5 -131t153.5 -49
q81 0 146 49t94 131z" />
    <glyph glyph-name="circumflex" unicode="&#x2c6;" horiz-adv-x="913" 
d="M457 1597l-275 -157l-108 157l375 273h14l375 -273l-109 -157z" />
    <glyph glyph-name="caron" unicode="&#x2c7;" horiz-adv-x="913" 
d="M457 1712l272 158l109 -158l-375 -272h-14l-375 274l108 158z" />
    <glyph glyph-name="breve" unicode="&#x2d8;" horiz-adv-x="827" 
d="M74 1769h215q0 -62 36 -102.5t91 -40.5t89 40.5t34 102.5h215q0 -145 -99 -239q-96 -96 -241 -96q-143 0 -244 96q-96 96 -96 239z" />
    <glyph glyph-name="dotaccent" unicode="&#x2d9;" horiz-adv-x="497" 
d="M74 1614q0 74 50 124t124 50q75 0 124.5 -50t49.5 -124q0 -75 -49.5 -125.5t-124.5 -50.5q-74 0 -124 50.5t-50 125.5z" />
    <glyph glyph-name="ring" unicode="&#x2da;" horiz-adv-x="647" 
d="M74 1681q0 104 73 177t177 73q103 0 176 -73t73 -177q0 -105 -73 -178q-74 -71 -176 -71q-103 0 -177 71q-73 73 -73 178zM276 1726q-17 -19 -17 -45t17 -45q19 -19 47.5 -19t45.5 19q19 19 19 45t-19 45q-17 19 -45.5 19t-47.5 -19z" />
    <glyph glyph-name="ogonek" unicode="&#x2db;" horiz-adv-x="626" 
d="M166 -33l31 33h213l-35 -31q-27 -27 -56 -71q-32 -49 -32 -93q0 -71 78 -71q24 0 51 10.5t41 22.5l12 12l84 -109l-35 -30q-22 -22 -92 -52q-63 -32 -133 -32q-94 0 -156.5 55t-62.5 141q0 53 29 116t63 99z" />
    <glyph glyph-name="tilde" unicode="&#x2dc;" horiz-adv-x="866" 
d="M279 1485h-205q0 108 73 184q74 80 175 80q63 0 124 -43q65 -41 82 -41q25 0 42.5 20.5t17.5 51.5h205q0 -109 -72 -187q-71 -77 -174 -77q-66 0 -127 40q-61 43 -80 43q-25 0 -43 -20.5t-18 -50.5z" />
    <glyph glyph-name="hungarumlaut" unicode="&#x2dd;" horiz-adv-x="1077" 
d="M219 1430l-145 124l293 365l202 -184zM653 1430l-145 124l293 365l203 -184z" />
    <glyph glyph-name="uni0394" unicode="&#x394;" horiz-adv-x="1474" 
d="M1462 0h-1450l592 1434h266zM1008 291l-269 676l-270 -676h539z" />
    <glyph glyph-name="uni03A9" unicode="&#x3a9;" horiz-adv-x="1638" 
d="M68 754q0 300 215 503q218 203 538 203q322 0 537 -203t215 -505q0 -256 -166 -449h166v-303h-588v303q114 52 182 160.5t68 243.5q0 190 -119 315q-121 127 -297 127q-174 0 -295 -127q-118 -124 -118 -311q0 -138 73 -249t191 -159v-303h-588v303h151
q-165 192 -165 451z" />
    <glyph glyph-name="uni0400" unicode="&#x400;" horiz-adv-x="1232" 
d="M96 0v1434h1071v-299h-745v-263h627v-299h-627v-274h756v-299h-1082zM821 1708l-94 -166l-469 199l131 239z" />
    <glyph glyph-name="uni0401" unicode="&#x401;" horiz-adv-x="1232" 
d="M1178 0h-1082v1434h1071v-299h-745v-263h627v-299h-627v-274h756v-299zM729 1577q-44 47 -44 117t44 114q47 47 117.5 47t114.5 -47q47 -44 47 -114t-47 -117q-44 -44 -114.5 -44t-117.5 44zM524 1577q-44 -44 -114 -44t-117 44q-44 47 -44 117t44 114q47 47 117 47
t114 -47q47 -44 47 -114t-47 -117z" />
    <glyph glyph-name="uni0402" unicode="&#x402;" horiz-adv-x="1736" 
d="M485 0v1135h-442v299h1208v-299h-442v-234q135 29 252 29q271 0 425 -126.5t154 -352.5q0 -239 -161 -357q-165 -121 -428 -121l2 299q262 0 262 177q0 182 -266 182q-116 0 -240 -31v-600h-324z" />
    <glyph glyph-name="uni0403" unicode="&#x403;" horiz-adv-x="1099" 
d="M422 1135v-1135h-326v1434h961v-299h-635zM920 1741l-467 -199l-95 166l433 272z" />
    <glyph glyph-name="uni0404" unicode="&#x404;" horiz-adv-x="1554" 
d="M819 1460q232 0 410 -112q184 -113 272 -299l-315 -117q-55 101 -151 159t-216 58q-136 0 -243 -77.5t-148 -205.5h555v-284h-561q42 -134 149.5 -215.5t247.5 -81.5q120 0 216 58t151 159l315 -117q-87 -185 -272 -301q-181 -111 -410 -111q-320 0 -536 213
q-215 212 -215 531q0 318 215 530q216 213 536 213z" />
    <glyph glyph-name="uni0405" unicode="&#x405;" horiz-adv-x="1234" 
d="M1110 1124l-322 -75q-14 48 -66.5 80t-123.5 32q-74 0 -123 -33t-49 -84q0 -65 119 -114q63 -22 215 -68q53 -16 79 -25t61.5 -25t74.5 -40q92 -49 141 -130.5t55 -209.5q0 -209 -149 -334t-387 -125q-217 0 -375 103q-155 101 -201 264l326 78q18 -63 86.5 -104.5
t163.5 -41.5q89 0 150 37.5t61 93.5q0 40 -37 70q-32 28 -68 44t-110 40l-21 6q-18 5 -56 17.5t-52 15.5l-101 37q-67 28 -98 47l-9 6q-105 76 -135 123l-1 2q-58 95 -58 209q0 196 136 317q138 123 356 123q193 0 336 -96q140 -92 182 -240z" />
    <glyph glyph-name="uni0406" unicode="&#x406;" horiz-adv-x="518" 
d="M422 0h-326v1434h326v-1434z" />
    <glyph glyph-name="uni0407" unicode="&#x407;" horiz-adv-x="518" 
d="M422 0h-326v1434h326v-1434zM-74 1577q-47 47 -47 117t47 114q44 47 115 47t115 -47q47 -44 47 -114t-47 -117q-44 -44 -115 -44t-115 44zM360 1577q-44 47 -44 117t44 114q47 47 117.5 47t114.5 -47q47 -44 47 -114t-47 -117q-44 -44 -114.5 -44t-117.5 44z" />
    <glyph glyph-name="uni0408" unicode="&#x408;" horiz-adv-x="1189" 
d="M1108 1434v-899q0 -244 -168 -402q-171 -160 -422 -160q-158 0 -289.5 68t-210.5 186l271 174q35 -60 97.5 -94.5t137.5 -34.5q117 0 193 76q78 78 78 187v899h313z" />
    <glyph glyph-name="uni0409" unicode="&#x409;" horiz-adv-x="2248" 
d="M78 0h-66v299h66q90 0 137 92q47 96 47 346v697h1079v-480h328q221 0 367 -137q147 -138 147 -340q0 -204 -147 -342q-147 -135 -367 -135h-653v1135h-428v-398q0 -369 -134.5 -553t-375.5 -184zM1341 655v-356h328q73 0 123.5 51.5t50.5 126.5t-50.5 126.5t-123.5 51.5
h-328z" />
    <glyph glyph-name="uni040A" unicode="&#x40a;" horiz-adv-x="2275" 
d="M96 0v1434h326v-521h620v521h324v-521h330q221 0 364 -131q148 -133 148 -325q0 -193 -148 -326q-143 -131 -364 -131h-654v614h-620v-614h-326zM1696 614h-330v-315h330q75 0 124.5 45t49.5 113q0 66 -50.5 111.5t-123.5 45.5z" />
    <glyph glyph-name="uni040B" unicode="&#x40b;" horiz-adv-x="1736" 
d="M485 0v1135h-442v299h1208v-299h-442v-230q109 25 235 25q280 0 438 -127.5t158 -358.5v-444h-325v444q0 187 -279 187q-96 0 -227 -25v-606h-324z" />
    <glyph glyph-name="uni040C" unicode="&#x40c;" horiz-adv-x="1359" 
d="M422 0h-326v1434h326v-580l473 580h410l-570 -701l611 -733h-410l-514 616v-616zM1024 1741l-467 -199l-96 166l434 272z" />
    <glyph glyph-name="uni040D" unicode="&#x40d;" horiz-adv-x="1476" 
d="M399 0h-303v1434h326v-891l655 891h303v-1434h-325v885zM838 1542l-467 199l131 239l432 -272z" />
    <glyph glyph-name="uni040E" unicode="&#x40e;" horiz-adv-x="1449" 
d="M578 408l-566 1026h359l383 -709l336 709h348l-463 -971q-116 -242 -258 -352.5t-338 -110.5h-133v299h106q137 0 226 109zM729 1528q-165 0 -274 106q-109 109 -109 262h229q0 -62 43 -102.5t109 -40.5q63 0 106.5 41t43.5 102h229q0 -153 -109 -262
q-106 -106 -268 -106z" />
    <glyph glyph-name="uni040F" unicode="&#x40f;" horiz-adv-x="1454" 
d="M96 0v1434h326v-1135h610v1135h326v-1434h-469v-348h-326v348h-467z" />
    <glyph glyph-name="uni0410" unicode="&#x410;" horiz-adv-x="1501" 
d="M352 0h-340l604 1434h269l602 -1434h-338l-98 242h-600zM932 532l-180 441l-181 -441h361z" />
    <glyph glyph-name="uni0411" unicode="&#x411;" horiz-adv-x="1335" 
d="M96 1434h1039v-299h-713v-205h328q219 0 364 -133q148 -133 148 -332t-148 -332q-145 -133 -364 -133h-654v1434zM422 631v-332h328q75 0 125.5 47t50.5 119t-50.5 119t-125.5 47h-328z" />
    <glyph glyph-name="uni0412" unicode="&#x412;" horiz-adv-x="1386" 
d="M840 0h-744v1434h703q196 0 329 -115q132 -114 132 -285q0 -166 -130 -284q88 -56 137.5 -144t49.5 -190q0 -178 -137 -297t-340 -119zM836 590h-414v-291h414q61 0 102 41.5t41 103.5t-41 104t-102 42zM795 1135h-373v-261h373q49 0 84 30.5t41 78.5q2 4 2 21
q0 57 -36 94t-91 37z" />
    <glyph glyph-name="uni0413" unicode="&#x413;" horiz-adv-x="1099" 
d="M422 1135v-1135h-326v1434h961v-299h-635z" />
    <glyph glyph-name="uni0414" unicode="&#x414;" horiz-adv-x="1671" 
d="M360 0v-348h-325v647h170q121 53 121 432v703h1091v-1135h217v-647h-323v348h-951zM575 299h519v836h-443v-392q0 -276 -76 -444z" />
    <glyph glyph-name="uni0415" unicode="&#x415;" horiz-adv-x="1232" 
d="M96 1434h1071v-299h-745v-263h627v-299h-627v-274h756v-299h-1082v1434z" />
    <glyph glyph-name="uni0416" unicode="&#x416;" horiz-adv-x="2103" 
d="M414 0h-402l566 733l-525 701h402l436 -584v584h326v-578l432 578h401l-524 -701l565 -733h-401l-473 614v-614h-326v618z" />
    <glyph glyph-name="uni0417" unicode="&#x417;" horiz-adv-x="1331" 
d="M672 -27q-218 0 -376.5 95.5t-234.5 265.5l316 117q73 -166 291 -166q117 0 185.5 43.5t68.5 117.5q0 60 -47.5 104t-114.5 44h-268v276h262q61 0 101 36.5t40 92.5q0 68 -62 109t-165 41q-206 0 -279 -166l-315 117q75 170 229.5 265t368.5 95q246 0 401 -119
q160 -118 160 -299q0 -186 -160 -307q187 -123 187 -329q0 -189 -166 -312q-168 -121 -422 -121z" />
    <glyph glyph-name="uni0418" unicode="&#x418;" horiz-adv-x="1476" 
d="M399 0h-303v1434h326v-891l655 891h303v-1434h-325v885z" />
    <glyph glyph-name="uni0419" unicode="&#x419;" horiz-adv-x="1476" 
d="M399 0h-303v1434h326v-891l655 891h303v-1434h-325v885zM369 1896h229q0 -61 44 -102t110 -41q63 0 105 41t42 102h229q0 -154 -108 -262q-106 -106 -268 -106q-166 0 -275 106q-108 108 -108 262z" />
    <glyph glyph-name="uni041A" unicode="&#x41a;" horiz-adv-x="1359" 
d="M96 0v1434h326v-580l473 580h410l-570 -701l611 -733h-410l-514 616v-616h-326z" />
    <glyph glyph-name="uni041B" unicode="&#x41b;" horiz-adv-x="1437" 
d="M78 0h-66v299h66q92 0 139 92t47 346v697h1077v-1434h-325v1135h-428v-398q0 -369 -134.5 -553t-375.5 -184z" />
    <glyph glyph-name="uni041C" unicode="&#x41c;" horiz-adv-x="1796" 
d="M418 0h-322v1434h322l481 -852l479 852h322v-1434h-322v827l-372 -673h-215l-373 673v-827z" />
    <glyph glyph-name="uni041D" unicode="&#x41d;" horiz-adv-x="1462" 
d="M422 0h-326v1434h326v-560h620v560h324v-1434h-324v575h-620v-575z" />
    <glyph glyph-name="uni041E" unicode="&#x41e;" horiz-adv-x="1638" 
d="M283 186q-215 212 -215 531q0 318 215 530q216 213 536 213q321 0 537 -213q217 -211 217 -530q0 -320 -217 -531q-216 -213 -537 -213q-320 0 -536 213zM819 285q177 0 297 123q119 125 119 309q0 185 -119 307q-119 125 -297 125q-176 0 -295 -125q-118 -121 -118 -307
q0 -185 118 -309q120 -123 295 -123z" />
    <glyph glyph-name="uni041F" unicode="&#x41f;" horiz-adv-x="1462" 
d="M422 1135v-1135h-326v1434h1270v-1434h-324v1135h-620z" />
    <glyph glyph-name="uni0420" unicode="&#x420;" horiz-adv-x="1323" 
d="M422 471v-471h-326v1434h652q219 0 368 -140q150 -138 150 -342q0 -206 -150 -344q-146 -137 -368 -137h-326zM748 1135h-326v-365h326q78 0 129 52t51 130t-51 130.5t-129 52.5z" />
    <glyph glyph-name="uni0421" unicode="&#x421;" horiz-adv-x="1554" 
d="M819 1460q232 0 410 -112q184 -113 272 -299l-315 -117q-55 101 -151 159t-216 58q-176 0 -295 -125q-118 -121 -118 -307q0 -185 118 -309q120 -123 295 -123q120 0 216 58t151 159l315 -117q-87 -185 -272 -301q-181 -111 -410 -111q-320 0 -536 213q-215 212 -215 531
q0 318 215 530q216 213 536 213z" />
    <glyph glyph-name="uni0422" unicode="&#x422;" horiz-adv-x="1294" 
d="M485 1135h-442v299h1208v-299h-442v-1135h-324v1135z" />
    <glyph glyph-name="uni0423" unicode="&#x423;" horiz-adv-x="1449" 
d="M578 408l-566 1026h359l383 -709l336 709h348l-463 -971q-116 -242 -258 -352.5t-338 -110.5h-133v299h106q137 0 226 109z" />
    <glyph glyph-name="uni0424" unicode="&#x424;" horiz-adv-x="1781" 
d="M729 1323v137h324v-137q279 -3 469 -178q192 -174 192 -428q0 -256 -192 -430q-188 -173 -469 -176v-138h-324v138q-283 3 -471 176q-190 175 -190 430q0 253 190 428t471 178zM1053 1012v-588q133 0 229 84q94 85 94 209q0 127 -94 209q-95 86 -229 86zM729 424v588
q-134 0 -229 -86q-94 -82 -94 -209q0 -124 94 -209q96 -84 229 -84z" />
    <glyph glyph-name="uni0425" unicode="&#x425;" horiz-adv-x="1456" 
d="M535 731l-502 703h387l309 -433l307 433h387l-501 -703l522 -731h-387l-328 461l-330 -461h-387z" />
    <glyph glyph-name="uni0426" unicode="&#x426;" horiz-adv-x="1609" 
d="M96 0v1434h326v-1135h610v1135h326v-1135h217v-647h-326v348h-1153z" />
    <glyph glyph-name="uni0427" unicode="&#x427;" horiz-adv-x="1357" 
d="M666 504q-289 0 -451 127.5t-162 359.5v443h326v-443q0 -188 289 -188q138 0 270 33v598h326v-1434h-326v535q-130 -31 -272 -31z" />
    <glyph glyph-name="uni0428" unicode="&#x428;" horiz-adv-x="2103" 
d="M96 0v1434h326v-1135h455v1135h325v-1135h479v1135h326v-1434h-1911z" />
    <glyph glyph-name="uni0429" unicode="&#x429;" horiz-adv-x="2258" 
d="M96 1434h326v-1135h455v1135h325v-1135h479v1135h326v-1135h217v-647h-326v348h-1802v1434z" />
    <glyph glyph-name="uni042A" unicode="&#x42a;" horiz-adv-x="1701" 
d="M469 0v1135h-426v299h752v-480h327q221 0 367 -137q147 -138 147 -340q0 -204 -147 -342q-147 -135 -367 -135h-653zM795 655v-356h327q75 0 125.5 51.5t50.5 126.5t-50.5 126.5t-125.5 51.5h-327z" />
    <glyph glyph-name="uni042B" unicode="&#x42b;" horiz-adv-x="1804" 
d="M750 0h-654v1434h326v-480h328q221 0 364 -137q148 -139 148 -340q0 -203 -148 -342q-144 -135 -364 -135zM1708 0h-324v1434h324v-1434zM422 655v-356h328q75 0 125.5 51.5t50.5 126.5q0 69 -45 119.5t-113 58.5h-18h-328z" />
    <glyph glyph-name="uni042C" unicode="&#x42c;" horiz-adv-x="1329" 
d="M96 0v1434h326v-480h328q221 0 364 -137q148 -139 148 -340q0 -203 -148 -342q-144 -135 -364 -135h-654zM422 655v-356h328q69 0 119.5 45.5t56.5 114.5q0 88 -46.5 142t-129.5 54h-328z" />
    <glyph glyph-name="uni042D" unicode="&#x42d;" horiz-adv-x="1554" 
d="M53 385l316 117q55 -101 150.5 -159t215.5 -58q140 0 248.5 81.5t149.5 215.5h-508v284h501q-41 128 -148 205.5t-243 77.5q-120 0 -215.5 -58t-150.5 -159l-316 117q88 186 273 299q178 112 409 112q321 0 537 -213q215 -212 215 -530q0 -319 -215 -531
q-216 -213 -537 -213q-229 0 -411 111q-183 115 -271 301z" />
    <glyph glyph-name="uni042E" unicode="&#x42e;" horiz-adv-x="2162" 
d="M96 0v1434h326v-560h184q52 258 256 422q203 164 481 164q321 0 537 -213q215 -212 215 -530q0 -319 -215 -531q-216 -213 -537 -213q-285 0 -489 168q-204 171 -250 434h-182v-575h-326zM1343 285q175 0 295 123q119 122 119 309t-119 309q-120 123 -295 123
q-176 0 -296 -123q-119 -122 -119 -309t119 -309q120 -123 296 -123z" />
    <glyph glyph-name="uni042F" unicode="&#x42f;" horiz-adv-x="1380" 
d="M717 483l-285 -483h-362l311 532q-129 57 -204 171t-75 255q0 201 146 338q147 138 364 138h672v-1434h-326v483h-241zM612 782h346v353h-346q-73 0 -122.5 -51t-49.5 -126t49.5 -125.5t122.5 -50.5z" />
    <glyph glyph-name="uni0430" unicode="&#x430;" 
d="M53 532q0 241 144 400q145 160 360 160q163 0 295 -99v72h305v-1065h-305v74q-128 -101 -295 -101q-215 0 -360 160q-144 163 -144 399zM610 788q-100 0 -168.5 -73.5t-68.5 -179.5q0 -110 68.5 -184.5t168.5 -74.5q99 0 168.5 75t69.5 184q0 107 -70 180t-168 73z" />
    <glyph glyph-name="uni0431" unicode="&#x431;" horiz-adv-x="1298" 
d="M72 766q0 358 166 546t524 224l178 18l170 19v-303l-340 -35q-381 -40 -405 -299q117 156 337 156q223 0 379 -164q158 -166 158 -400q0 -237 -160 -397q-161 -158 -399 -158q-257 0 -434 201q-174 198 -174 592zM682 272q103 0 174 74q72 78 72 186q0 110 -72 185
q-70 76 -174 76t-176 -75.5t-72 -185.5t72 -185t176 -75z" />
    <glyph glyph-name="uni0432" unicode="&#x432;" horiz-adv-x="1126" 
d="M90 1065h586q153 0 256 -86q104 -82 104 -209q0 -121 -92 -207q141 -88 141 -235q0 -142 -104 -236q-106 -92 -264 -92h-627v1065zM389 436v-164h311q47 -4 66.5 39t0 86t-66.5 39h-311zM668 793h-279v-140h279q63 0 69 64q0 76 -69 76z" />
    <glyph glyph-name="uni0433" unicode="&#x433;" horiz-adv-x="806" 
d="M389 780v-780h-299v1065h701v-285h-402z" />
    <glyph glyph-name="uni0434" unicode="&#x434;" horiz-adv-x="1378" 
d="M322 -307h-299v594h174q51 77 51 348v430h919v-778h189v-594h-299v307h-735v-307zM500 287h368v493h-321v-170q0 -190 -47 -323z" />
    <glyph glyph-name="uni0435" unicode="&#x435;" horiz-adv-x="1220" 
d="M1169 422h-792q26 -85 96.5 -135.5t163.5 -50.5q132 0 211 94l297 -68q-73 -135 -207 -212t-303 -77q-248 0 -416 160q-166 159 -166 399t162 398q162 162 403 162q240 0 402 -162q162 -158 162 -398q0 -53 -13 -110zM379 649h489q-29 82 -96.5 131t-153.5 49
q-82 0 -147.5 -49t-91.5 -131z" />
    <glyph glyph-name="uni0436" unicode="&#x436;" horiz-adv-x="1650" 
d="M367 0h-355l387 551l-338 514h349l266 -399v399h299v-399l266 399h350l-340 -514l387 -551h-354l-309 442v-442h-299v442z" />
    <glyph glyph-name="uni0437" unicode="&#x437;" horiz-adv-x="1089" 
d="M37 299l301 76q41 -115 203 -115q84 0 139 30t55 75q0 29 -23.5 49t-58.5 20h-231v217h219q32 0 54 18t22 44q0 39 -50 66.5t-122 27.5q-160 0 -201 -115l-301 74q41 148 180 235q148 91 336 91q201 0 334 -95q135 -95 135 -233q0 -132 -117 -215q136 -89 136 -234
q0 -143 -142 -243q-141 -99 -356 -99q-197 0 -334 88q-138 88 -178 238z" />
    <glyph glyph-name="uni0438" unicode="&#x438;" horiz-adv-x="1200" 
d="M811 557l-473 -557h-248v1065h299v-565l473 565h248v-1065h-299v557z" />
    <glyph glyph-name="uni0439" unicode="&#x439;" horiz-adv-x="1200" 
d="M90 0v1065h299v-565l473 565h248v-1065h-299v557l-473 -557h-248zM233 1511h228q0 -62 39.5 -103.5t99.5 -41.5q57 0 97 42t40 103h228q0 -155 -105 -260q-105 -102 -260 -102q-157 0 -262 102q-105 105 -105 260z" />
    <glyph glyph-name="uni043A" unicode="&#x43a;" horiz-adv-x="1138" 
d="M389 481v-481h-299v1065h299v-442l330 442h362l-381 -514l426 -551h-368z" />
    <glyph glyph-name="uni043B" unicode="&#x43b;" horiz-adv-x="1206" 
d="M111 0h-93v287h70q61 0 88 67q31 70 31 271v440h909v-1065h-299v780h-311v-223q0 -282 -103 -419.5t-292 -137.5z" />
    <glyph glyph-name="uni043C" unicode="&#x43c;" horiz-adv-x="1411" 
d="M389 504v-504h-299v1065h299l318 -543l315 543h299v-1065h-299v508l-223 -385h-187z" />
    <glyph glyph-name="uni043D" unicode="&#x43d;" horiz-adv-x="1202" 
d="M389 397v-397h-299v1065h299v-381h424v381h299v-1065h-299v397h-424z" />
    <glyph glyph-name="uni043E" unicode="&#x43e;" 
d="M215 133q-162 162 -162 399q0 240 162 398q162 162 408 162q243 0 405 -162q164 -159 164 -398q0 -235 -164 -399q-165 -160 -405 -160q-243 0 -408 160zM623 276q105 0 176 74q73 76 73 182q0 108 -73 181q-69 75 -176 75q-109 0 -179 -73q-71 -74 -71 -183
q0 -108 71 -182t179 -74z" />
    <glyph glyph-name="uni043F" unicode="&#x43f;" horiz-adv-x="1179" 
d="M389 780v-780h-299v1065h1000v-1065h-299v780h-402z" />
    <glyph glyph-name="uni0440" unicode="&#x440;" 
d="M393 -461h-307v1526h307v-72q126 99 293 99q216 0 361 -160t145 -400q0 -234 -145 -399q-145 -160 -361 -160q-161 0 -293 99v-533zM635 788q-100 0 -169 -74t-69 -184q0 -106 69 -180t169 -74q98 0 166 74q69 72 69 180q0 110 -68 184t-167 74z" />
    <glyph glyph-name="uni0441" unicode="&#x441;" horiz-adv-x="1191" 
d="M1161 725l-309 -90q-30 70 -91 111.5t-138 41.5q-109 0 -179 -73q-71 -71 -71 -180q0 -110 72 -184.5t178 -74.5q77 0 138 42t91 112l309 -90q-62 -167 -206.5 -267t-331.5 -100q-243 0 -408 160q-162 162 -162 399q0 242 162 400q165 160 408 160q187 0 331.5 -100
t206.5 -267z" />
    <glyph glyph-name="uni0442" unicode="&#x442;" horiz-adv-x="991" 
d="M346 0v780h-330v285h959v-285h-330v-780h-299z" />
    <glyph glyph-name="uni0443" unicode="&#x443;" horiz-adv-x="1130" 
d="M410 -8l6 16l-404 1057h318l231 -657l240 657h317l-452 -1176q-73 -184 -195 -267t-319 -83h-37v293h39q197 0 256 160z" />
    <glyph glyph-name="uni0444" unicode="&#x444;" horiz-adv-x="1650" 
d="M1016 -37q-31 0 -41 2v-426h-299v426q-8 -2 -41 -2q-244 0 -406 162q-161 161 -161 407q0 245 161 406q164 164 406 164q33 0 41 -2v436h299v-436q10 2 41 2q241 0 405 -164t164 -406q0 -243 -164 -407q-162 -162 -405 -162zM633 803q-107 0 -182 -78q-72 -78 -72 -193
q0 -114 72 -192q75 -78 182 -78q11 0 43 4v533q-32 4 -43 4zM1018 803q-7 0 -43 -4v-533q36 -4 43 -4q108 0 180 78q74 77 74 192q0 116 -74 193q-72 78 -180 78z" />
    <glyph glyph-name="uni0445" unicode="&#x445;" horiz-adv-x="1169" 
d="M797 0l-213 309l-211 -309h-361l389 549l-366 516h358l191 -277l190 277h359l-365 -516l387 -549h-358z" />
    <glyph glyph-name="uni0446" unicode="&#x446;" horiz-adv-x="1288" 
d="M90 0v1065h299v-778h391v778h299v-778h187v-594h-299v307h-877z" />
    <glyph glyph-name="uni0447" unicode="&#x447;" horiz-adv-x="1118" 
d="M57 723v342h312v-328q0 -100 149 -100q30 0 211 16v412h299v-1065h-299v367q-196 -17 -229 -17q-204 0 -324 105q-119 104 -119 268z" />
    <glyph glyph-name="uni0448" unicode="&#x448;" horiz-adv-x="1712" 
d="M90 0v1065h299v-778h318v778h299v-778h317v778h299v-1065h-1532z" />
    <glyph glyph-name="uni0449" unicode="&#x449;" horiz-adv-x="1830" 
d="M90 1065h299v-778h318v778h299v-778h317v778h299v-778h186v-594h-299v307h-1419v1065z" />
    <glyph glyph-name="uni044A" unicode="&#x44a;" horiz-adv-x="1343" 
d="M352 0v780h-340v285h639v-313h271q164 0 276 -109q111 -108 111 -266q0 -163 -111 -271q-109 -106 -276 -106h-570zM918 465h-267v-178h267q35 0 57 25.5t22 64.5q0 37 -23.5 62.5t-55.5 25.5z" />
    <glyph glyph-name="uni044B" unicode="&#x44b;" horiz-adv-x="1517" 
d="M90 0v1065h299v-313h268q165 0 277 -109q110 -107 110 -266q0 -164 -110 -271q-106 -106 -277 -106h-567zM1427 0h-299v1065h299v-1065zM664 465h-9h-266v-178h266q32 0 55 26t23 64q0 32 -20 58t-49 30z" />
    <glyph glyph-name="uni044C" unicode="&#x44c;" horiz-adv-x="1081" 
d="M657 0h-567v1065h299v-313h268q165 0 277 -109q110 -107 110 -266q0 -164 -110 -271q-106 -106 -277 -106zM389 465v-178h266q32 0 55 26t23 64q0 32 -20 58t-49 30h-9h-266z" />
    <glyph glyph-name="uni044D" unicode="&#x44d;" horiz-adv-x="1202" 
d="M37 332l301 90q30 -68 93 -109t142 -41q77 0 141 42t95 112h-338v227h330q-31 63 -93 101.5t-135 38.5q-79 0 -142.5 -40t-92.5 -108l-301 88q63 167 205 260q144 99 331 99q241 0 406 -160q164 -159 164 -400q0 -240 -164 -399q-165 -160 -406 -160q-183 0 -331 97
q-144 99 -205 262z" />
    <glyph glyph-name="uni044E" unicode="&#x44e;" horiz-adv-x="1705" 
d="M90 0v1065h299v-381h166q46 178 193 295q146 113 346 113q239 0 399 -160t160 -400q0 -239 -160 -399t-399 -160q-203 0 -353 117q-147 120 -190 307h-162v-397h-299zM1268 717q-70 76 -174 76q-106 0 -176 -76q-70 -73 -70 -185q0 -110 70 -186q71 -74 176 -74
q103 0 174 74q71 77 71 186q0 111 -71 185z" />
    <glyph glyph-name="uni044F" unicode="&#x44f;" horiz-adv-x="1153" 
d="M393 0h-350l248 348q-101 45 -159 135t-58 205q0 161 110 268q112 109 279 109h600v-1065h-299v311h-150zM467 598h297v182h-297q-50 4 -70.5 -44t0 -95.5t70.5 -42.5z" />
    <glyph glyph-name="uni0450" unicode="&#x450;" horiz-adv-x="1220" 
d="M1169 422h-792q26 -85 96.5 -135.5t163.5 -50.5q132 0 211 94l297 -68q-73 -135 -207 -212t-303 -77q-248 0 -416 160q-166 159 -166 399t162 398q162 162 403 162q240 0 402 -162q162 -158 162 -398q0 -53 -13 -110zM379 649h489q-29 82 -96.5 131t-153.5 49
q-82 0 -147.5 -49t-91.5 -131zM719 1194l-467 199l131 239l432 -272z" />
    <glyph glyph-name="uni0451" unicode="&#x451;" horiz-adv-x="1220" 
d="M1169 422h-792q26 -85 96.5 -135.5t163.5 -50.5q132 0 211 94l297 -68q-73 -135 -207 -212t-303 -77q-248 0 -416 160q-166 159 -166 399t162 398q162 162 403 162q240 0 402 -162q162 -158 162 -398q0 -53 -13 -110zM379 649h489q-29 82 -96.5 131t-153.5 49
q-82 0 -147.5 -49t-91.5 -131zM287 1229q-44 47 -44 117t44 114q47 47 117 47t114 -47q47 -44 47 -114t-47 -117q-44 -44 -114 -44t-117 44zM838 1507q69 0 116 -46t47 -115t-47 -115.5t-116 -46.5q-68 0 -114 46.5t-46 115.5t46 115t114 46z" />
    <glyph glyph-name="uni0452" unicode="&#x452;" horiz-adv-x="1206" 
d="M408 1536v-154h317v-208h-317v-220q114 138 299 138q174 0 294 -117q119 -116 119 -291v-790q0 -150 -114 -252q-115 -103 -285 -103h-98v293h73q49 0 83 30.5t34 74.5v665q0 88 -57.5 146.5t-143.5 58.5q-88 0 -146 -58.5t-58 -146.5v-602h-308v1174h-90v208h90v154h308
z" />
    <glyph glyph-name="uni0453" unicode="&#x453;" horiz-adv-x="806" 
d="M389 780v-780h-299v1065h701v-285h-402zM801 1393l-467 -199l-94 166l432 272z" />
    <glyph glyph-name="uni0454" unicode="&#x454;" horiz-adv-x="1202" 
d="M629 -27q-243 0 -408 160q-162 158 -162 399q0 242 162 400q165 160 408 160q188 0 332 -99q147 -101 204 -260l-301 -88q-29 68 -92.5 108t-142.5 40q-73 0 -135 -38.5t-93 -101.5h357v-227h-365q31 -70 95 -112t141 -42q79 0 142 41t93 109l301 -90q-57 -159 -204 -260
q-144 -99 -332 -99z" />
    <glyph glyph-name="uni0455" unicode="&#x455;" horiz-adv-x="983" 
d="M920 801l-281 -45q-27 90 -160 90q-121 0 -121 -70q0 -40 84 -71l191 -62q161 -51 232 -128.5t71 -199.5q0 -164 -118 -253t-320 -89q-200 0 -318 83.5t-141 236.5l283 39q30 -107 182 -107q62 0 100.5 21t38.5 57q0 53 -106 82l-195 57q-148 41 -214.5 115t-66.5 193
q0 172 115.5 257t317.5 85q184 0 295 -76.5t131 -214.5z" />
    <glyph glyph-name="uni0456" unicode="&#x456;" horiz-adv-x="479" 
d="M393 0h-307v1065h307v-1065zM102 1194q-53 53 -53 135t53 135q57 54 138 54t135 -54q55 -52 55 -135t-55 -135q-53 -53 -135 -53t-138 53z" />
    <glyph glyph-name="uni0457" unicode="&#x457;" horiz-adv-x="493" 
d="M399 0h-305v1065h305v-1065zM-45 1233q-44 44 -44 112.5t44 112.5t110 44t109 -44q44 -44 44 -112.5t-44 -112.5q-43 -44 -109 -44t-110 44zM317 1233q-43 44 -43 112.5t43 112.5q44 44 111 44t111 -44t44 -112.5t-44 -112.5t-111 -44t-111 44z" />
    <glyph glyph-name="uni0458" unicode="&#x458;" horiz-adv-x="489" 
d="M98 1065h305v-1171q0 -150 -114 -252q-115 -103 -285 -103h-96v293h72q51 0 84.5 30t33.5 75v1128zM252 1518q80 0 134 -54t54 -135t-54 -134.5t-134 -53.5q-82 0 -136.5 53.5t-54.5 134.5q0 82 54.5 135.5t136.5 53.5z" />
    <glyph glyph-name="uni0459" unicode="&#x459;" horiz-adv-x="1808" 
d="M111 0h-93v287h70q61 0 88 67q31 70 31 271v440h909v-313h270q165 0 277 -109q111 -108 111 -266q0 -163 -111 -271q-109 -106 -277 -106h-569v780h-311v-223q0 -282 -103 -419.5t-292 -137.5zM1382 465h-266v-178h266q32 0 55 26t23 64q0 37 -23 62.5t-55 25.5z" />
    <glyph glyph-name="uni045A" unicode="&#x45a;" horiz-adv-x="1804" 
d="M90 0v1065h299v-360h424v360h299v-330h268q170 0 277 -104q110 -104 110 -262t-110 -265q-107 -104 -277 -104h-567v418h-424v-418h-299zM1112 449v-162h266q33 0 55.5 23.5t22.5 58.5q0 32 -23 56t-55 24h-266z" />
    <glyph glyph-name="uni045B" unicode="&#x45b;" horiz-adv-x="1206" 
d="M408 1536v-154h317v-208h-317v-220q114 138 299 138q174 0 294 -117q119 -116 119 -291v-684h-307v602q0 88 -57.5 146.5t-143.5 58.5q-88 0 -146 -58.5t-58 -146.5v-602h-308v1174h-90v208h90v154h308z" />
    <glyph glyph-name="uni045C" unicode="&#x45c;" horiz-adv-x="1138" 
d="M389 481v-481h-299v1065h299v-442l330 442h362l-381 -514l426 -551h-368zM907 1393l-467 -199l-96 166l432 272z" />
    <glyph glyph-name="uni045D" unicode="&#x45d;" horiz-adv-x="1200" 
d="M811 557l-473 -557h-248v1065h299v-565l473 565h248v-1065h-299v557zM795 1360l-97 -166l-467 199l131 239z" />
    <glyph glyph-name="uni045E" unicode="&#x45e;" horiz-adv-x="1130" 
d="M416 8l-404 1057h318l231 -657l240 657h317l-452 -1176q-73 -184 -195 -267t-319 -83h-37v293h39q197 0 256 160zM567 1149q-156 0 -264 102q-104 104 -104 260h227q0 -62 40.5 -103.5t100.5 -41.5q57 0 97.5 42t40.5 103h227q0 -155 -105 -260q-105 -102 -260 -102z" />
    <glyph glyph-name="uni045F" unicode="&#x45f;" horiz-adv-x="1169" 
d="M90 0v1065h299v-778h391v778h299v-1065h-348v-307h-299v307h-342z" />
    <glyph glyph-name="uni0490" unicode="&#x490;" horiz-adv-x="1058" 
d="M422 1135v-1135h-326v1434h594v297h326v-596h-594z" />
    <glyph glyph-name="uni0491" unicode="&#x491;" horiz-adv-x="829" 
d="M389 780v-780h-299v1065h422v229h299v-514h-422z" />
    <glyph glyph-name="uni04D8" unicode="&#x4d8;" horiz-adv-x="1638" 
d="M819 1460q321 0 537 -213q217 -211 217 -530q0 -320 -217 -531q-216 -213 -537 -213q-320 0 -536 213q-215 215 -215 533q0 68 10 133h1145q-43 134 -152.5 215.5t-251.5 81.5q-191 0 -311 -135l-324 121q100 153 267 239t368 86zM819 285q134 0 239.5 72t155.5 196h-788
q47 -123 153.5 -195.5t239.5 -72.5z" />
    <glyph glyph-name="uni04D9" unicode="&#x4d9;" horiz-adv-x="1220" 
d="M51 643h793q-29 85 -100 135.5t-164 50.5q-128 0 -207 -94l-297 68q72 134 207.5 211.5t300.5 77.5q249 0 417 -160q166 -159 166 -400q0 -238 -161 -399q-165 -160 -404 -160q-236 0 -401 160q-162 162 -162 399q0 58 12 111zM842 416h-490q29 -82 96.5 -131t153.5 -49
q81 0 146 49t94 131z" />
    <glyph glyph-name="Wgrave" unicode="&#x1e80;" horiz-adv-x="2052" 
d="M760 0h-266l-482 1434h332l279 -912l270 912h266l273 -912l276 912h332l-479 -1434h-269l-266 866zM788 1980l433 -272l-97 -166l-467 199z" />
    <glyph glyph-name="wgrave" unicode="&#x1e81;" horiz-adv-x="1591" 
d="M348 0l-336 1065h310l165 -592l166 592h283l168 -592l166 592h309l-338 -1065h-278l-166 561l-168 -561h-281zM559 1632l432 -272l-96 -166l-467 199z" />
    <glyph glyph-name="Wacute" unicode="&#x1e82;" horiz-adv-x="2052" 
d="M760 0h-266l-482 1434h332l279 -912l270 912h266l273 -912l276 912h332l-479 -1434h-269l-266 866zM1386 1741l-466 -199l-97 166l432 272z" />
    <glyph glyph-name="wacute" unicode="&#x1e83;" horiz-adv-x="1591" 
d="M629 0h-281l-336 1065h310l165 -592l166 592h283l168 -592l166 592h309l-338 -1065h-278l-166 561zM1157 1393l-467 -199l-96 166l432 272z" />
    <glyph glyph-name="Wdieresis" unicode="&#x1e84;" horiz-adv-x="2052" 
d="M760 0h-266l-482 1434h332l279 -912l270 912h266l273 -912l276 912h332l-479 -1434h-269l-266 866zM692 1808q47 47 117.5 47t114.5 -47q47 -44 47 -114t-47 -117q-44 -44 -114.5 -44t-117.5 44q-44 47 -44 117t44 114zM1083 1708q3 24 11 47q40 100 149 100
q69 0 116.5 -46t47.5 -115t-47.5 -115.5t-116.5 -46.5q-73 0 -116.5 49.5t-43.5 126.5z" />
    <glyph glyph-name="wdieresis" unicode="&#x1e85;" horiz-adv-x="1591" 
d="M348 0l-336 1065h310l165 -592l166 592h283l168 -592l166 592h309l-338 -1065h-278l-33 106l-19 70l-114 385l-168 -561h-281zM463 1460q47 47 117 47t114 -47q47 -44 47 -114t-47 -117q-44 -44 -114 -44t-117 44q-47 47 -47 117t47 114zM1014 1507q69 0 116.5 -46
t47.5 -115t-47.5 -115.5t-116.5 -46.5q-68 0 -115 46.5t-47 115.5t47 115t115 46z" />
    <glyph glyph-name="Germandbls" unicode="&#x1e9e;" horiz-adv-x="1349" 
d="M410 877v-877h-314v883q0 237 164 393q169 158 414 158h575v-211l-188 -328q103 -41 168 -156q67 -113 67 -247q0 -221 -188 -371q-189 -148 -467 -148v312q137 0 229 59q93 63 93 152q0 92 -99 153q-100 62 -243 62l245 424h-176q-121 0 -201 -74q-79 -73 -79 -184z" />
    <glyph glyph-name="Ygrave" unicode="&#x1ef2;" horiz-adv-x="1429" 
d="M549 590l-537 844h373l326 -541l336 541h370l-545 -838v-596h-323v590zM909 1708l-94 -166l-467 199l129 239z" />
    <glyph glyph-name="ygrave" unicode="&#x1ef3;" horiz-adv-x="1130" 
d="M416 8l-404 1057h318l231 -657l240 657h317l-452 -1176q-73 -184 -195 -267t-319 -83h-37v293h39q197 0 256 160zM664 1194l-467 199l131 239l432 -272z" />
    <glyph glyph-name="figuredash" unicode="&#x2012;" horiz-adv-x="1228" 
d="M113 582v272h1003v-272h-1003z" />
    <glyph glyph-name="endash" unicode="&#x2013;" horiz-adv-x="1228" 
d="M113 397v273h1003v-273h-1003z" />
    <glyph glyph-name="emdash" unicode="&#x2014;" horiz-adv-x="2048" 
d="M113 397v273h1822v-273h-1822z" />
    <glyph glyph-name="quoteleft" unicode="&#x2018;" horiz-adv-x="481" 
d="M59 1206q0 33 7 65.5t18.5 59.5t27.5 53.5t33.5 47.5t36.5 41t36.5 35t34.5 28t28.5 20.5t20.5 13.5l9 5l90 -90q-118 -109 -118 -164q60 -10 98.5 -59.5t38.5 -112.5q0 -72 -48.5 -120t-121.5 -48q-84 0 -137.5 64t-53.5 161z" />
    <glyph glyph-name="quoteright" unicode="&#x2019;" horiz-adv-x="481" 
d="M420 1339q0 -203 -250 -370l-90 92q119 107 119 164q-60 10 -100 59.5t-40 112.5q0 72 49 119t123 47q83 0 136 -64.5t53 -159.5z" />
    <glyph glyph-name="quotesinglbase" unicode="&#x201a;" horiz-adv-x="481" 
d="M420 92q0 -204 -250 -371l-90 93q119 107 119 163q-60 10 -100 60t-40 113q0 72 49 118.5t123 46.5q84 0 136.5 -62.5t52.5 -160.5z" />
    <glyph glyph-name="quotereversed" unicode="&#x201b;" horiz-adv-x="481" 
d="M59 1343q0 95 53.5 157.5t137.5 62.5q74 0 122 -47t48 -119q0 -63 -38.5 -112.5t-98.5 -59.5q0 -22 28 -59t62 -66l28 -27l-90 -92l-8 6q-22 9 -59 38t-80.5 74t-74 111t-30.5 133z" />
    <glyph glyph-name="quotedblleft" unicode="&#x201c;" horiz-adv-x="888" 
d="M469 1206q0 202 250 369l90 -90q-119 -110 -119 -164q60 -10 99.5 -59.5t39.5 -112.5q0 -72 -49 -120t-123 -48q-84 0 -136 63.5t-52 161.5zM59 1206q0 33 7 65.5t18.5 59.5t27.5 53.5t33.5 47.5t36.5 41t36.5 35t34.5 28t28.5 20.5t20.5 13.5l9 5l90 -90
q-118 -109 -118 -164q60 -10 98.5 -59.5t38.5 -112.5q0 -72 -48.5 -120t-121.5 -48q-84 0 -137.5 64t-53.5 161z" />
    <glyph glyph-name="quotedblright" unicode="&#x201d;" horiz-adv-x="888" 
d="M420 1339q0 -203 -250 -370l-90 92q119 107 119 164q-60 10 -100 59.5t-40 112.5q0 72 49 119t123 47q83 0 136 -64.5t53 -159.5zM829 1339q0 -64 -26 -125.5t-59.5 -102t-74 -75.5t-61.5 -49t-30 -18l-91 92q119 107 119 164q-60 10 -98.5 59.5t-38.5 112.5q0 72 48 119
t122 47q84 0 137 -64.5t53 -159.5z" />
    <glyph glyph-name="quotedblbase" unicode="&#x201e;" horiz-adv-x="888" 
d="M420 92q0 -204 -250 -371l-90 93q119 107 119 163q-60 10 -100 60t-40 113q0 72 49 118.5t123 46.5q84 0 136.5 -62.5t52.5 -160.5zM829 92q0 -64 -26 -125.5t-59.5 -102.5t-74 -76t-61.5 -49t-30 -18l-91 93q119 107 119 163q-60 10 -98.5 59.5t-38.5 113.5
q0 72 48 118.5t122 46.5q84 0 137 -63t53 -160z" />
    <glyph glyph-name="uni201F" unicode="&#x201f;" horiz-adv-x="888" 
d="M469 1343q0 95 52 157.5t136 62.5q74 0 123 -47t49 -119q0 -63 -39.5 -112.5t-99.5 -59.5q0 -22 27.5 -58.5t60.5 -66.5l31 -27l-90 -92l-14 10q-23 14 -47 32t-60 52.5t-63 71.5t-46.5 89.5t-19.5 106.5zM59 1343q0 95 53.5 157.5t137.5 62.5q74 0 122 -47t48 -119
q0 -63 -38.5 -112.5t-98.5 -59.5q0 -22 28 -59t62 -66l28 -27l-90 -92l-8 6q-22 9 -59 38t-80.5 74t-74 111t-30.5 133z" />
    <glyph glyph-name="dagger" unicode="&#x2020;" horiz-adv-x="942" 
d="M33 819v221h321v394h234v-394h321v-221h-321v-1024h-234v1024h-321z" />
    <glyph glyph-name="daggerdbl" unicode="&#x2021;" horiz-adv-x="942" 
d="M354 188h-321v222h321v409h-321v221h321v394h234v-394h321v-221h-321v-409h321v-222h-321v-393h-234v393z" />
    <glyph glyph-name="bullet" unicode="&#x2022;" horiz-adv-x="780" 
d="M152 293q-95 95 -95 239q0 143 95 238q96 96 237 96q142 0 238 -96t96 -238q0 -143 -96 -239q-94 -94 -238 -94q-143 0 -237 94z" />
    <glyph glyph-name="ellipsis" unicode="&#x2026;" horiz-adv-x="1382" 
d="M229 322q75 0 126 -50t51 -125t-51 -124.5t-126 -49.5q-74 0 -123 49.5t-49 124.5t49 125t123 50zM692 322q74 0 124 -50t50 -125t-50 -124.5t-124 -49.5q-75 0 -124.5 49.5t-49.5 124.5t49.5 125t124.5 50zM1153 322q74 0 124 -50t50 -125t-50 -124.5t-124 -49.5
q-75 0 -124.5 49.5t-49.5 124.5t49.5 125t124.5 50z" />
    <glyph glyph-name="perthousand" unicode="&#x2030;" horiz-adv-x="2582" 
d="M422 0l-160 133l1094 1301l162 -134zM53 1083q0 162 107 269q108 108 268 108q158 0 266 -108q109 -109 109 -269q0 -165 -107 -272q-106 -106 -268 -106q-160 0 -268 108q-107 107 -107 270zM338 1174q-37 -37 -37 -90.5t37 -90.5t90 -37t90 37t37 90.5t-37 90.5t-90 37
t-90 -37zM1073 80q-106 106 -106 270q0 165 106 271q108 108 268 108q159 0 267 -108q106 -106 106 -271q0 -164 -106 -270q-107 -107 -267 -107q-161 0 -268 107zM1341 223q51 0 89 38t38 89q3 40 -20.5 72.5t-57.5 47t-73.5 8t-65.5 -37.5q-29 -26 -35 -65t8 -73.5
t45.5 -58t71.5 -20.5zM1888 80q-106 106 -106 270q0 165 106 271q108 108 269 108q158 0 266 -108q106 -106 106 -271q0 -164 -106 -270q-107 -107 -266 -107q-162 0 -269 107zM2157 223q51 0 89 38t38 89q2 40 -21.5 72.5t-57.5 47t-74 8t-67 -37.5q-30 -26 -35.5 -65
t9 -73.5t47 -58t72.5 -20.5z" />
    <glyph glyph-name="guilsinglleft" unicode="&#x2039;" horiz-adv-x="698" 
d="M459 123l-408 409l408 410l174 -174l-236 -236l236 -235z" />
    <glyph glyph-name="guilsinglright" unicode="&#x203a;" horiz-adv-x="698" 
d="M240 942l409 -410l-409 -409l-174 174l235 235l-235 236z" />
    <glyph glyph-name="fraction" unicode="&#x2044;" horiz-adv-x="1257" 
d="M248 0h-248l1008 1434h249z" />
    <glyph glyph-name="Euro" unicode="&#x20ac;" horiz-adv-x="1665" 
d="M180 780h-147v203h192q79 213 271 346q189 131 436 131q229 0 407 -112q184 -113 275 -299l-318 -117q-51 100 -148.5 158.5t-215.5 58.5q-212 0 -332 -166h385v-203h-465q-4 -54 -4 -63q0 -8 4 -62h465v-202h-387q119 -168 334 -168q118 0 215.5 58.5t148.5 158.5
l318 -117q-90 -185 -275 -301q-181 -111 -407 -111q-249 0 -438 131q-192 133 -271 349h-190v202h147q-2 14 -2 62q0 49 2 63z" />
    <glyph glyph-name="uni20B4" unicode="&#x20b4;" horiz-adv-x="1302" 
d="M487 772h-424v203h744q49 43 49 80q0 43 -51 74.5t-123 31.5q-71 0 -123.5 -32t-66.5 -80l-322 75q42 148 182 240q146 96 336 96q212 0 350 -108q142 -109 142 -256q0 -56 -27 -121h86v-203h-299q-43 -32 -158 -94h457v-205h-754q-47 -41 -47 -82q0 -49 61.5 -84
t149.5 -35q97 0 166.5 41.5t83.5 104.5l326 -78q-46 -161 -203 -264q-158 -103 -373 -103q-232 0 -385 111q-151 115 -151 274q0 62 24 115h-74v205h275q45 36 149 94z" />
    <glyph glyph-name="uni2113" unicode="&#x2113;" horiz-adv-x="1028" 
d="M221 375l-147 -64v287q67 25 147 70v483q0 179 98 295q99 117 248 117q148 0 250 -117q101 -113 101 -287q0 -338 -426 -629v-206q0 -78 79 -78q46 0 94 30.5t76 67.5l25 31l166 -164q-13 -23 -68 -82q-39 -39 -80 -74q-45 -34 -109.5 -58t-123.5 -24q-141 0 -236 103
q-94 104 -94 260v39zM492 1157v-303q155 146 155 295q0 62 -22.5 101.5t-57.5 39.5q-32 0 -53.5 -38t-21.5 -95z" />
    <glyph glyph-name="uni2116" unicode="&#x2116;" horiz-adv-x="2328" 
d="M410 874v-874h-314v1434h289l682 -879v879h313v-1434h-288zM1862 705q-159 0 -267 108q-106 106 -106 270q0 163 106 269q108 108 267 108q158 0 266 -108t108 -269q0 -166 -106 -272t-268 -106zM2208 356h-692v250h692v-250zM1772 1174q-37 -37 -37 -90.5t37 -90.5
t90 -37t90 37t37 90.5t-37 90.5t-90 37t-90 -37z" />
    <glyph glyph-name="uni2117" unicode="&#x2117;" horiz-adv-x="1603" 
d="M803 1452q304 0 518 -217q215 -215 215 -518q0 -302 -215 -520q-215 -215 -518 -215q-305 0 -520 215t-215 520t215 520t520 215zM803 98q251 0 434 183q182 182 182 436t-182 436t-434 182q-256 0 -438 -182q-181 -181 -181 -436q0 -257 181 -438t438 -181zM727 319
h-190v795h362q127 0 211 -78q86 -77 86 -196q0 -115 -86 -195q-87 -78 -211 -78h-172v-248zM899 940h-172v-197h172q41 0 68.5 28t27.5 69q0 43 -27.5 71.5t-68.5 28.5z" />
    <glyph glyph-name="trademark" unicode="&#x2122;" horiz-adv-x="1533" 
d="M854 717h-164v717h164l238 -420l237 420h164v-717h-164v409l-182 -333h-111l-182 331v-407zM231 1278h-215v156h600v-156h-217v-561h-168v561z" />
    <glyph glyph-name="estimated" unicode="&#x212e;" horiz-adv-x="1595" 
d="M1530 717h-1135v-508q179 -141 404 -141q182 0 335 93t240 255h90q-89 -197 -270 -314q-180 -116 -395 -116q-300 0 -516 213q-215 215 -215 518t213 516q215 215 518 215q304 0 516 -215q215 -212 215 -516zM395 1225v-426h807v426q-179 141 -403 141q-225 0 -404 -141z
" />
    <glyph glyph-name="uni2150" unicode="&#x2150;" horiz-adv-x="1736" 
d="M414 0h-256l1007 1434h254zM1141 788h571v-178l-280 -610h-209l290 621h-372v167zM227 1223l-129 -60l-67 156l248 115h131v-789h-183v578z" />
    <glyph glyph-name="uni2151" unicode="&#x2151;" horiz-adv-x="1705" 
d="M1067 147l162 76q37 -55 121 -55q61 0 99 27.5t38 70.5v66q-38 -62 -135 -62q-117 0 -199 76q-84 78 -84 191q0 112 86 186q88 76 215 76q130 0 215 -76q88 -73 88 -184v-269q0 -117 -92 -200q-89 -80 -225 -80q-98 0 -176 42.5t-113 114.5zM414 0h-256l1007 1434h254z
M98 1163l-67 156l248 115h131v-789h-183v578zM1370 621q-33 0 -60 -16t-39 -38.5t-7 -49t30 -46.5q34 -24 77 -25t78.5 25t31.5 64q0 37 -31 61.5t-80 24.5z" />
    <glyph glyph-name="uni2152" unicode="&#x2152;" horiz-adv-x="2267" 
d="M1612 276v236q0 123 88 205t223 82q133 0 221 -82q90 -84 90 -205v-236q0 -120 -90 -204q-88 -82 -221 -82q-135 0 -223 82t-88 204zM414 0h-256l1007 1434h254zM1174 518l-68 156l248 114h131v-788h-182v578zM98 1163l-67 156l248 115h131v-789h-183v578zM1798 514v-240
q0 -45 35.5 -75.5t89.5 -30.5t90.5 31t36.5 75v240q0 45 -36.5 76t-90.5 31q-53 0 -89 -31t-36 -76z" />
    <glyph glyph-name="onethird" unicode="&#x2153;" horiz-adv-x="1716" 
d="M1419 1434l-1005 -1434h-256l1007 1434h254zM1378 -10q-109 0 -191 53.5t-112 142.5l172 62q6 -35 40 -57.5t83 -22.5q51 0 85 24.5t34 59.5t-33.5 58.5t-81.5 23.5h-61v137h39q49 0 82.5 22t33.5 54q0 31 -29.5 52.5t-76.5 21.5q-89 0 -117 -60l-164 53q36 83 115 134
t180 51q119 0 203 -72q82 -70 82 -178q0 -86 -84 -139q104 -52 104 -164t-88 -185q-86 -71 -215 -71zM98 1163l-67 156l248 115h131v-789h-183v578z" />
    <glyph glyph-name="twothirds" unicode="&#x2154;" horiz-adv-x="1867" 
d="M414 1190q0 32 -28 54t-67 22q-86 0 -129 -101l-170 84q41 91 121 143t178 52q122 0 205 -74q84 -72 84 -172q0 -124 -174 -276l-106 -101h284v-176h-569v135l281 262q90 84 90 148zM565 0h-256l1008 1434h254zM1618 547q0 31 -29.5 52.5t-75.5 21.5q-88 0 -116 -60
l-164 53q36 84 114 134.5t179 50.5q119 0 203 -72q83 -71 83 -178q0 -86 -86 -139q107 -52 107 -164t-88 -185q-86 -71 -215 -71q-109 0 -191.5 53.5t-113.5 142.5l174 62q6 -35 40 -57.5t83 -22.5q51 0 84.5 24.5t33.5 59.5t-33 58.5t-83 23.5h-60v137h39q49 0 82 22t33 54
z" />
    <glyph glyph-name="uni2155" unicode="&#x2155;" horiz-adv-x="1724" 
d="M1419 1434l-1005 -1434h-256l1007 1434h254zM1073 211l187 49q35 -92 124 -92q50 0 82.5 26.5t32.5 67.5q0 44 -38.5 73.5t-98.5 29.5h-227l43 423h442v-167h-291l-10 -89h92q119 0 199 -77q82 -76 82 -191q0 -117 -88 -196q-90 -78 -218 -78q-112 0 -197 61t-116 160z
M98 1163l-67 156l248 115h131v-789h-183v578z" />
    <glyph glyph-name="uni2156" unicode="&#x2156;" horiz-adv-x="1875" 
d="M414 1190q0 32 -28 54t-67 22q-86 0 -129 -101l-170 84q41 91 121 143t178 52q122 0 205 -74q84 -72 84 -172q0 -124 -174 -276l-106 -101h284v-176h-569v135l281 262q90 84 90 148zM565 0h-256l1008 1434h254zM1843 264q0 -117 -88 -196q-90 -78 -217 -78
q-112 0 -197 61t-116 160l186 49q35 -92 125 -92q50 0 82.5 26.5t32.5 67.5q0 44 -40 73.5t-100 29.5h-225l43 423h443v-167h-291l-11 -89h93q118 0 198 -77q82 -76 82 -191z" />
    <glyph glyph-name="uni2157" unicode="&#x2157;" horiz-adv-x="1918" 
d="M418 1192q0 31 -30 52.5t-77 21.5q-86 0 -114 -60l-164 54q36 83 114 133.5t179 50.5q118 0 202 -72q82 -70 82 -178q0 -86 -84 -139q107 -52 107 -164q0 -111 -88 -184q-87 -72 -217 -72q-109 0 -190.5 53.5t-112.5 142.5l172 62q8 -36 42 -58t83 -22q50 0 83 24t33 60
q0 35 -32.5 58.5t-81.5 23.5h-60v137h39q49 0 82 22t33 54zM608 0h-256l1008 1434h254zM1886 264q0 -117 -88 -196q-90 -78 -217 -78q-112 0 -197 61t-116 160l186 49q35 -92 125 -92q50 0 82.5 26.5t32.5 67.5q0 44 -39 73.5t-99 29.5h-227l43 423h443v-167h-291l-11 -89
h93q118 0 198 -77q82 -76 82 -191z" />
    <glyph glyph-name="uni2158" unicode="&#x2158;" horiz-adv-x="1937" 
d="M627 0h-256l1007 1434h254zM1286 211l187 49q35 -92 124 -92q50 0 82.5 26.5t32.5 67.5q0 44 -39.5 73.5t-99.5 29.5h-225l43 423h442v-167h-291l-10 -89h92q119 0 199 -77q82 -76 82 -191q0 -117 -88 -196q-90 -78 -218 -78q-112 0 -197 61t-116 160zM31 786v179
l393 469h176v-471h88v-177h-88v-141h-184v141h-385zM416 1161l-166 -198h166v198z" />
    <glyph glyph-name="uni2159" unicode="&#x2159;" horiz-adv-x="1705" 
d="M1071 250v270q0 120 88 199q89 80 221 80q96 0 173.5 -45t113.5 -119l-166 -80q-38 66 -117 66q-55 0 -92 -28.5t-37 -70.5v-65q49 55 140 55q118 0 200 -76q84 -78 84 -186q0 -110 -86 -187q-85 -73 -217 -73q-131 0 -219 73q-86 77 -86 187zM1419 1434l-1005 -1434
h-256l1007 1434h254zM227 1223l-129 -60l-67 156l248 115h131v-789h-183v578zM1376 334q-49 0 -80.5 -23.5t-31.5 -58.5q0 -36 31.5 -60t80.5 -24q48 0 79.5 23.5t31.5 60.5q0 35 -32 58.5t-79 23.5z" />
    <glyph glyph-name="uni215A" unicode="&#x215a;" horiz-adv-x="1851" 
d="M1522 334q-49 0 -80 -23t-31 -59t31 -60t80 -24q47 0 78.5 23.5t31.5 60.5q0 35 -31.5 58.5t-78.5 23.5zM1812 635l-165 -80q-35 66 -117 66q-55 0 -91 -28.5t-36 -70.5v-65q46 55 139 55q117 0 199 -76q84 -78 84 -186q0 -110 -86 -187q-85 -73 -217 -73q-129 0 -217 73
q-88 76 -88 187v270q0 120 88 199q89 80 223 80q96 0 171.5 -44t112.5 -120zM641 909q0 -118 -87 -196t-218 -78q-111 0 -195.5 61t-115.5 160l184 49q35 -92 125 -92q50 0 82.5 26.5t32.5 67.5q0 44 -39 73.5t-99 29.5h-225l41 424h444v-168h-292l-11 -88h94q118 0 199 -78
q80 -77 80 -191zM1567 1434l-1008 -1434h-254l1006 1434h256z" />
    <glyph glyph-name="oneeighth" unicode="&#x215b;" horiz-adv-x="1712" 
d="M1067 231q0 111 98 181q-80 68 -80 159q0 98 82 162q84 66 205 66q123 0 207 -66q82 -64 82 -162q0 -97 -82 -161q100 -69 100 -183q0 -103 -88 -170t-219 -67q-132 0 -219 69q-86 71 -86 172zM414 0h-256l1007 1434h254zM227 1223l-129 -60l-67 156l248 115h131v-789
h-183v578zM1260 246q-6 -48 53 -68t118.5 0t53.5 68q6 46 -53.5 65.5t-118.5 0t-53 -65.5zM1468 557q4 39 -46 55.5t-99.5 0t-44.5 -55.5q-5 -40 44.5 -57t99.5 0t46 57z" />
    <glyph glyph-name="threeeighths" unicode="&#x215c;" horiz-adv-x="1904" 
d="M1262 231q0 111 98 181q-80 68 -80 159q0 98 82 162q84 66 205 66t205 -66q83 -65 83 -162q0 -98 -81 -161q98 -70 98 -183q0 -103 -88 -170q-85 -67 -217 -67t-219 69q-86 71 -86 172zM1614 1434l-1006 -1434h-256l1008 1434h254zM328 635q-109 0 -190.5 53.5
t-112.5 142.5l172 62q8 -36 42 -58t83 -22q50 0 83 24t33 60q0 35 -32.5 58.5t-81.5 23.5h-60v137h39q49 0 82 22t33 54q0 31 -30 52.5t-77 21.5q-86 0 -114 -60l-164 54q36 83 114 133.5t179 50.5q118 0 202 -72q82 -70 82 -178q0 -86 -84 -139q107 -52 107 -164
q0 -111 -88 -184q-87 -72 -217 -72zM1454 246q0 -35 31 -56.5t82 -21.5q50 0 81 21.5t31 56.5q6 46 -53.5 65.5t-118.5 0t-53 -65.5zM1663 557q4 39 -46 55.5t-99.5 0t-44.5 -55.5q-5 -40 44.5 -57t99.5 0t46 57z" />
    <glyph glyph-name="fiveeighths" unicode="&#x215d;" horiz-adv-x="1857" 
d="M1407 246q0 -35 30.5 -56.5t80.5 -21.5q51 0 82.5 21.5t31.5 56.5q0 33 -32 54.5t-82 21.5q-49 0 -80 -21.5t-31 -54.5zM1423 557q0 -29 28 -47t67 -18q59 -3 83.5 31t0 68t-83.5 30q-41 0 -68 -18.5t-27 -45.5zM1518 799q122 0 206 -66q82 -64 82 -162q0 -100 -82 -161
q101 -70 101 -183q0 -103 -88 -170t-219 -67q-134 0 -218 69q-86 71 -86 172q0 109 99 179q-82 64 -82 161q0 98 82 162q84 66 205 66zM641 909q0 -118 -87 -196t-218 -78q-111 0 -195.5 61t-115.5 160l184 49q35 -92 125 -92q50 0 82.5 26.5t32.5 67.5q0 44 -39 73.5
t-99 29.5h-225l41 424h444v-168h-292l-11 -88h94q118 0 199 -78q80 -77 80 -191zM1567 1434l-1008 -1434h-254l1006 1434h256z" />
    <glyph glyph-name="seveneighths" unicode="&#x215e;" horiz-adv-x="1779" 
d="M1327 246q-6 -48 53.5 -68t118.5 0t53 68q6 46 -53 65.5t-118.5 0t-53.5 -65.5zM1536 557q4 39 -46 55.5t-99.5 0t-44.5 -55.5q-5 -40 44.5 -57t99.5 0t46 57zM1440 799q123 0 207 -66q82 -64 82 -162q0 -100 -82 -161q100 -72 100 -183q0 -103 -88 -170t-219 -67
q-132 0 -219 69q-86 71 -86 172q0 113 100 179q-82 64 -82 161q0 98 82 162q84 66 205 66zM102 645l291 621h-375v168h574v-179l-283 -610h-207zM1487 1434l-1006 -1434h-256l1008 1434h254z" />
    <glyph glyph-name="uni215F" unicode="&#x215f;" horiz-adv-x="1419" 
d="M1419 1434l-1005 -1434h-256l1007 1434h254zM227 1223l-129 -60l-67 156l248 115h131v-789h-183v578z" />
    <glyph glyph-name="arrowleft" unicode="&#x2190;" horiz-adv-x="1474" 
d="M694 135l-581 582l581 581l178 -180l-254 -264h744v-274h-741l251 -265z" />
    <glyph glyph-name="arrowup" unicode="&#x2191;" horiz-adv-x="1474" 
d="M156 760l581 581l582 -581l-180 -178l-267 254v-744h-272v742l-264 -252z" />
    <glyph glyph-name="arrowright" unicode="&#x2192;" horiz-adv-x="1474" 
d="M780 1298l582 -581l-582 -582l-178 180l254 267h-743v272h741l-252 264z" />
    <glyph glyph-name="arrowdown" unicode="&#x2193;" horiz-adv-x="1474" 
d="M1319 674l-582 -582l-581 582l180 178l264 -252v741h272v-743l267 254z" />
    <glyph glyph-name="uni2196" unicode="&#x2196;" horiz-adv-x="1474" 
d="M295 336v823h821v-254l-366 -8l526 -526l-195 -193l-524 524l-8 -366h-254z" />
    <glyph glyph-name="uni2197" unicode="&#x2197;" horiz-adv-x="1474" 
d="M453 1159h823v-823h-254l-8 366l-525 -524l-194 193l526 526l-368 8v254z" />
    <glyph glyph-name="uni2198" unicode="&#x2198;" horiz-adv-x="1474" 
d="M1276 999v-821h-823v254l368 8l-526 525l194 194l525 -524l8 364h254z" />
    <glyph glyph-name="uni2199" unicode="&#x2199;" horiz-adv-x="1474" 
d="M1116 178h-821v821h254l8 -364l524 524l195 -194l-526 -525l366 -8v-254z" />
    <glyph glyph-name="emptyset" unicode="&#x2205;" horiz-adv-x="1619" 
d="M811 1460q179 0 336 -80l57 80h256l-141 -203q235 -216 235 -540q0 -308 -219 -527q-217 -217 -524 -217q-178 0 -338 80l-55 -80h-254l139 199q-235 223 -235 545q0 307 217 524q219 219 526 219zM440 369l570 815q-96 41 -199 41q-210 0 -360 -150q-150 -147 -150 -358
q0 -197 139 -348zM811 209q208 0 358 147q150 150 150 361q0 203 -137 346l-570 -813q96 -41 199 -41z" />
    <glyph glyph-name="product" unicode="&#x220f;" horiz-adv-x="1316" 
d="M408 1143v-1501h-312v1792h1125v-1792h-312v1501h-501z" />
    <glyph glyph-name="summation" unicode="&#x2211;" horiz-adv-x="1044" 
d="M983 -68v-290h-922v241l385 654l-385 655v242h922v-291h-559l362 -606l-360 -605h557z" />
    <glyph glyph-name="minus" unicode="&#x2212;" horiz-adv-x="1228" 
d="M113 582v272h1003v-272h-1003z" />
    <glyph glyph-name="integral" unicode="&#x222b;" horiz-adv-x="706" 
d="M20 -358v284h64q49 0 83 32t34 77v1149q0 150 112 250q114 102 281 102h92v-285h-63q-49 0 -83 -31.5t-34 -76.5v-1149q0 -149 -113 -250q-114 -102 -280 -102h-93z" />
    <glyph glyph-name="approxequal" unicode="&#x2248;" horiz-adv-x="1228" 
d="M780 741q-61 0 -127.5 30.5t-118 60.5t-75.5 30q-37 0 -63.5 -31t-26.5 -75h-256q0 156 98 260t238 104q89 0 190 -61q103 -62 131 -62q37 0 62.5 31.5t25.5 75.5h258q0 -154 -98 -258q-99 -105 -238 -105zM780 317q-61 0 -127.5 30.5t-118 60.5t-75.5 30
q-37 0 -63.5 -31t-26.5 -75h-256q0 154 98 258t238 104q89 0 190 -61q105 -60 131 -60q37 0 62.5 30.5t25.5 74.5h258q0 -153 -100 -256q-99 -105 -236 -105z" />
    <glyph glyph-name="notequal" unicode="&#x2260;" horiz-adv-x="1228" 
d="M795 817l-93 -201h414v-272h-541l-108 -231h-260l108 231h-202v272h329l93 201h-422v275h551l106 229h260l-106 -229h192v-275h-321z" />
    <glyph glyph-name="lessequal" unicode="&#x2264;" horiz-adv-x="1228" 
d="M1116 381l-1003 385v248l1003 391v-287l-590 -227l590 -225v-285zM113 39v266h1003v-266h-1003z" />
    <glyph glyph-name="greaterequal" unicode="&#x2265;" horiz-adv-x="1228" 
d="M1116 1014v-248l-1003 -385v285l589 225l-589 227v287zM113 305h1003v-266h-1003v266z" />
    <glyph glyph-name="uni23F4" unicode="&#x23f4;" horiz-adv-x="790" 
d="M606 272l-504 445l504 444v-889z" />
    <glyph glyph-name="uni23F5" unicode="&#x23f5;" horiz-adv-x="790" 
d="M184 1161l504 -444l-504 -445v889z" />
    <glyph glyph-name="uni23F6" unicode="&#x23f6;" horiz-adv-x="929" 
d="M20 465l445 504l444 -504h-889z" />
    <glyph glyph-name="uni23F7" unicode="&#x23f7;" horiz-adv-x="929" 
d="M909 969l-444 -504l-445 504h889z" />
    <glyph glyph-name="filledbox" unicode="&#x25a0;" horiz-adv-x="1626" 
d="M1530 0h-1434v1434h1434v-1434z" />
    <glyph glyph-name="H22073" unicode="&#x25a1;" horiz-adv-x="1626" 
d="M1530 0h-1434v1434h1434v-1434zM1294 236v962h-962v-962h962z" />
    <glyph glyph-name="uni25A2" unicode="&#x25a2;" horiz-adv-x="1626" 
d="M1530 0h-1434v1434h1434v-1434zM1294 236v962h-962v-962h962z" />
    <glyph glyph-name="triagup" unicode="&#x25b2;" horiz-adv-x="1826" 
d="M61 0l852 1475l852 -1475h-1704z" />
    <glyph glyph-name="uni25B3" unicode="&#x25b3;" horiz-adv-x="1826" 
d="M913 1475l852 -1475h-1704zM469 236h889l-445 768z" />
    <glyph glyph-name="triagdn" unicode="&#x25bc;" horiz-adv-x="1826" 
d="M1765 1434l-852 -1461l-852 1461h1704z" />
    <glyph glyph-name="uni25BD" unicode="&#x25bd;" horiz-adv-x="1826" 
d="M61 1434h1704l-852 -1475zM913 430l445 768h-889z" />
    <glyph glyph-name="uni25C6" unicode="&#x25c6;" horiz-adv-x="1638" 
d="M819 -41l-758 758l758 758l758 -758z" />
    <glyph glyph-name="uni25C7" unicode="&#x25c7;" horiz-adv-x="1638" 
d="M819 -41l-758 758l758 758l758 -758zM819 291l426 426l-426 426l-426 -426z" />
    <glyph glyph-name="lozenge" unicode="&#x25ca;" horiz-adv-x="1107" 
d="M61 717l414 717h158l414 -717l-414 -717h-158zM553 336l221 381l-221 381l-219 -381z" />
    <glyph glyph-name="circle" unicode="&#x25cb;" horiz-adv-x="1619" 
d="M68 717q0 307 217 524q219 219 526 219q305 0 524 -219t219 -524q0 -308 -219 -527q-217 -217 -524 -217q-309 0 -526 217t-217 527zM811 209q208 0 358 147q150 150 150 361t-150 358q-150 150 -358 150q-210 0 -360 -150q-150 -147 -150 -358t150 -361
q150 -147 360 -147z" />
    <glyph glyph-name="H18533" unicode="&#x25cf;" horiz-adv-x="1619" 
d="M68 717q0 307 217 524q219 219 526 219q305 0 524 -219t219 -524q0 -308 -219 -527q-217 -217 -524 -217q-309 0 -526 217t-217 527z" />
    <glyph glyph-name="uni25D0" unicode="&#x25d0;" horiz-adv-x="1619" 
d="M68 717q0 307 217 524q219 219 526 219q305 0 524 -219t219 -524q0 -308 -219 -527q-217 -217 -524 -217q-309 0 -526 217t-217 527zM811 1225v-1016q208 0 358 147q150 150 150 361t-150 358q-150 150 -358 150z" />
    <glyph glyph-name="uni25D1" unicode="&#x25d1;" horiz-adv-x="1619" 
d="M1554 717q0 -308 -219 -527q-217 -217 -524 -217q-309 0 -526 217t-217 527q0 307 217 524q219 219 526 219q305 0 524 -219t219 -524zM811 209v1016q-210 0 -360 -150q-150 -147 -150 -358t150 -361q150 -147 360 -147z" />
    <glyph glyph-name="uni25D2" unicode="&#x25d2;" horiz-adv-x="1619" 
d="M811 -27q-309 0 -526 217t-217 527q0 307 217 524q219 219 526 219t526 -219q217 -217 217 -524q0 -310 -217 -527t-526 -217zM301 717h1018q0 211 -150 358q-150 150 -358 150q-210 0 -360 -150q-150 -147 -150 -358z" />
    <glyph glyph-name="uni25D3" unicode="&#x25d3;" horiz-adv-x="1619" 
d="M811 1460q307 0 526 -219q217 -217 217 -524q0 -310 -217 -527t-526 -217t-526 217t-217 527q0 307 217 524q219 219 526 219zM1319 717h-1018q0 -211 150 -361q150 -147 360 -147q208 0 358 147q150 150 150 361z" />
    <glyph glyph-name="uni25D4" unicode="&#x25d4;" horiz-adv-x="1619" 
d="M68 717q0 307 217 524q219 219 526 219q305 0 524 -219t219 -524q0 -308 -219 -527q-217 -217 -524 -217q-309 0 -526 217t-217 527zM811 209q208 0 358 147q150 150 150 361h-508v508q-210 0 -360 -150q-150 -147 -150 -358t150 -361q150 -147 360 -147z" />
    <glyph glyph-name="uni25D5" unicode="&#x25d5;" horiz-adv-x="1619" 
d="M68 717q0 307 217 524q219 219 526 219q305 0 524 -219t219 -524q0 -308 -219 -527q-217 -217 -524 -217q-309 0 -526 217t-217 527zM301 717h510v508q-210 0 -360 -150q-150 -147 -150 -358z" />
    <glyph glyph-name="uni25D6" unicode="&#x25d6;" horiz-adv-x="907" 
d="M68 717q0 307 217 524q219 219 526 219v-1487q-309 0 -526 217t-217 527z" />
    <glyph glyph-name="uni25D7" unicode="&#x25d7;" horiz-adv-x="907" 
d="M840 717q0 -308 -219 -527q-217 -217 -525 -217v1487q306 0 525 -219t219 -524z" />
    <glyph glyph-name="uni25EF" unicode="&#x25ef;" horiz-adv-x="1619" 
d="M68 717q0 307 217 524q219 219 526 219q305 0 524 -219t219 -524q0 -308 -219 -527q-217 -217 -524 -217q-309 0 -526 217t-217 527zM811 209q208 0 358 147q150 150 150 361t-150 358q-150 150 -358 150q-210 0 -360 -150q-150 -147 -150 -358t150 -361
q150 -147 360 -147z" />
    <glyph glyph-name="uni2639" unicode="&#x2639;" horiz-adv-x="1617" 
d="M424 938q0 54 36.5 90.5t90.5 36.5q55 0 92 -36.5t37 -90.5q0 -56 -37 -92.5t-92 -36.5q-54 0 -90.5 37t-36.5 92zM942 938q0 54 36.5 90.5t90.5 36.5q55 0 92 -36.5t37 -90.5q0 -56 -37 -92.5t-92 -36.5q-54 0 -90.5 37t-36.5 92zM475 293h-82q0 161 119 268
q121 109 297 109q174 0 295 -109t121 -268h-82q0 125 -96 209t-238 84t-238 -84t-96 -209zM295 203q-213 213 -213 514t213 514t514 213t514 -213t213 -514t-213 -514t-514 -213t-514 213zM350 1176q-190 -190 -190 -459t190 -459t459 -190t459 190t190 459t-190 459
t-459 190t-459 -190z" />
    <glyph glyph-name="smileface" unicode="&#x263a;" horiz-adv-x="1617" 
d="M424 938q0 54 36.5 90.5t90.5 36.5q55 0 92 -36.5t37 -90.5q0 -56 -37 -92.5t-92 -36.5q-54 0 -90.5 37t-36.5 92zM942 938q0 54 36.5 90.5t90.5 36.5q55 0 92 -36.5t37 -90.5q0 -56 -37 -92.5t-92 -36.5q-54 0 -90.5 37t-36.5 92zM393 608h82q0 -125 96 -209t238 -84
t238 84t96 209h82q0 -161 -121 -270q-119 -107 -295 -107q-178 0 -297 107t-119 270zM295 203q-213 213 -213 514t213 514t514 213t514 -213t213 -514t-213 -514t-514 -213t-514 213zM350 1176q-190 -190 -190 -459t190 -459t459 -190t459 190t190 459t-190 459t-459 190
t-459 -190z" />
    <glyph glyph-name="invsmileface" unicode="&#x263b;" horiz-adv-x="1617" 
d="M424 938q0 -55 36.5 -92t90.5 -37q55 0 92 36.5t37 92.5q0 54 -37 90.5t-92 36.5q-54 0 -90.5 -36.5t-36.5 -90.5zM942 938q0 -55 36.5 -92t90.5 -37q55 0 92 36.5t37 92.5q0 54 -37 90.5t-92 36.5q-54 0 -90.5 -36.5t-36.5 -90.5zM475 608h-82q0 -163 119 -270t297 -107
q176 0 295 107q121 109 121 270h-82q0 -125 -96 -209t-238 -84t-238 84t-96 209zM295 203q-213 213 -213 514t213 514t514 213t514 -213t213 -514t-213 -514t-514 -213t-514 213z" />
    <glyph glyph-name="commaaccent" horiz-adv-x="466" 
d="M379 -266q0 -47 -19.5 -92.5t-44.5 -76t-58 -58.5t-50.5 -39.5t-30.5 -19.5l-2 -1l-70 74q94 73 97 112q-47 7 -80 48t-33 92q0 57 40 96t97 39q67 0 110.5 -49.5t43.5 -124.5z" />
    <glyph glyph-name="zero.fitted" horiz-adv-x="1228" 
d="M53 492v450q0 221 160 369q158 149 401 149q244 0 402 -149q162 -146 162 -369v-450q0 -222 -162 -371q-160 -148 -402 -148q-241 0 -401 148q-160 151 -160 371zM365 946v-459q0 -91 71.5 -153t177.5 -62t178 62t72 153v459q0 92 -72 153.5t-178 61.5t-177.5 -61.5
t-71.5 -153.5z" />
    <glyph glyph-name="one.fitted" horiz-adv-x="1228" 
d="M549 1065l-258 -121l-123 270l469 220h223v-1135h299v-299h-909v299h299v766z" />
    <glyph glyph-name="two.fitted" horiz-adv-x="1228" 
d="M795 1006q0 66 -56.5 110.5t-136.5 44.5q-81 0 -146 -50.5t-102 -139.5l-288 137q74 163 216.5 257.5t319.5 94.5q218 0 367 -131q149 -128 149 -313q0 -223 -311 -508l-223 -209h544v-299h-1026v233l514 484q179 170 179 289z" />
    <glyph glyph-name="three.fitted" horiz-adv-x="1228" 
d="M786 1016q0 62 -60 103.5t-153 41.5q-171 0 -223 -112l-280 118q67 133 203.5 213t310.5 80q228 0 377 -125t149 -313q0 -169 -141 -277q180 -113 180 -317q0 -192 -158 -326q-156 -129 -395 -129q-196 0 -344 95q-146 94 -199 249l297 103q17 -66 82.5 -107t157.5 -41
q103 0 169 47t66 119q0 71 -65.5 117.5t-163.5 46.5h-111v260h72q98 0 163.5 43.5t65.5 110.5z" />
    <glyph glyph-name="four.fitted" horiz-adv-x="1228" 
d="M737 0v262h-682v299l697 873h297v-873h170v-299h-170v-262h-312zM737 958l-315 -397h315v397z" />
    <glyph glyph-name="five.fitted" horiz-adv-x="1228" 
d="M610 -27q-201 0 -350 107t-207 282l314 84q31 -81 94.5 -127.5t148.5 -46.5q98 0 164 56.5t66 138.5q0 88 -77 147.5t-192 59.5h-407l78 760h794v-285h-538l-19 -188h139q233 0 390 -142t157 -352q0 -211 -159 -352q-157 -142 -396 -142z" />
    <glyph glyph-name="six.fitted" horiz-adv-x="1228" 
d="M1147 1171l-285 -137q-68 127 -227 127q-106 0 -177 -59.5t-71 -149.5v-88q107 64 254 64q222 0 377 -140q153 -138 153 -339t-157 -340q-157 -136 -389 -136q-238 0 -394 138q-155 137 -155 340v497q0 220 160 365q164 147 401 147q171 0 306.5 -77.5t203.5 -211.5z
M399 453q0 -78 64.5 -129.5t161.5 -51.5q94 0 158.5 50.5t64.5 123.5q0 78 -63.5 130.5t-159.5 52.5t-161 -51t-65 -125z" />
    <glyph glyph-name="seven.fitted" horiz-adv-x="1228" 
d="M793 1149h-695v285h1028v-301l-514 -1133h-344z" />
    <glyph glyph-name="eight.fitted" horiz-adv-x="1228" 
d="M616 -27q-240 0 -395 125t-155 312q0 206 190 335q-162 119 -162 304q0 172 150 292q149 119 372 119q222 0 371 -119q150 -120 150 -294q0 -185 -162 -304q190 -129 190 -335q0 -185 -157 -312q-156 -123 -392 -123zM616 272q96 0 160 46.5t64 115.5q0 72 -63.5 118
t-160.5 46q-98 0 -161.5 -46.5t-63.5 -115.5q0 -70 64 -117t161 -47zM616 885q85 0 140 39.5t55 99.5t-55 98.5t-140 38.5q-86 0 -141 -38.5t-55 -98.5t55 -99.5t141 -39.5z" />
    <glyph glyph-name="nine.fitted" horiz-adv-x="1228" 
d="M59 266l283 133q68 -127 238 -127q116 0 192 59.5t76 147.5v74q-94 -64 -248 -64q-220 0 -375 140q-151 142 -151 348q0 207 155 344q157 139 387 139q231 0 388 -139q155 -137 155 -344v-496q0 -218 -166 -362q-166 -146 -407 -146q-177 0 -318 79t-209 214zM399 979
q0 -82 61.5 -136.5t155.5 -54.5t157 53.5t63 133.5q0 79 -63 132.5t-157 53.5t-155.5 -52t-61.5 -130z" />
    <glyph glyph-name="zero.sup" horiz-adv-x="690" 
d="M33 1024v236q0 122 88 204t223 82t223 -82q90 -84 90 -204v-236q0 -121 -90 -205q-88 -82 -223 -82q-133 0 -221 82q-90 84 -90 205zM221 1262v-240q0 -45 35 -76t88 -31q54 0 90.5 31t36.5 76v240q0 44 -36.5 75t-90.5 31q-53 0 -88 -30.5t-35 -75.5z" />
    <glyph glyph-name="one.sup" horiz-adv-x="501" 
d="M227 1325l-129 -59l-67 155l248 115h131v-788h-183v577z" />
    <glyph glyph-name="two.sup" horiz-adv-x="653" 
d="M414 1292q0 32 -28 54t-67 22q-86 0 -129 -100l-170 84q41 91 121 142.5t178 51.5q123 0 205 -73q84 -72 84 -173q0 -124 -174 -276l-106 -100h284v-176h-569v135l281 262q90 84 90 147z" />
    <glyph glyph-name="three.sup" horiz-adv-x="665" 
d="M418 1294q0 31 -30 52.5t-77 21.5q-87 0 -114 -59l-164 53q36 83 114 133.5t179 50.5q119 0 202 -71q82 -70 82 -179q0 -86 -84 -139q107 -52 107 -164q0 -111 -88 -184q-87 -72 -217 -72q-109 0 -190.5 54t-112.5 143l172 61q8 -36 42 -58t83 -22q50 0 83 24t33 60
q0 35 -32.5 58.5t-81.5 23.5h-60v138h39q49 0 82 21.5t33 53.5z" />
    <glyph glyph-name="four.sup" horiz-adv-x="714" 
d="M416 748v141h-385v178l393 469h176v-471h88v-176h-88v-141h-184zM416 1264l-166 -199h166v199z" />
    <glyph glyph-name="five.sup" horiz-adv-x="673" 
d="M641 1012q0 -118 -87 -196.5t-218 -78.5q-111 0 -195.5 61t-115.5 160l184 50q35 -93 125 -93q50 0 82.5 27t32.5 68q0 44 -39 73t-99 29h-225l41 424h444v-168h-292l-11 -88h94q118 0 199 -78q80 -77 80 -190z" />
    <glyph glyph-name="six.sup" horiz-adv-x="671" 
d="M633 1382l-166 -79q-38 65 -119 65q-55 0 -91 -28t-36 -70v-66q50 56 139 56q117 0 201 -78t84 -185q0 -110 -88 -186q-86 -74 -217 -74q-128 0 -217 74q-86 77 -86 186v271q0 119 88 198q89 80 221 80q96 0 173 -44.5t114 -119.5zM340 1081q-47 0 -79 -23.5t-32 -58.5
t32 -59.5t79 -24.5q49 0 80 23.5t31 60.5q0 36 -31 59t-80 23z" />
    <glyph glyph-name="seven.sup" horiz-adv-x="616" 
d="M102 748l291 620h-375v168h574v-178l-283 -610h-207z" />
    <glyph glyph-name="eight.sup" horiz-adv-x="675" 
d="M33 979q0 110 98 180q-80 65 -80 160q0 98 82 162q83 65 205 65t205 -65q84 -66 84 -162q0 -98 -82 -162q98 -70 98 -182q0 -103 -88 -170q-86 -68 -217 -68t-219 70q-86 71 -86 172zM225 993q0 -35 31 -56.5t82 -21.5q50 0 81.5 21.5t31.5 56.5q6 46 -53.5 65.5t-119 0
t-53.5 -65.5zM434 1305q4 39 -46 55.5t-99.5 0t-44.5 -55.5q-5 -40 44.5 -57t99.5 0t46 57z" />
    <glyph glyph-name="nine.sup" horiz-adv-x="671" 
d="M31 895l164 76q38 -56 120 -56q61 0 99.5 28t38.5 71v65q-37 -61 -136 -61q-116 0 -198 76q-84 78 -84 190t86 186q88 76 215 76q130 0 215 -76q88 -73 88 -184v-268q0 -118 -92 -201q-89 -80 -225 -80q-97 0 -175.5 43t-115.5 115zM446 1282q0 37 -30.5 61.5t-79.5 24.5
q-34 0 -61.5 -15.5t-39.5 -38t-7 -49t30 -46.5q39 -24 81 -24.5t74.5 24.5t32.5 63z" />
    <glyph glyph-name="zero.sub" horiz-adv-x="690" 
d="M33 72v235q0 123 88 205t223 82t223 -82q90 -84 90 -205v-235q0 -121 -90 -205q-88 -82 -223 -82t-223 82t-88 205zM221 309v-239q0 -45 35 -76t88 -31q54 0 90.5 31t36.5 76v239q0 45 -36.5 76t-90.5 31q-53 0 -88 -31t-35 -76z" />
    <glyph glyph-name="one.sub" horiz-adv-x="501" 
d="M227 373l-129 -60l-67 156l248 115h131v-789h-183v578z" />
    <glyph glyph-name="two.sub" horiz-adv-x="653" 
d="M414 340q0 32 -28 54t-67 22q-86 0 -129 -101l-170 84q41 91 121 143t178 52q122 0 205 -74q84 -72 84 -172q0 -124 -174 -276l-106 -101h284v-176h-569v135l281 263q90 84 90 147z" />
    <glyph glyph-name="three.sub" horiz-adv-x="665" 
d="M418 342q0 31 -30 52.5t-77 21.5q-86 0 -114 -60l-164 54q36 83 114 133.5t179 50.5q118 0 202 -72q82 -70 82 -178q0 -86 -84 -139q107 -52 107 -164t-88 -182q-86 -74 -217 -74q-109 0 -190.5 54t-112.5 143l172 61q8 -36 42 -58t83 -22q50 0 83 24t33 60
q0 35 -32.5 58.5t-81.5 23.5h-60v137h39q49 0 82 22t33 54z" />
    <glyph glyph-name="four.sub" horiz-adv-x="714" 
d="M416 -205v142h-385v178l393 469h176v-471h88v-176h-88v-142h-184zM416 311l-166 -198h166v198z" />
    <glyph glyph-name="five.sub" horiz-adv-x="673" 
d="M641 59q0 -118 -87 -196t-218 -78q-111 0 -195.5 61t-115.5 160l184 49q35 -92 125 -92q50 0 82.5 26.5t32.5 67.5q0 44 -39 73.5t-99 29.5h-225l41 424h444v-168h-292l-11 -88h94q118 0 199 -78q80 -77 80 -191z" />
    <glyph glyph-name="six.sub" horiz-adv-x="671" 
d="M633 430l-166 -80q-38 66 -119 66q-55 0 -91 -28.5t-36 -70.5v-65q49 55 139 55q117 0 201 -78t84 -184q0 -111 -88 -184q-85 -76 -217 -76q-129 0 -217 76q-86 74 -86 184v270q0 120 88 199q89 80 221 80q96 0 173 -44.5t114 -119.5zM340 129q-47 0 -79 -23.5t-32 -58.5
q0 -37 31.5 -60.5t79.5 -23.5q49 0 80 23.5t31 60.5q0 36 -31 59t-80 23z" />
    <glyph glyph-name="seven.sub" horiz-adv-x="616" 
d="M102 -205l291 621h-375v168h574v-178l-283 -611h-207z" />
    <glyph glyph-name="eight.sub" horiz-adv-x="675" 
d="M33 27q0 110 98 180q-80 68 -80 160q0 97 82 161q84 66 205 66t205 -66t84 -161q0 -98 -82 -162q98 -70 98 -182q0 -103 -88 -170q-86 -68 -217 -68t-219 70q-86 71 -86 172zM225 41q0 -35 31 -56.5t82 -21.5q50 0 81.5 21.5t31.5 56.5q6 46 -53.5 65.5t-119 0
t-53.5 -65.5zM434 352q4 39 -46 55.5t-99.5 0t-44.5 -55.5q-5 -40 44.5 -57t99.5 0t46 57z" />
    <glyph glyph-name="nine.sub" horiz-adv-x="671" 
d="M31 -57l164 75q37 -55 120 -55q61 0 99.5 27.5t38.5 70.5v66q-37 -61 -136 -61q-117 0 -198 75q-84 78 -84 191q0 112 86 186q88 76 215 76q130 0 215 -76q88 -73 88 -184v-268q0 -119 -92 -199q-88 -82 -225 -82q-97 0 -175.5 43t-115.5 115zM446 330q0 37 -30.5 61.5
t-79.5 24.5q-34 0 -61.5 -16t-39.5 -38.5t-7 -49t30 -46.5q39 -24 81 -24t74.5 25t32.5 63z" />
    <glyph glyph-name="exclamdown.case" horiz-adv-x="518" 
d="M84 1286q0 75 49.5 124.5t124.5 49.5q74 0 124 -49.5t50 -124.5q0 -74 -50 -124t-124 -50q-75 0 -124.5 50t-49.5 124zM96 0l37 975h252l37 -975h-326z" />
    <glyph glyph-name="questiondown.case" horiz-adv-x="1206" 
d="M389 430q0 -69 68 -118.5t166 -49.5q84 0 145.5 38.5t85.5 102.5l313 -86q-50 -158 -196 -256t-344 -98q-237 0 -394 133t-157 336q0 93 38.5 172.5t98.5 124.5q123 95 209 119l41 10l14 100h258l33 -272q-34 -3 -131 -37q-49 -16 -117 -51q-54 -29 -92.5 -74.5
t-38.5 -93.5zM737 1407q54 -54 54 -129q0 -77 -54 -131q-51 -51 -129 -51q-80 0 -131 51t-51 131q0 78 51 129q53 53 131 53q76 0 129 -53z" />
    <glyph glyph-name="dagger.case" horiz-adv-x="942" 
d="M33 819v221h321v394h234v-394h321v-221h-321v-819h-234v819h-321z" />
    <glyph glyph-name="daggerdbl.case" horiz-adv-x="942" 
d="M354 360h-321v222h321v270h-321v221h321v361h234v-361h321v-221h-321v-270h321v-222h-321v-360h-234v360z" />
    <glyph glyph-name="slash.case" horiz-adv-x="1118" 
d="M260 -205h-260l858 1841h260z" />
    <glyph glyph-name="backslash.case" horiz-adv-x="1118" 
d="M260 1636l858 -1841h-260l-858 1841h260z" />
    <glyph glyph-name="parenleft.case" horiz-adv-x="657" 
d="M328 1604l30 34h279l-33 -41q-9 -14 -69 -118q-55 -100 -91.5 -199.5t-66.5 -247.5q-62 -313 -2 -631q21 -103 50.5 -194.5t69.5 -171.5t57 -110.5t54 -90.5l31 -39h-279l-2 2q-162 189 -239 504q-49 197 -49 418q0 167 28.5 327t73.5 267q84 202 158 291z" />
    <glyph glyph-name="parenright.case" horiz-adv-x="657" 
d="M49 1599l-29 39h279q39 -39 100 -145q44 -68 90 -182q42 -109 72.5 -269.5t30.5 -322.5q0 -156 -27 -309t-67 -260q-37 -103 -84 -183q-18 -33 -32.5 -57.5t-28 -44t-19 -27t-19.5 -24.5l-14 -17l-2 -2h-279q22 28 31 41q18 24 70 119q57 101 94 200t66 244q65 317 2 631
q-26 148 -72 260q-90 219 -162 309z" />
    <glyph glyph-name="bracketleft.case" horiz-adv-x="675" 
d="M262 -207v2h-168v1843h561v-258h-282v-1329h282v-258h-393z" />
    <glyph glyph-name="bracketright.case" horiz-adv-x="675" 
d="M580 -205h-560v258h281v1327h-281v258h560v-1843z" />
    <glyph glyph-name="braceleft.case" horiz-adv-x="733" 
d="M569 1638h144v-254h-115q-51 0 -85 -33t-34 -83v-260q0 -116 -57.5 -191t-161.5 -100q104 -25 161.5 -99t57.5 -190v-260q0 -51 34 -84t85 -33h115v-256h-144q-157 0 -264 107q-104 104 -104 260v262q0 50 -42 92t-93 62l-46 14v250l50 16q32 13 80 55q51 45 51 99v262
q0 156 104 260q107 104 264 104z" />
    <glyph glyph-name="braceright.case" horiz-adv-x="733" 
d="M20 1384v254h144q156 0 260 -104q106 -103 106 -260v-262q0 -49 43 -91.5t95 -62.5l45 -16v-250l-51 -19q-28 -8 -82 -53q-50 -44 -50 -96v-262q0 -159 -106 -262q-105 -105 -260 -105h-144v256h115q50 0 83.5 33t33.5 84v260q0 116 58.5 190.5t162.5 98.5
q-104 25 -162.5 100.5t-58.5 190.5v260q0 50 -33 83t-84 33h-115z" />
    <glyph glyph-name="guillemotleft.case" horiz-adv-x="1173" 
d="M459 307l-408 410l408 409l174 -174l-236 -235l236 -236zM934 307l-410 410l410 409l172 -174l-236 -235l236 -236z" />
    <glyph glyph-name="guillemotright.case" horiz-adv-x="1173" 
d="M713 1126l409 -409l-409 -410l-174 174l235 236l-235 235zM240 1126l409 -409l-409 -410l-174 174l235 236l-235 235z" />
    <glyph glyph-name="guilsinglleft.case" horiz-adv-x="698" 
d="M459 307l-408 410l408 409l174 -174l-236 -235l236 -236z" />
    <glyph glyph-name="guilsinglright.case" horiz-adv-x="698" 
d="M240 1126l409 -409l-409 -410l-174 174l235 236l-235 235z" />
    <glyph glyph-name="hyphen.case" horiz-adv-x="819" 
d="M113 582v272h594v-272h-594z" />
    <glyph glyph-name="endash.case" horiz-adv-x="1228" 
d="M113 582v272h1003v-272h-1003z" />
    <glyph glyph-name="emdash.case" horiz-adv-x="2048" 
d="M113 582v272h1822v-272h-1822z" />
    <glyph glyph-name="bar.case" horiz-adv-x="423" 
d="M330 -205h-236v1843h236v-1843z" />
    <glyph glyph-name="brokenbar.case" horiz-adv-x="423" 
d="M330 1638v-753h-236v753h236zM94 -205v756h236v-756h-236z" />
    <glyph glyph-name="zero.dnom" horiz-adv-x="690" 
d="M33 276v236q0 123 88 205t223 82t223 -82q90 -84 90 -205v-236q0 -120 -90 -204q-88 -82 -223 -82q-133 0 -221 82q-90 84 -90 204zM221 514v-240q0 -45 35 -75.5t88 -30.5q54 0 90.5 31t36.5 75v240q0 45 -36.5 76t-90.5 31q-53 0 -88 -31t-35 -76z" />
    <glyph glyph-name="one.dnom" horiz-adv-x="501" 
d="M227 578l-129 -60l-67 156l248 114h131v-788h-183v578z" />
    <glyph glyph-name="two.dnom" horiz-adv-x="653" 
d="M414 545q0 32 -28 54t-67 22q-86 0 -129 -101l-170 84q41 91 121 143t178 52q122 0 205 -74q84 -72 84 -172q0 -125 -174 -277l-106 -100h284v-176h-569v135l281 262q90 84 90 148z" />
    <glyph glyph-name="three.dnom" horiz-adv-x="665" 
d="M418 547q0 31 -30 52.5t-77 21.5q-86 0 -114 -60l-164 53q36 84 114 134.5t179 50.5q118 0 202 -72q82 -70 82 -178q0 -86 -84 -139q107 -52 107 -164t-88 -185q-86 -71 -217 -71q-109 0 -190.5 53.5t-112.5 142.5l172 62q8 -36 42 -58t83 -22q50 0 83 24t33 60
q0 35 -32.5 58.5t-81.5 23.5h-60v137h39q49 0 82 22t33 54z" />
    <glyph glyph-name="four.dnom" horiz-adv-x="714" 
d="M416 0v141h-385v178l393 469h176v-471h88v-176h-88v-141h-184zM416 516l-166 -199h166v199z" />
    <glyph glyph-name="five.dnom" horiz-adv-x="673" 
d="M641 264q0 -118 -87 -196t-218 -78q-111 0 -195.5 61t-115.5 160l184 49q35 -92 125 -92q50 0 82.5 26.5t32.5 67.5q0 44 -39 73.5t-99 29.5h-225l41 423h444v-167h-292l-11 -89h94q119 0 199 -77t80 -191z" />
    <glyph glyph-name="six.dnom" horiz-adv-x="671" 
d="M633 635l-166 -80q-38 66 -119 66q-55 0 -91 -28.5t-36 -70.5v-65q49 55 139 55q117 0 201 -78t84 -184q0 -111 -88 -187q-85 -73 -217 -73q-129 0 -217 73q-86 77 -86 187v270q0 120 88 199q89 80 221 80q96 0 173 -44.5t114 -119.5zM340 334q-47 0 -79 -23.5t-32 -58.5
t32 -59.5t79 -24.5q49 0 80 23.5t31 60.5q0 36 -31 59t-80 23z" />
    <glyph glyph-name="seven.dnom" horiz-adv-x="616" 
d="M102 0l291 621h-375v167h574v-178l-283 -610h-207z" />
    <glyph glyph-name="eight.dnom" horiz-adv-x="675" 
d="M33 231q0 111 98 181q-80 68 -80 159q0 98 82 162q84 66 205 66t205 -66t84 -162q0 -97 -82 -161q98 -70 98 -183q0 -103 -88 -170q-85 -67 -217 -67t-219 69q-86 71 -86 172zM225 246q0 -35 31 -56.5t82 -21.5q50 0 81.5 21.5t31.5 56.5q6 46 -53.5 65.5t-119 0
t-53.5 -65.5zM434 557q4 39 -46 55.5t-99.5 0t-44.5 -55.5q-5 -40 44.5 -57t99.5 0t46 57z" />
    <glyph glyph-name="nine.dnom" horiz-adv-x="671" 
d="M31 147l164 76q37 -55 120 -55q61 0 99.5 27.5t38.5 70.5v66q-38 -62 -136 -62q-116 0 -198 76q-84 78 -84 191q0 112 86 186q88 76 215 76q130 0 215 -76q88 -73 88 -184v-269q0 -117 -92 -200q-89 -80 -225 -80q-97 0 -175.5 42.5t-115.5 114.5zM446 535
q0 37 -30.5 61.5t-79.5 24.5q-34 0 -61.5 -16t-39.5 -38.5t-7 -49t30 -46.5q39 -24 81 -24t74.5 25t32.5 63z" />
    <glyph glyph-name="logo" horiz-adv-x="880" 
d="M41 1061v209h47q145 0 248 -103q102 -102 102 -247q0 -146 -102 -248q-103 -103 -248 -103h-47v211q186 0 186 140q0 141 -186 141zM442 1061v209h47q145 0 248 -103t103 -247q0 -145 -103 -248t-248 -103h-47v211q189 0 189 140q0 141 -189 141zM109 442h-56v41h152v-41
h-55v-237h-41v237zM285 328l-74 155h47l47 -102l49 102h47l-73 -155v-123h-43v123zM467 205h-41v278h78q37 0 63.5 -25.5t26.5 -62.5t-26.5 -62.5t-63.5 -25.5h-37v-102zM504 442h-37v-94h37q20 0 33.5 13.5t13.5 33.5q0 19 -13.5 33t-33.5 14zM743 205h-122v278h122v-41
h-79v-98h63v-41h-63v-57h79v-41z" />
    <glyph glyph-name="bullet.case" horiz-adv-x="780" 
d="M152 477q-95 95 -95 240q0 142 95 237q97 97 237 97q141 0 238 -97q96 -96 96 -237q0 -144 -96 -240q-94 -94 -238 -94q-143 0 -237 94z" />
    <glyph glyph-name="zero.num" horiz-adv-x="690" 
d="M33 922v235q0 123 88 205t223 82t223 -82q90 -84 90 -205v-235q0 -121 -90 -205q-88 -82 -223 -82q-133 0 -221 82q-90 84 -90 205zM221 1159v-239q0 -45 35 -76t88 -31q54 0 90.5 31t36.5 76v239q0 45 -36.5 76t-90.5 31q-53 0 -88 -31t-35 -76z" />
    <glyph glyph-name="one.num" horiz-adv-x="501" 
d="M227 1223l-129 -60l-67 156l248 115h131v-789h-183v578z" />
    <glyph glyph-name="two.num" horiz-adv-x="653" 
d="M414 1190q0 32 -28 54t-67 22q-86 0 -129 -101l-170 84q41 91 121 143t178 52q122 0 205 -74q84 -72 84 -172q0 -124 -174 -276l-106 -101h284v-176h-569v135l281 262q90 84 90 148z" />
    <glyph glyph-name="three.num" horiz-adv-x="665" 
d="M418 1192q0 31 -30 52.5t-77 21.5q-86 0 -114 -60l-164 54q36 83 114 133.5t179 50.5q118 0 202 -72q82 -70 82 -178q0 -86 -84 -139q107 -52 107 -164q0 -111 -88 -184q-87 -72 -217 -72q-109 0 -190.5 53.5t-112.5 142.5l172 62q8 -36 42 -58t83 -22q50 0 83 24t33 60
q0 35 -32.5 58.5t-81.5 23.5h-60v137h39q49 0 82 22t33 54z" />
    <glyph glyph-name="four.num" horiz-adv-x="714" 
d="M416 645v141h-385v179l393 469h176v-471h88v-177h-88v-141h-184zM416 1161l-166 -198h166v198z" />
    <glyph glyph-name="five.num" horiz-adv-x="673" 
d="M641 909q0 -118 -87 -196t-218 -78q-111 0 -195.5 61t-115.5 160l184 49q35 -92 125 -92q50 0 82.5 26.5t32.5 67.5q0 44 -39 73.5t-99 29.5h-225l41 424h444v-168h-292l-11 -88h94q118 0 199 -78q80 -77 80 -191z" />
    <glyph glyph-name="six.num" horiz-adv-x="671" 
d="M633 1280l-166 -80q-38 66 -119 66q-55 0 -91 -28.5t-36 -70.5v-65q49 55 139 55q117 0 201 -78t84 -184q0 -110 -88 -186q-86 -74 -217 -74q-128 0 -217 74q-86 77 -86 186v270q0 120 88 199q89 80 221 80q96 0 173 -44.5t114 -119.5zM340 979q-47 0 -79 -23.5
t-32 -58.5t32 -59.5t79 -24.5q49 0 80 23.5t31 60.5q0 36 -31 59t-80 23z" />
    <glyph glyph-name="seven.num" horiz-adv-x="616" 
d="M102 645l291 621h-375v168h574v-179l-283 -610h-207z" />
    <glyph glyph-name="eight.num" horiz-adv-x="675" 
d="M33 877q0 110 98 180q-80 65 -80 160q0 97 82 161q84 66 205 66t205 -66t84 -161q0 -98 -82 -162q98 -70 98 -183q0 -103 -88 -170q-85 -67 -217 -67q-131 0 -219 70q-86 71 -86 172zM225 891q0 -35 31 -56.5t82 -21.5q50 0 81.5 21.5t31.5 56.5q6 46 -53.5 65.5t-119 0
t-53.5 -65.5zM434 1202q4 39 -46 55.5t-99.5 0t-44.5 -55.5q-5 -40 44.5 -57t99.5 0t46 57z" />
    <glyph glyph-name="nine.num" horiz-adv-x="671" 
d="M31 793l164 75q37 -55 120 -55q61 0 99.5 27.5t38.5 70.5v66q-38 -62 -136 -62q-116 0 -198 76q-84 78 -84 191q0 112 86 186q88 76 215 76q130 0 215 -76q88 -73 88 -184v-269q0 -117 -92 -200q-89 -80 -225 -80q-97 0 -175.5 43t-115.5 115zM446 1180q0 37 -30.5 61.5
t-79.5 24.5q-34 0 -61.5 -16t-39.5 -38.5t-7 -49t30 -46.5q39 -24 81 -24t74.5 25t32.5 63z" />
    <glyph glyph-name="afii10021.1" horiz-adv-x="1671" 
d="M1634 0h-1599v299h170q121 53 121 432v703h1091v-1135h217v-299zM575 299h519v836h-443v-392q0 -276 -76 -444z" />
    <glyph glyph-name="afii10040.1" horiz-adv-x="1609" 
d="M96 1434h326v-1135h610v1135h326v-1135h217v-299h-1479v1434z" />
    <glyph glyph-name="afii10043.1" horiz-adv-x="2258" 
d="M96 0v1434h326v-1135h455v1135h325v-1135h479v1135h326v-1135h217v-299h-2128z" />
    <glyph glyph-name="germandbls.1" horiz-adv-x="1214" 
d="M393 784v-784h-307v1186q0 156 129 264q130 106 326 106h67v-292h-51q-69 0 -116.5 -30.5t-47.5 -74.5v-94h694v-211l-194 -309q128 -72 202 -201t74 -283q0 -239 -178 -395q-181 -158 -448 -158v295q138 0 227 74q90 75 90 184q0 110 -90 185q-88 73 -227 73v211
l162 254h-312z" />
    <glyph glyph-name="R.1" horiz-adv-x="1363" 
d="M96 1434h672q222 0 369 -129q149 -128 149 -320q0 -228 -196 -360q135 -114 165 -289l64 -336h-318l-51 289q-17 88 -88.5 147.5t-161.5 59.5h-278v-496h-326v1434zM768 1135h-346v-351h346q78 0 129 51t51 126q0 73 -52.5 123.5t-127.5 50.5z" />
    <glyph glyph-name="Racute.1" horiz-adv-x="1378" 
d="M422 0h-326v1434h672q222 0 369 -129q149 -128 149 -320q0 -228 -196 -360q135 -114 165 -289l64 -336h-318l-51 289q-17 88 -88.5 147.5t-161.5 59.5h-278v-496zM768 1135h-346v-351h346q78 0 129 51t51 126q0 73 -52.5 123.5t-127.5 50.5zM485 1542l-96 166l432 272
l131 -239z" />
    <glyph glyph-name="Rcaron.1" horiz-adv-x="1378" 
d="M422 0h-326v1434h672q222 0 369 -129q149 -128 149 -320q0 -228 -196 -360q135 -114 165 -289l64 -336h-318l-51 289q-17 88 -88.5 147.5t-161.5 59.5h-278v-496zM768 1135h-346v-351h346q78 0 129 51t51 126q0 73 -52.5 123.5t-127.5 50.5zM565 1534l-377 274l109 158
l274 -158l275 156l108 -156l-376 -274h-13z" />
    <glyph glyph-name="Rcommaaccent.1" horiz-adv-x="1378" 
d="M422 0h-326v1434h672q222 0 369 -129q149 -128 149 -320q0 -228 -196 -360q135 -114 165 -289l64 -336h-318l-51 289q-17 88 -88.5 147.5t-161.5 59.5h-278v-496zM768 1135h-346v-351h346q78 0 129 51t51 126q0 73 -52.5 123.5t-127.5 50.5zM571 -227q0 57 40 96t100 39
q67 0 110 -50t43 -124q0 -114 -96 -203l-61 -53q-16 -13 -45 -29l-3 -2l-71 74q96 75 96 112q-47 7 -80 48t-33 92z" />
    <glyph glyph-name="u.1" horiz-adv-x="1189" 
d="M86 471v594h307v-557q0 -99 58.5 -165.5t144.5 -66.5t143.5 66t57.5 166v557h307v-594q0 -211 -148 -356q-145 -142 -362 -142q-218 0 -363 142q-145 145 -145 356z" />
    <glyph glyph-name="uacute.1" horiz-adv-x="1189" 
d="M86 471v594h307v-557q0 -99 58.5 -165.5t144.5 -66.5t143.5 66t57.5 166v557h307v-594q0 -211 -148 -356q-145 -142 -362 -142q-218 0 -363 142q-145 145 -145 356zM487 1194l-94 166l432 272l129 -239z" />
    <glyph glyph-name="ubreve.1" horiz-adv-x="1189" 
d="M86 471v594h307v-557q0 -99 58.5 -165.5t144.5 -66.5t143.5 66t57.5 166v557h307v-594q0 -211 -148 -356q-145 -142 -362 -142q-218 0 -363 142q-145 145 -145 356zM252 1516h213q0 -61 36.5 -101.5t90.5 -40.5q55 0 90 40t35 102h213q0 -144 -96 -240t-242 -96
q-148 0 -244 96t-96 240z" />
    <glyph glyph-name="ucircumflex.1" horiz-adv-x="1189" 
d="M86 471v594h307v-557q0 -99 58.5 -165.5t144.5 -66.5t143.5 66t57.5 166v557h307v-594q0 -211 -148 -356q-145 -142 -362 -142q-218 0 -363 142q-145 145 -145 356zM594 1343l-272 -157l-109 157l375 273h14l375 -273l-109 -155z" />
    <glyph glyph-name="udieresis.1" horiz-adv-x="1189" 
d="M86 471v594h307v-557q0 -99 58.5 -165.5t144.5 -66.5t143.5 66t57.5 166v557h307v-594q0 -211 -148 -356q-145 -142 -362 -142q-218 0 -363 142q-145 145 -145 356zM260 1229q-44 47 -44 117t44 114q47 47 117.5 47t114.5 -47q47 -44 47 -114t-47 -117
q-44 -44 -114.5 -44t-117.5 44zM811 1507q69 0 116.5 -46t47.5 -115t-47.5 -115.5t-116.5 -46.5q-68 0 -114 46.5t-46 115.5t46 115t114 46z" />
    <glyph glyph-name="ugrave.1" horiz-adv-x="1189" 
d="M86 471v594h307v-557q0 -99 58.5 -165.5t144.5 -66.5t143.5 66t57.5 166v557h307v-594q0 -211 -148 -356q-145 -142 -362 -142q-218 0 -363 142q-145 145 -145 356zM692 1194l-467 199l131 239l432 -272z" />
    <glyph glyph-name="uhungarumlaut.1" horiz-adv-x="1189" 
d="M86 471v594h307v-557q0 -99 58.5 -165.5t144.5 -66.5t143.5 66t57.5 166v557h307v-594q0 -211 -148 -356q-145 -142 -362 -142q-218 0 -363 142q-145 145 -145 356zM387 1176l-145 124l293 365l202 -184zM819 1176l-143 124l293 365l202 -184z" />
    <glyph glyph-name="umacron.1" horiz-adv-x="1189" 
d="M86 471v594h307v-557q0 -99 58.5 -165.5t144.5 -66.5t143.5 66t57.5 166v557h307v-594q0 -211 -148 -356q-145 -142 -362 -142q-218 0 -363 142q-145 145 -145 356zM915 1245h-641v228h641v-228z" />
    <glyph glyph-name="uogonek.1" horiz-adv-x="1189" 
d="M86 471v594h307v-557q0 -99 58.5 -165.5t144.5 -66.5t143.5 66t57.5 166v557h307v-594q0 -183 -113 -317q-112 -136 -289 -170q-104 -104 -104 -179q0 -71 78 -71q24 0 50 10.5t40 22.5l12 12l84 -109l-35 -30q-22 -22 -92 -52q-63 -32 -133 -32q-94 0 -155.5 55
t-61.5 141q0 107 104 232q-174 34 -290 168q-113 134 -113 319z" />
    <glyph glyph-name="uring.1" horiz-adv-x="1189" 
d="M86 471v594h307v-557q0 -99 58.5 -165.5t144.5 -66.5t143.5 66t57.5 166v557h307v-594q0 -211 -148 -356q-145 -142 -362 -142q-218 0 -363 142q-145 145 -145 356zM346 1427q0 102 72 177q73 73 176 73t176 -73q74 -74 74 -177q0 -104 -74 -178q-74 -71 -176 -71
t-176 71q-72 75 -72 178zM594 1364q30 0 47.5 20t17.5 43.5t-17.5 43.5t-47.5 20q-29 0 -45.5 -20t-16.5 -43.5t16.5 -43.5t45.5 -20z" />
    <glyph glyph-name="utilde.1" horiz-adv-x="1189" 
d="M86 471v594h307v-557q0 -99 58.5 -165.5t144.5 -66.5t143.5 66t57.5 166v557h307v-594q0 -211 -148 -356q-145 -142 -362 -142q-218 0 -363 142q-145 145 -145 356zM440 1231h-204q0 107 71 184q74 80 176 80q64 0 125 -43q65 -41 80 -41q25 0 43.5 22t18.5 52h202
q0 -112 -71 -189q-69 -75 -172 -75q-64 0 -129 41q-62 41 -80 41q-25 0 -42.5 -20.5t-17.5 -51.5z" />
    <glyph glyph-name="y.1" horiz-adv-x="1130" 
d="M414 12l-402 1053h318l231 -653l240 653h317l-588 -1526h-290z" />
    <glyph glyph-name="yacute.1" horiz-adv-x="1130" 
d="M414 12l-402 1053h318l231 -653l240 653h317l-588 -1526h-290zM926 1393l-467 -199l-97 166l433 272z" />
    <glyph glyph-name="ycircumflex.1" horiz-adv-x="1130" 
d="M414 12l-402 1053h318l231 -653l240 653h317l-588 -1526h-290zM565 1343l-274 -157l-109 157l377 273h12l377 -273l-108 -155z" />
    <glyph glyph-name="ydieresis.1" horiz-adv-x="1130" 
d="M414 12l-402 1053h318l231 -653l240 653h317l-588 -1526h-290zM463 1229q-44 -44 -114.5 -44t-117.5 44q-44 47 -44 117t44 114q47 47 117.5 47t114.5 -47q47 -44 47 -114t-47 -117zM782 1184q-68 0 -113.5 46.5t-45.5 115.5t45.5 115t113.5 46q69 0 116.5 -46t47.5 -115
t-47.5 -115.5t-116.5 -46.5z" />
    <glyph glyph-name="ygrave.1" horiz-adv-x="1130" 
d="M414 12l-402 1053h318l231 -653l240 653h317l-588 -1526h-290zM664 1194l-467 199l131 239l432 -272z" />
    <glyph glyph-name="afii10085.1" horiz-adv-x="1130" 
d="M414 12l-402 1053h318l231 -653l240 653h317l-588 -1526h-290z" />
    <glyph glyph-name="afii10110.1" horiz-adv-x="1130" 
d="M240 -461l174 473l-402 1053h318l231 -653l240 653h317l-588 -1526h-290zM199 1511h227q0 -62 40.5 -103.5t100.5 -41.5q57 0 97.5 42t40.5 103h227q0 -155 -105 -260q-105 -102 -260 -102q-156 0 -264 102q-104 104 -104 260z" />
    <glyph glyph-name="g.1" 
d="M53 532q0 241 144 400q145 160 360 160q163 0 295 -99v72h305v-1042q0 -219 -156 -363q-153 -147 -383 -147q-106 0 -204 34l106 271q40 -15 92 -15q101 0 170.5 61.5t69.5 153.5v56q-128 -101 -295 -101q-215 0 -360 160q-144 163 -144 399zM373 530q0 -106 68.5 -180
t168.5 -74q97 0 168 74q70 73 70 180q0 109 -69.5 183.5t-168.5 74.5q-100 0 -168.5 -74t-68.5 -184z" />
    <glyph glyph-name="gbreve.1" 
d="M557 -27q-215 0 -360 160q-144 163 -144 399q0 241 144 400q145 160 360 160q163 0 295 -99v72h305v-1042q0 -219 -156 -363q-153 -147 -383 -147q-106 0 -204 34l106 271q40 -15 92 -15q101 0 170.5 61.5t69.5 153.5v56q-128 -101 -295 -101zM610 788q-100 0 -168.5 -74
t-68.5 -184q0 -106 68.5 -180t168.5 -74q97 0 168 74q70 73 70 180q0 109 -69.5 183.5t-168.5 74.5zM270 1516h213q0 -61 36.5 -101.5t92.5 -40.5q55 0 89 40t34 102h215q0 -146 -98 -240q-96 -96 -242 -96q-142 0 -243 96q-97 97 -97 240z" />
    <glyph glyph-name="gcircumflex.1" 
d="M53 532q0 241 144 400q145 160 360 160q163 0 295 -99v72h305v-1042q0 -219 -156 -363q-153 -147 -383 -147q-106 0 -204 34l106 271q40 -15 92 -15q101 0 170.5 61.5t69.5 153.5v56q-128 -101 -295 -101q-215 0 -360 160q-144 163 -144 399zM610 788q-100 0 -168.5 -74
t-68.5 -184q0 -106 68.5 -180t168.5 -74q97 0 168 74q70 73 70 180q0 109 -69.5 183.5t-168.5 74.5zM614 1343l-274 -157l-109 157l375 273h15l374 -273l-108 -155z" />
    <glyph glyph-name="gcommaaccent.1" 
d="M53 532q0 241 144 400q145 160 360 160q163 0 295 -99v72h305v-1042q0 -219 -156 -363q-153 -147 -383 -147q-106 0 -204 34l106 271q40 -15 92 -15q101 0 170.5 61.5t69.5 153.5v56q-128 -101 -295 -101q-215 0 -360 160q-144 163 -144 399zM610 788q-100 0 -168.5 -74
t-68.5 -184q0 -106 68.5 -180t168.5 -74q97 0 168 74q70 73 70 180q0 109 -69.5 183.5t-168.5 74.5zM455 1354q0 158 204 286l72 -75q-96 -75 -96 -111q50 -11 81.5 -49.5t31.5 -89.5q0 -57 -40 -96t-100 -39q-67 0 -110 50t-43 124z" />
    <glyph glyph-name="gdotaccent.1" 
d="M557 -27q-215 0 -360 160q-144 163 -144 399q0 241 144 400q145 160 360 160q163 0 295 -99v72h305v-1042q0 -219 -156 -363q-153 -147 -383 -147q-106 0 -204 34l106 271q40 -15 92 -15q101 0 170.5 61.5t69.5 153.5v56q-128 -101 -295 -101zM610 788q-100 0 -168.5 -74
t-68.5 -184q0 -106 68.5 -180t168.5 -74q97 0 168 74q70 73 70 180q0 109 -69.5 183.5t-168.5 74.5zM612 1186q-74 0 -123 49.5t-49 124.5q0 74 49.5 124t122.5 50q75 0 125.5 -50t50.5 -124q0 -75 -50.5 -124.5t-125.5 -49.5z" />
    <glyph glyph-name="t.1" horiz-adv-x="753" 
d="M16 799v170l279 303h174v-207h242v-266h-242v-400q0 -49 33 -80.5t84 -31.5h125v-287h-176q-157 0 -267 96q-106 97 -106 244v459h-146z" />
    <glyph glyph-name="tbar.1" horiz-adv-x="753" 
d="M162 799h-146v170l279 303h174v-207h242v-266h-242v-144h170v-192h-170v-64q0 -49 33 -80.5t84 -31.5h125v-287h-176q-157 0 -267 96q-106 97 -106 244v123h-107v192h107v144z" />
    <glyph glyph-name="tcaron.1" horiz-adv-x="845" 
d="M16 799v170l279 303h174v-207h242v-266h-242v-400q0 -49 33 -80.5t84 -31.5h125v-287h-176q-157 0 -267 96q-106 97 -106 244v459h-146zM825 1384q0 -111 -96 -200l-61 -54q-12 -10 -45 -28l-2 -2l-72 74q93 72 96 112q-47 8 -80 48t-33 91q0 57 40 96.5t100 39.5
q67 0 110 -50.5t43 -126.5z" />
    <glyph glyph-name="tcommaaccent.1" horiz-adv-x="753" 
d="M16 799v170l279 303h174v-207h242v-266h-242v-400q0 -49 33 -80.5t84 -31.5h125v-287h-176q-157 0 -267 96q-106 97 -106 244v459h-146zM588 -266q0 -135 -148 -249q-17 -13 -57 -38l-72 74q97 75 97 112q-47 7 -80 48t-33 92q0 57 39.5 96t99.5 39q67 0 110.5 -50
t43.5 -124z" />
    <glyph glyph-name="uni021B.1" horiz-adv-x="753" 
d="M16 799v170l279 303h174v-207h242v-266h-242v-400q0 -49 33 -80.5t84 -31.5h125v-287h-176q-157 0 -267 96q-106 97 -106 244v459h-146zM588 -266q0 -135 -148 -249q-17 -13 -57 -38l-72 74q97 75 97 112q-47 7 -80 48t-33 92q0 57 39.5 96t99.5 39q67 0 110.5 -50
t43.5 -124z" />
    </font>
</defs>
</svg>
