<?xml version="1.0" standalone="no"?>
<!DOCTYPE svg PUBLIC "-//W3C//DTD SVG 1.1//EN" "http://www.w3.org/Graphics/SVG/1.1/DTD/svg11.dtd" >
<svg xmlns="http://www.w3.org/2000/svg" xmlns:xlink="http://www.w3.org/1999/xlink" version="1.1">
<metadata>
Created by FontForge 20170731 at Mon Jan 25 21:57:00 2021
 By Aleksey,,,
Copyright (c) 2019 by Oleh Lishchuk. All rights reserved. |DCNT
</metadata>
<defs>
<font id="MazzardH-ExtraBold" horiz-adv-x="1212" >
  <font-face 
    font-family="Mazzard H ExtraBold"
    font-weight="800"
    font-stretch="semi-condensed"
    units-per-em="2048"
    panose-1="0 0 0 0 0 0 0 0 0 0"
    ascent="1546"
    descent="-502"
    x-height="1065"
    cap-height="1434"
    bbox="-162 -563 2619 2093"
    underline-thickness="102"
    underline-position="-358"
    unicode-range="U+000D-FB04"
  />
<missing-glyph horiz-adv-x="681" 
 />
    <glyph glyph-name="f_f" unicode="ff" horiz-adv-x="1392" 
d="M158 768h-144v297h144v106q0 155 121 261q122 104 303 104h145v-328h-111q-42 0 -71 -25t-29 -61v-57h293v106q0 155 121 261q122 104 303 104h145v-328h-110q-42 0 -71.5 -25t-29.5 -61v-57h211v-297h-211v-768h-358v768h-293v-768h-358v768z" />
    <glyph glyph-name="fi" unicode="fi" horiz-adv-x="1226" 
d="M516 1122v-57h211v-297h-211v-768h-358v768h-144v297h144v106q0 155 121 261q122 104 303 104h145v-328h-111q-42 0 -71 -25t-29 -61zM1163 0h-358v1065h358v-1065zM983 1552q93 0 155 -62t62 -155q0 -92 -61.5 -153.5t-155.5 -61.5q-92 0 -154.5 61.5t-62.5 153.5
t62.5 154.5t154.5 62.5z" />
    <glyph glyph-name="fl" unicode="fl" horiz-adv-x="1226" 
d="M516 1122v-57h211v-297h-211v-768h-358v768h-144v297h144v106q0 155 121 261q122 104 303 104h145v-328h-111q-42 0 -71 -25t-29 -61zM1163 0h-358v1536h358v-1536z" />
    <glyph glyph-name="f_f_i" unicode="ffi" horiz-adv-x="1878" 
d="M158 0v768h-144v297h144v106q0 155 121 261q122 104 303 104h145v-328h-111q-42 0 -71 -25t-29 -61v-57h293v106q0 155 121 261q122 104 303 104h145v-328h-110q-42 0 -71.5 -25t-29.5 -61v-57h648v-1065h-359v768h-289v-768h-358v768h-293v-768h-358zM1634 1552
q93 0 155 -62t62 -155q0 -92 -61.5 -153.5t-155.5 -61.5q-91 0 -153 61.5t-62 153.5t62 154.5t153 62.5z" />
    <glyph glyph-name="f_f_l" unicode="ffl" horiz-adv-x="1878" 
d="M158 768h-144v297h144v106q0 155 121 261q122 104 303 104h145v-328h-111q-42 0 -71 -25t-29 -61v-57h293v106q0 155 121 261q122 104 303 104h145v-328h-110q-42 0 -71.5 -25t-29.5 -61v-57h211v-297h-211v-768h-358v768h-293v-768h-358v768zM1815 0h-359v1536h359
v-1536z" />
    <glyph glyph-name="afii10104_afii10104" unicode="&#x457;&#x457;" horiz-adv-x="1026" 
d="M436 0h-358v1065h358v-1065zM78 1511q67 0 113.5 -48t46.5 -117q0 -72 -45.5 -118t-114.5 -46q-66 0 -111 47.5t-45 116.5t45 117t111 48zM948 0h-358v1065h358v-1065zM514 1511q67 0 112.5 -48t45.5 -117t-45.5 -116.5t-112.5 -47.5q-66 0 -112 47.5t-46 116.5t46 117
t112 48zM946 1511q67 0 113.5 -48t46.5 -117t-46.5 -116.5t-113.5 -47.5q-66 0 -110.5 47.5t-44.5 116.5t44.5 117t110.5 48z" />
    <glyph glyph-name=".notdef" horiz-adv-x="681" 
 />
    <glyph glyph-name="uni0000" horiz-adv-x="0" 
 />
    <glyph glyph-name="uni0000" horiz-adv-x="0" 
 />
    <glyph glyph-name="uni000D" unicode="&#xd;" horiz-adv-x="512" 
 />
    <glyph glyph-name="space" unicode=" " horiz-adv-x="477" 
 />
    <glyph glyph-name="exclam" unicode="!" horiz-adv-x="522" 
d="M72 166q0 80 53.5 134t134.5 54t135 -54t54 -134q0 -82 -53.5 -136.5t-135.5 -54.5q-81 0 -134.5 54.5t-53.5 136.5zM406 479h-289l-43 955h375z" />
    <glyph glyph-name="quotedbl" unicode="&#x22;" horiz-adv-x="854" 
d="M360 877h-243l-29 557h299zM737 877h-243l-27 557h299z" />
    <glyph glyph-name="numbersign" unicode="#" horiz-adv-x="1435" 
d="M29 324l-2 260h290l50 266h-248v260h293l57 324h264l-57 -324h223l57 324h265l-58 -324h246v-260h-291l-47 -266h246v-260h-291l-57 -324h-267l58 324h-221l-58 -324h-266l57 324h-243zM631 850l-47 -266h221l49 266h-223z" />
    <glyph glyph-name="dollar" unicode="$" horiz-adv-x="1218" 
d="M514 -238v222q-181 27 -307 129q-128 103 -168 247l381 78q12 -54 72 -89.5t141 -35.5q70 0 117 26t47 67q0 40 -64 73q-78 40 -184 68q-154 49 -256 106q-100 59 -151 142.5t-58 212.5q0 178 107.5 296.5t291.5 147.5v219h226v-225q153 -29 259.5 -120t137.5 -218
l-371 -74q-8 53 -79 75.5t-137.5 2t-61.5 -73.5q0 -24 14.5 -39t48.5 -36q59 -26 103 -37l137 -41q85 -26 144.5 -54.5t125.5 -76.5q141 -103 141 -312q0 -184 -117 -306t-315 -152v-222h-225z" />
    <glyph glyph-name="percent" unicode="%" horiz-adv-x="1841" 
d="M485 0l-192 158l1079 1276l193 -158zM434 1458q169 0 275 -112q110 -113 110 -281q0 -170 -110 -283q-107 -110 -275 -110q-164 0 -276 112q-111 114 -111 281t111 281q112 112 276 112zM319 1065q0 -49 32.5 -82t82.5 -33q48 0 81.5 33t33.5 82q0 47 -34 81t-81 34
q-49 0 -82 -33.5t-33 -81.5zM1407 762q166 0 276 -113q111 -114 111 -280q0 -167 -111 -281q-110 -113 -276 -113q-164 0 -274 113q-111 114 -111 281q0 166 111 280q110 113 274 113zM1292 369q0 -47 34 -81t81 -34q49 0 82 33.5t33 81.5q0 49 -32.5 81.5t-82.5 32.5
q-48 0 -81.5 -32.5t-33.5 -81.5z" />
    <glyph glyph-name="ampersand" unicode="&#x26;" horiz-adv-x="1458" 
d="M602 -25q-238 0 -393 131q-156 132 -156 326q0 220 238 371q-90 149 -90 280q0 162 110 269q112 106 283 106q176 0 289 -110q116 -110 116 -275q0 -209 -233 -358l182 -191q53 109 53 242h334q0 -280 -149 -490l266 -276h-434l-64 68q-166 -93 -352 -93zM721 311
l-225 238l-4 4q-89 -62 -89 -125q0 -57 58 -96t145 -39q60 0 115 18zM563 950q119 64 119 121q3 42 -39.5 60t-84.5 -0.5t-38 -65.5q0 -42 43 -115z" />
    <glyph glyph-name="quotesingle" unicode="'" horiz-adv-x="475" 
d="M360 877h-243l-29 557h299z" />
    <glyph glyph-name="parenleft" unicode="(" horiz-adv-x="677" 
d="M305 1599l29 39h323l-30 -45q-20 -30 -68 -129q-52 -108 -87 -216t-64 -267q-62 -337 -2 -680q26 -160 69 -281q87 -237 154 -335l28 -43h-323q-22 27 -31 41q-19 29 -67 120q-52 102 -87.5 211t-64.5 271q-63 353 -2 710q25 158 70 281q87 236 153 323z" />
    <glyph glyph-name="parenright" unicode=")" horiz-adv-x="677" 
d="M49 1595l-29 43h324q22 -27 31 -41q23 -34 65 -120q48 -92 86 -201q41 -117 66 -279q63 -353 2 -712q-25 -156 -70 -283q-91 -242 -151 -321l-29 -39h-324l31 45q23 34 66 129q53 104 88 213.5t63 269.5q62 342 2 680q-25 157 -69 281q-84 236 -152 335z" />
    <glyph glyph-name="asterisk" unicode="*" horiz-adv-x="937" 
d="M389 928l-174 -154l-127 219l219 74l-219 74l127 219l174 -154l-47 228h254l-45 -228l172 154l127 -219l-219 -74l219 -74l-127 -219l-172 154l45 -228h-254z" />
    <glyph glyph-name="plus" unicode="+" horiz-adv-x="1228" 
d="M459 532h-357v314h357v354h313v-354h354v-314h-354v-354h-313v354z" />
    <glyph glyph-name="comma" unicode="," horiz-adv-x="477" 
d="M428 111q0 -59 -26.5 -122.5t-61.5 -105.5q-34 -40 -80 -80q-48 -42 -96 -71l-96 100q120 102 120 150q-62 11 -103.5 63t-41.5 121q0 74 52 125t130 51q87 0 145 -67t58 -164z" />
    <glyph glyph-name="hyphen" unicode="-" horiz-adv-x="819" 
d="M102 377v313h615v-313h-615z" />
    <glyph glyph-name="period" unicode="." horiz-adv-x="462" 
d="M43 166q0 80 54.5 134t133.5 54q81 0 135 -54t54 -134q0 -82 -53.5 -136.5t-135.5 -54.5q-80 0 -134 54.5t-54 136.5z" />
    <glyph glyph-name="slash" unicode="/" horiz-adv-x="1220" 
d="M289 -358h-289l932 1996h289z" />
    <glyph glyph-name="zero" unicode="0" horiz-adv-x="1245" 
d="M53 500v436q0 224 162 373t408 149q243 0 405 -149q164 -150 164 -373v-436q0 -225 -164 -375t-405 -150q-245 0 -408 150q-162 149 -162 375zM623 1114q-88 0 -148.5 -50.5t-60.5 -123.5v-446q0 -73 60.5 -124t148.5 -51q90 0 150.5 50.5t60.5 124.5v446q0 74 -60.5 124
t-150.5 50z" />
    <glyph glyph-name="one" unicode="1" horiz-adv-x="937" 
d="M410 1020l-217 -98l-136 305l453 207h260v-1434h-360v1020z" />
    <glyph glyph-name="two" unicode="2" horiz-adv-x="1185" 
d="M735 995q0 49 -45 84t-108 35q-71 0 -129 -46.5t-91 -127.5l-333 160q79 167 225 262.5t328 95.5q220 0 374 -133t154 -317q0 -231 -317 -510l-166 -154h491v-344h-1042v266l504 469q155 146 155 260z" />
    <glyph glyph-name="three" unicode="3" horiz-adv-x="1206" 
d="M737 995q0 52 -49.5 85.5t-128.5 33.5q-148 0 -194 -100l-320 123q67 144 210.5 232.5t324.5 88.5q229 0 378 -131q154 -130 154 -326q0 -159 -131 -253q172 -111 172 -302q0 -203 -162 -337q-166 -134 -401 -134q-210 0 -359 101q-150 102 -200 266l338 117
q11 -62 68 -101t141 -39q88 0 144 39t56 99q0 59 -55.5 97t-138.5 38h-111v280h70q83 0 138.5 35t55.5 88z" />
    <glyph glyph-name="four" unicode="4" horiz-adv-x="1292" 
d="M737 0v252h-690v344l705 838h344v-840h155v-342h-155v-252h-359zM737 905l-262 -311h262v311z" />
    <glyph glyph-name="five" unicode="5" horiz-adv-x="1228" 
d="M1174 479q0 -215 -160 -360q-159 -144 -402 -144q-205 0 -362 115q-154 113 -213 301l360 96q25 -78 81.5 -123t131.5 -45q81 0 136 46t55 112q0 73 -67 121.5t-167 48.5h-415l77 787h813v-328h-518l-14 -131h133q229 0 379 -144q152 -146 152 -352z" />
    <glyph glyph-name="six" unicode="6" horiz-adv-x="1214" 
d="M1151 1155l-324 -154q-58 113 -200 113q-90 0 -149.5 -47t-59.5 -115v-80q89 62 227 62q219 0 373 -139q153 -138 153 -342t-159 -342q-157 -136 -396 -136q-240 0 -399 138q-160 139 -160 340v493q0 222 162 365q164 147 406 147q179 0 319.5 -81.5t206.5 -221.5z
M616 590q-79 0 -131.5 -39t-52.5 -96t52.5 -96.5t131.5 -39.5q78 0 129.5 38.5t51.5 95.5q0 60 -51.5 98.5t-129.5 38.5z" />
    <glyph glyph-name="seven" unicode="7" horiz-adv-x="1116" 
d="M174 0l522 1106h-665v328h1056v-349l-514 -1085h-399z" />
    <glyph glyph-name="eight" unicode="8" horiz-adv-x="1224" 
d="M614 -25q-241 0 -401 127t-160 316q0 197 174 325q-147 120 -147 295q0 178 151 299q154 121 383 121t379 -123q152 -122 152 -299q0 -171 -146 -293q175 -132 175 -329q0 -187 -160 -314q-158 -125 -400 -125zM426 451q0 -56 53.5 -94t134.5 -38q79 0 132 36.5t53 90.5
q0 55 -52.5 91t-132.5 36q-82 0 -135 -34t-53 -88zM455 1010q0 -45 45.5 -76t113.5 -31q67 0 111.5 31t44.5 76q0 43 -44.5 73.5t-111.5 30.5q-68 0 -113.5 -30.5t-45.5 -73.5z" />
    <glyph glyph-name="nine" unicode="9" horiz-adv-x="1224" 
d="M47 274l320 150q59 -105 208 -105q102 0 167 46t65 116v68q-78 -60 -219 -60q-216 0 -371 140q-154 142 -154 348q0 202 158 342q157 139 393 139q239 0 396 -139q159 -138 159 -344v-490q0 -218 -168 -364q-172 -146 -417 -146q-182 0 -326.5 81t-210.5 218zM616 834
q76 0 127.5 39.5t51.5 99.5q0 61 -51.5 101t-129.5 40q-76 0 -126 -39t-50 -100q0 -62 50 -101.5t128 -39.5z" />
    <glyph glyph-name="colon" unicode=":" horiz-adv-x="462" 
d="M43 166q0 80 54.5 134t133.5 54q81 0 135 -54t54 -134q0 -82 -53.5 -136.5t-135.5 -54.5q-80 0 -134 54.5t-54 136.5zM43 901q0 80 54.5 134.5t133.5 54.5q81 0 135 -54.5t54 -134.5q0 -82 -53.5 -136t-135.5 -54q-80 0 -134 54.5t-54 135.5z" />
    <glyph glyph-name="semicolon" unicode=";" horiz-adv-x="462" 
d="M43 901q0 80 54.5 134.5t133.5 54.5q81 0 135 -54.5t54 -134.5q0 -82 -53.5 -136t-135.5 -54q-80 0 -134 54.5t-54 135.5zM434 111q0 -203 -262 -379l-96 100q118 100 121 150q-62 11 -104 63t-42 121q0 73 52.5 124.5t127.5 51.5q87 0 145 -67t58 -164z" />
    <glyph glyph-name="less" unicode="&#x3c;" horiz-adv-x="1228" 
d="M1106 98l-1024 475v287l1024 481v-346l-592 -278l592 -275v-344z" />
    <glyph glyph-name="equal" unicode="=" horiz-adv-x="1228" 
d="M102 797v313h1024v-313h-1024zM102 324v315h1024v-315h-1024z" />
    <glyph glyph-name="greater" unicode="&#x3e;" horiz-adv-x="1228" 
d="M1147 860v-287l-1024 -475v344l592 275l-592 278v346z" />
    <glyph glyph-name="question" unicode="?" horiz-adv-x="1255" 
d="M809 975q0 60 -58.5 99.5t-146.5 39.5q-74 0 -130 -34.5t-75 -90.5l-360 98q53 167 203 269t358 102q242 0 404 -137q163 -138 163 -346q0 -83 -30.5 -154.5t-73.5 -115.5t-96.5 -77.5t-91.5 -48t-68 -20.5l-23 -4l-16 -76h-297l-41 273q37 3 131 30q59 19 115 43
q55 25 94 66.5t39 83.5zM412 162q0 88 57.5 147.5t144.5 59.5q88 0 146.5 -59.5t58.5 -147.5q0 -86 -58.5 -144.5t-146.5 -58.5q-87 0 -144.5 58t-57.5 145z" />
    <glyph glyph-name="at" unicode="@" horiz-adv-x="1953" 
d="M43 532q0 397 266 660q266 266 666 266q392 0 663 -256t271 -608q0 -228 -117 -369q-119 -140 -303 -137q-191 3 -305 141q-114 -141 -293 -141q-166 0 -281 127q-110 128 -110 317q0 191 110 316q114 129 281 129q118 0 213 -68v47h285v-499q0 -47 30.5 -80t73.5 -33
q63 2 104 68t41 174q0 245 -192 422q-193 178 -471 178q-279 0 -471 -189q-189 -189 -189 -465q0 -279 187 -466t467 -187q134 0 237 47l62 -250q-141 -69 -318 -69q-385 0 -645 266q-262 268 -262 659zM950 369q66 0 110 47t44 116t-44 116.5t-110 47.5q-63 0 -107 -47.5
t-44 -116.5t44 -116t107 -47z" />
    <glyph glyph-name="A" unicode="A" horiz-adv-x="1511" 
d="M397 0h-391l596 1434h309l594 -1434h-391l-84 213h-547zM758 899l-144 -356h285z" />
    <glyph glyph-name="B" unicode="B" horiz-adv-x="1370" 
d="M825 0h-751v1434h710q204 0 342 -117t138 -293q0 -165 -123 -279q174 -119 174 -325q0 -181 -141 -301q-137 -119 -349 -119zM819 569h-370v-225h370q44 0 75.5 33t31.5 80t-31.5 79.5t-75.5 32.5zM778 1090h-329v-205h329q35 0 61.5 22.5t32.5 59.5q2 4 2 20
q0 44 -27.5 73.5t-68.5 29.5z" />
    <glyph glyph-name="C" unicode="C" horiz-adv-x="1542" 
d="M811 1458q231 0 420 -115q185 -113 274 -307l-364 -133q-44 91 -132 144t-198 53q-154 0 -262 -111q-105 -108 -105 -270q0 -164 105 -275q108 -108 262 -108q110 0 198 52.5t132 143.5l364 -135q-89 -194 -274 -307q-186 -115 -420 -115q-322 0 -541 213
q-217 211 -217 529q0 317 217 528q219 213 541 213z" />
    <glyph glyph-name="D" unicode="D" horiz-adv-x="1482" 
d="M672 0h-598v1434h598q321 0 540 -207q218 -206 218 -510t-218 -510q-219 -207 -540 -207zM672 1090h-223v-746h223q156 0 260 107q106 106 106 266q0 158 -106 264q-106 109 -260 109z" />
    <glyph glyph-name="E" unicode="E" 
d="M74 1434h1083v-344h-708v-195h587v-344h-587v-207h718v-344h-1093v1434z" />
    <glyph glyph-name="F" unicode="F" horiz-adv-x="1198" 
d="M74 1434h1083v-344h-708v-203h587v-344h-587v-543h-375v1434z" />
    <glyph glyph-name="G" unicode="G" horiz-adv-x="1613" 
d="M53 717q0 318 221 530q220 211 547 211q234 0 418 -112q191 -116 281 -310l-365 -133q-47 92 -136 144.5t-198 52.5q-162 0 -270 -111q-107 -110 -107 -270q0 -162 105 -273q104 -110 260 -110q101 0 188 50.5t129 135.5h-370v301h796q9 -52 9 -84q0 -328 -215 -546
q-212 -218 -539 -218q-318 0 -535 211q-219 213 -219 531z" />
    <glyph glyph-name="H" unicode="H" horiz-adv-x="1435" 
d="M449 0h-375v1434h375v-539h538v539h375v-1434h-375v551h-538v-551z" />
    <glyph glyph-name="I" unicode="I" horiz-adv-x="522" 
d="M449 0h-375v1434h375v-1434z" />
    <glyph glyph-name="J" unicode="J" horiz-adv-x="1189" 
d="M1122 1434v-891q0 -243 -172 -406q-171 -162 -432 -162q-160 0 -294.5 69t-213.5 189l309 203q65 -117 207 -117q100 0 168 65.5t68 162.5v887h360z" />
    <glyph glyph-name="K" unicode="K" horiz-adv-x="1376" 
d="M74 0v1434h375v-519l407 519h473l-549 -699l590 -735h-473l-448 559v-559h-375z" />
    <glyph glyph-name="L" unicode="L" horiz-adv-x="1148" 
d="M74 1434h375v-1090h663v-344h-1038v1434z" />
    <glyph glyph-name="M" unicode="M" horiz-adv-x="1779" 
d="M440 0h-366v1434h366l451 -797l448 797h367v-1434h-367v743l-325 -600h-248l-326 598v-741z" />
    <glyph glyph-name="N" unicode="N" horiz-adv-x="1452" 
d="M434 0h-360v1434h334l610 -793v793h360v-1434h-334l-610 791v-791z" />
    <glyph glyph-name="O" unicode="O" horiz-adv-x="1622" 
d="M811 1458q322 0 541 -213q217 -211 217 -528q0 -318 -217 -529q-219 -213 -541 -213t-541 213q-217 211 -217 529q0 317 217 528q219 213 541 213zM444 719q0 -164 105 -275q108 -108 262 -108q158 0 262 110q107 110 107 273t-107 270q-108 111 -262 111t-262 -111
q-105 -108 -105 -270z" />
    <glyph glyph-name="P" unicode="P" horiz-adv-x="1312" 
d="M449 434v-434h-375v1434h659q232 0 385 -144q154 -142 154 -354q0 -214 -156 -358q-153 -144 -383 -144h-284zM733 1090h-284v-312h284q63 0 106.5 45.5t43.5 112.5q0 66 -43.5 110t-106.5 44z" />
    <glyph glyph-name="Q" unicode="Q" horiz-adv-x="1622" 
d="M811 -25q-322 0 -541 213q-217 211 -217 529q0 317 217 528q219 213 541 213t541 -213q217 -211 217 -528q0 -243 -135 -430l141 -142l-240 -239l-157 157q-163 -88 -367 -88zM444 719q0 -164 105 -275q108 -108 262 -108q34 0 86 10l-170 170l238 240l186 -187
q29 76 29 150q0 163 -107 270q-108 111 -262 111t-262 -111q-105 -108 -105 -270z" />
    <glyph glyph-name="R" unicode="R" horiz-adv-x="1372" 
d="M74 1434h680q232 0 385 -144q153 -141 153 -354q0 -134 -65 -245.5t-178 -178.5l292 -512h-415l-248 434h-229v-434h-375v1434zM754 1090h-305v-312h305q63 0 106 45.5t43 112.5q0 66 -43 110t-106 44z" />
    <glyph glyph-name="S" unicode="S" horiz-adv-x="1218" 
d="M1106 1108l-371 -74q-8 53 -79 75.5t-137.5 2t-61.5 -73.5q0 -24 14.5 -39t48.5 -36q59 -26 103 -37l137 -41q85 -26 144.5 -54.5t125.5 -76.5q141 -103 141 -312q0 -215 -149 -340q-151 -127 -391 -127q-221 0 -383 107t-209 278l381 78q12 -54 72 -89.5t141 -35.5
q70 0 117 26t47 67q0 40 -64 73q-78 40 -184 68q-154 49 -256 106q-100 59 -151 142.5t-58 212.5q0 200 137 325t359 125q199 0 342 -98q146 -99 184 -252z" />
    <glyph glyph-name="T" unicode="T" horiz-adv-x="1263" 
d="M444 1090h-407v344h1190v-344h-408v-1090h-375v1090z" />
    <glyph glyph-name="U" unicode="U" horiz-adv-x="1423" 
d="M981 588v846h375v-848q0 -258 -185 -434q-186 -177 -458 -177q-275 0 -461 177q-184 175 -184 434v848h374v-846q0 -117 76 -193t195 -76q114 0 190 76q78 78 78 193z" />
    <glyph glyph-name="V" unicode="V" horiz-adv-x="1490" 
d="M901 0h-309l-586 1434h391l351 -893l346 893h391z" />
    <glyph glyph-name="W" unicode="W" horiz-adv-x="2045" 
d="M793 0h-312l-475 1434h383l244 -824l235 824h310l239 -824l240 824h383l-475 -1434h-310l-231 776z" />
    <glyph glyph-name="X" unicode="X" horiz-adv-x="1482" 
d="M520 731l-493 703h446l268 -385l271 385h444l-491 -703l512 -731h-445l-291 414l-288 -414h-447z" />
    <glyph glyph-name="Y" unicode="Y" horiz-adv-x="1454" 
d="M535 0v592l-529 842h430l285 -488l299 488h428l-539 -830v-604h-374z" />
    <glyph glyph-name="Z" unicode="Z" horiz-adv-x="1275" 
d="M1219 344v-344h-1158v289l629 801h-622v344h1144v-287l-632 -803h639z" />
    <glyph glyph-name="bracketleft" unicode="[" horiz-adv-x="727" 
d="M412 -55h295v-303h-619v1996h619v-303h-295v-1390z" />
    <glyph glyph-name="backslash" unicode="\" horiz-adv-x="1220" 
d="M289 1638l932 -1996h-289l-932 1996h289z" />
    <glyph glyph-name="bracketright" unicode="]" horiz-adv-x="727" 
d="M639 -358h-619v303h295v1390h-295v303h619v-1996z" />
    <glyph glyph-name="asciicircum" unicode="^" horiz-adv-x="1228" 
d="M102 696l369 738h289l366 -732h-354l-156 320l-161 -326h-353z" />
    <glyph glyph-name="underscore" unicode="_" horiz-adv-x="477" 
d="M0 -401v299h477v-299h-477z" />
    <glyph glyph-name="grave" unicode="`" horiz-adv-x="729" 
d="M555 1442l-487 205l147 256l447 -285z" />
    <glyph glyph-name="a" unicode="a" 
d="M526 1090q143 0 265 -84v59h358v-1065h-358v59q-122 -84 -265 -84q-208 0 -350 160q-139 160 -139 397q0 238 139 398q142 160 350 160zM786 535q0 86 -54.5 144t-133.5 58q-78 0 -132 -58t-54 -144t54 -146.5t132 -60.5t133 60t55 147z" />
    <glyph glyph-name="b" unicode="b" 
d="M63 0v1536h359v-530q122 84 264 84q209 0 348 -160q142 -160 142 -398q0 -237 -142 -397q-139 -160 -348 -160q-142 0 -264 84v-59h-359zM426 535q0 -87 55 -147t133 -60t133.5 60t55.5 147q0 86 -55 144t-134 58t-133.5 -58t-54.5 -144z" />
    <glyph glyph-name="c" unicode="c" horiz-adv-x="1177" 
d="M1161 707l-360 -107q-24 63 -74.5 100t-116.5 37q-85 0 -141.5 -57.5t-56.5 -142.5q0 -88 57 -148.5t141 -60.5q66 0 116.5 37t74.5 100l360 -107q-57 -169 -209 -278q-147 -105 -342 -105q-244 0 -409 160q-164 159 -164 397q0 239 164 398q165 160 409 160
q196 0 342 -107q151 -106 209 -276z" />
    <glyph glyph-name="d" unicode="d" 
d="M526 1090q143 0 265 -84v530h358v-1536h-358v59q-122 -84 -265 -84q-208 0 -350 160q-139 160 -139 397q0 238 139 398q142 160 350 160zM786 535q0 86 -54.5 144t-133.5 58q-78 0 -132 -58t-54 -144t54 -146.5t132 -60.5t133 60t55 147z" />
    <glyph glyph-name="e" unicode="e" horiz-adv-x="1206" 
d="M1161 406h-739q25 -64 80 -102t127 -38q106 0 172 78l344 -63q-70 -141 -208.5 -223.5t-313.5 -82.5q-249 0 -420 160q-166 163 -166 397q0 237 164 396q162 162 405 162q244 0 406 -162q164 -159 164 -396q0 -68 -15 -126zM422 664h389q-23 62 -76.5 98.5t-120.5 36.5
q-63 0 -116 -37t-76 -98z" />
    <glyph glyph-name="f" unicode="f" horiz-adv-x="741" 
d="M516 1122v-57h211v-297h-211v-768h-358v768h-144v297h144v106q0 155 121 261q122 104 303 104h145v-328h-111q-42 0 -71 -25t-29 -61z" />
    <glyph glyph-name="g" unicode="g" 
d="M526 -25q-208 0 -350 160q-139 160 -139 397q0 238 139 398q142 160 350 160q143 0 265 -84v59h358v-1049q0 -210 -158 -356q-157 -145 -389 -145q-192 0 -338 98q-143 94 -194 248l350 71q24 -39 72 -63.5t104 -24.5q82 0 138.5 47.5t56.5 118.5v49q-122 -84 -265 -84z
M598 737q-78 0 -132 -59.5t-54 -147.5q0 -85 54 -143.5t132 -58.5t133 58.5t55 143.5q0 88 -54 147.5t-134 59.5z" />
    <glyph glyph-name="h" unicode="h" horiz-adv-x="1148" 
d="M63 0v1536h359v-557q108 111 266 111q167 0 281 -117q116 -116 116 -287v-686h-358v598q0 69 -43 115.5t-109 46.5t-109.5 -46.5t-43.5 -115.5v-598h-359z" />
    <glyph glyph-name="i" unicode="i" horiz-adv-x="485" 
d="M422 0h-359v1065h359v-1065zM242 1552q93 0 155 -62t62 -155q0 -92 -61.5 -153.5t-155.5 -61.5q-91 0 -153 61.5t-62 153.5t62 154.5t153 62.5z" />
    <glyph glyph-name="j" unicode="j" horiz-adv-x="493" 
d="M74 1065h358v-1157q0 -155 -125 -262t-307 -107h-102v342h73q45 0 74 21.5t29 56.5v1106zM98 1182q-61 61 -61 153q0 93 61 154q63 63 156 63q94 0 154 -63q61 -61 61 -154q0 -92 -61 -153q-62 -62 -154 -62q-91 0 -156 62z" />
    <glyph glyph-name="k" unicode="k" horiz-adv-x="1122" 
d="M63 0v1536h359v-840l246 369h417l-340 -514l371 -551h-424l-270 406v-406h-359z" />
    <glyph glyph-name="l" unicode="l" horiz-adv-x="485" 
d="M422 0h-359v1536h359v-1536z" />
    <glyph glyph-name="m" unicode="m" horiz-adv-x="1746" 
d="M422 0h-359v1065h359v-82q101 104 252 104q197 0 311 -153q102 153 303 153q165 0 279 -114q116 -113 116 -281v-692h-358v604q0 66 -39 111t-96 45t-97 -45t-40 -111v-604h-359v604q0 66 -39 111t-96 45t-97 -45t-40 -111v-604z" />
    <glyph glyph-name="n" unicode="n" horiz-adv-x="1142" 
d="M63 0v1065h359v-86q102 111 264 111q165 0 279 -117t114 -287v-686h-358v598q0 69 -42.5 115.5t-105.5 46.5q-66 0 -108.5 -46.5t-42.5 -115.5v-598h-359z" />
    <glyph glyph-name="o" unicode="o" horiz-adv-x="1222" 
d="M201 135q-164 164 -164 397q0 237 164 396q162 162 409 162q248 0 410 -162q166 -159 166 -396q0 -234 -166 -397q-165 -160 -410 -160q-244 0 -409 160zM610 328q84 0 142.5 59.5t58.5 144.5t-58.5 145t-142.5 60q-82 0 -140 -60t-58 -145t58 -144.5t140 -59.5z" />
    <glyph glyph-name="p" unicode="p" 
d="M422 -461h-359v1526h359v-59q122 84 264 84q209 0 348 -160q142 -160 142 -398q0 -237 -142 -397q-139 -160 -348 -160q-142 0 -264 84v-520zM426 530q0 -85 55 -143.5t133 -58.5t133.5 59t55.5 143q0 88 -54.5 147.5t-134.5 59.5t-134 -59.5t-54 -147.5z" />
    <glyph glyph-name="q" unicode="q" 
d="M526 1090q143 0 265 -84v59h358v-1526h-358v520q-122 -84 -265 -84q-208 0 -350 160q-139 160 -139 397q0 238 139 398q142 160 350 160zM598 737q-78 0 -132 -59.5t-54 -147.5q0 -85 54 -143.5t132 -58.5t133 58.5t55 143.5q0 88 -54 147.5t-134 59.5z" />
    <glyph glyph-name="r" unicode="r" horiz-adv-x="739" 
d="M422 1065v-90q103 115 264 115q23 0 35 -3v-368q-47 35 -113 35q-80 0 -133 -54.5t-53 -136.5v-563h-359v1065h359z" />
    <glyph glyph-name="s" unicode="s" horiz-adv-x="991" 
d="M942 793l-324 -52q-21 74 -131 74q-94 0 -94 -45q0 -34 74 -55l162 -49q179 -55 254 -132.5t75 -203.5q0 -171 -119.5 -263t-336.5 -92q-208 0 -327.5 84.5t-143.5 241.5l323 45q24 -88 154 -88q108 0 108 53q0 40 -96 64l-170 43q-162 38 -232.5 113.5t-70.5 205.5
q0 178 119 265.5t330 87.5q197 0 312 -77.5t134 -219.5z" />
    <glyph glyph-name="t" unicode="t" horiz-adv-x="768" 
d="M14 754v311h140v203h358v-203h217v-311h-217v-330q0 -41 29 -68.5t73 -27.5h117v-328h-194q-163 0 -273 98t-110 244v412h-140z" />
    <glyph glyph-name="u" unicode="u" horiz-adv-x="1142" 
d="M63 379v686h359v-596q0 -71 42.5 -117.5t106.5 -46.5q63 0 106.5 47.5t43.5 116.5v596h358v-1065h-358v86q-102 -111 -264 -111q-165 0 -279 117q-115 118 -115 287z" />
    <glyph glyph-name="v" unicode="v" horiz-adv-x="1185" 
d="M418 0l-412 1065h369l219 -619l217 619h369l-412 -1065h-350z" />
    <glyph glyph-name="w" unicode="w" horiz-adv-x="1587" 
d="M662 0h-330l-326 1065h361l129 -504l131 504h334l131 -504l129 504h360l-326 -1065h-329l-131 477z" />
    <glyph glyph-name="x" unicode="x" horiz-adv-x="1198" 
d="M774 0l-176 276l-174 -276h-418l377 549l-352 516h418l149 -240l152 240h417l-352 -516l377 -549h-418z" />
    <glyph glyph-name="y" unicode="y" horiz-adv-x="1144" 
d="M401 -6l-395 1071h369l194 -590l201 590h369l-426 -1149q-78 -198 -211 -287.5t-348 -89.5h-33v342h33q186 0 247 113z" />
    <glyph glyph-name="z" unicode="z" horiz-adv-x="991" 
d="M51 0v236l385 503h-375v326h869v-236l-381 -503h391v-326h-889z" />
    <glyph glyph-name="braceleft" unicode="{" horiz-adv-x="765" 
d="M604 1638h141v-297h-106q-49 0 -81 -32t-32 -80v-281q0 -124 -62 -203t-175 -104q113 -26 175 -105.5t62 -203.5v-281q0 -48 32 -80t81 -32h106v-297h-141q-173 0 -287 114t-114 283v287q0 47 -42.5 89t-94.5 64l-46 17v286q5 1 64 27q119 65 119 145v287q0 169 114 283
t287 114z" />
    <glyph glyph-name="bar" unicode="|" horiz-adv-x="438" 
d="M350 -358h-262v1996h262v-1996z" />
    <glyph glyph-name="braceright" unicode="}" horiz-adv-x="765" 
d="M20 1341v297h142q173 0 287 -114q116 -113 116 -283v-287q0 -47 42 -90t93 -65l45 -17v-286q-20 -4 -63 -27q-52 -28 -84.5 -61.5t-32.5 -81.5v-287q0 -170 -116 -283q-114 -114 -287 -114h-142v297h109q47 0 80 32.5t33 79.5v281q0 124 61 203.5t174 105.5
q-113 25 -174 104t-61 203v281q0 47 -33 79.5t-80 32.5h-109z" />
    <glyph glyph-name="asciitilde" unicode="~" horiz-adv-x="1228" 
d="M782 502q-60 0 -125.5 31t-114 61.5t-69.5 30.5q-35 0 -59.5 -30.5t-24.5 -74.5h-287q3 176 101 295t243 119q47 0 98.5 -19t88 -41.5t71.5 -41.5t52 -19q35 0 59.5 30.5t24.5 74.5h286q-3 -179 -100 -297q-98 -119 -244 -119z" />
    <glyph glyph-name="exclamdown" unicode="&#xa1;" horiz-adv-x="522" 
d="M72 901q0 80 53.5 134.5t134.5 54.5t135 -54.5t54 -134.5q0 -82 -53.5 -136t-135.5 -54t-135 54t-53 136zM74 -369l43 969h289l43 -969h-375z" />
    <glyph glyph-name="cent" unicode="&#xa2;" horiz-adv-x="1177" 
d="M498 -47v217q-202 34 -332 186q-129 150 -129 361q0 210 129 360q131 153 332 187v217h227v-217q154 -29 270 -129t166 -244l-360 -107q-24 63 -74.5 100.5t-116.5 37.5q-84 0 -141 -58t-57 -143q0 -88 57 -148.5t141 -60.5q66 0 116.5 37t74.5 100l360 -106
q-50 -144 -166 -244t-270 -129v-217h-227z" />
    <glyph glyph-name="sterling" unicode="&#xa3;" horiz-adv-x="1308" 
d="M1196 0h-1141v344h150v238h-117v219h117v168q0 208 149 348q150 141 363 141q187 0 340 -108q155 -109 203 -269l-361 -98q-19 56 -69 93.5t-109 37.5q-63 0 -109.5 -42.5t-46.5 -102.5v-168h363v-219h-363v-238h631v-344z" />
    <glyph glyph-name="currency" unicode="&#xa4;" horiz-adv-x="1144" 
d="M272 238l-184 184l137 135q-35 78 -35 160q0 84 35 162l-137 137l184 184l138 -137q73 33 159 33q89 0 162 -33l141 137l185 -184l-142 -139q35 -75 35 -160t-35 -160l140 -137l-185 -184l-137 137q-78 -35 -164 -35q-84 0 -159 35zM453 717q0 -50 33.5 -84.5t82.5 -34.5
q51 0 85 34.5t34 84.5q0 51 -34 85t-85 34q-50 0 -83 -34t-33 -85z" />
    <glyph glyph-name="yen" unicode="&#xa5;" horiz-adv-x="1454" 
d="M297 647h205l-496 787h430l285 -488l299 488h428l-510 -787h209v-219h-238v-66h238v-219h-238v-143h-374v143h-238v219h238v66h-238v219z" />
    <glyph glyph-name="brokenbar" unicode="&#xa6;" horiz-adv-x="438" 
d="M350 1638v-831h-262v831h262zM88 -358v831h262v-831h-262z" />
    <glyph glyph-name="section" unicode="&#xa7;" horiz-adv-x="976" 
d="M487 -395q-173 0 -301 96t-155 248l321 78q8 -52 46.5 -85.5t93.5 -33.5q54 0 88 29t34 73q0 61 -59 88l-252 113q-117 51 -181.5 146t-64.5 216q0 130 78 234q-78 104 -78 237q0 175 123 295q122 119 312 119q159 0 277 -89t153 -232l-320 -86q-6 45 -37.5 73.5
t-75.5 28.5q-43 0 -71.5 -28.5t-28.5 -71.5q0 -63 49 -84l246 -101q91 -34 155 -103.5t90 -153.5t11 -178t-74 -173q80 -100 80 -237q0 -180 -131 -299q-128 -119 -328 -119zM551 584l-154 69q-20 -20 -20 -67q0 -69 47 -90l168 -76q22 22 22 61q0 77 -63 103z" />
    <glyph glyph-name="dieresis" unicode="&#xa8;" horiz-adv-x="915" 
d="M68 1606q0 72 49.5 122t122.5 50t122.5 -50t49.5 -122q0 -74 -49 -123t-123 -49t-123 49t-49 123zM504 1606q0 72 49 122t121 50q75 0 124.5 -49t49.5 -123t-49.5 -123t-124.5 -49q-72 0 -121 49.5t-49 122.5z" />
    <glyph glyph-name="copyright" unicode="&#xa9;" horiz-adv-x="1581" 
d="M791 1452q304 0 518 -217q217 -214 217 -518q0 -305 -215 -520t-520 -215q-306 0 -521 215t-215 520t215 520t521 215zM362 1145q-178 -178 -178 -428t178 -428t429 -178q250 0 428 178t178 428t-178 428t-428 178q-251 0 -429 -178zM803 1133q133 0 238.5 -64
t156.5 -174l-213 -76q-55 107 -182 107q-86 0 -144.5 -59.5t-58.5 -147.5t58.5 -148.5t144.5 -60.5q127 0 182 104l213 -75q-51 -110 -156.5 -174t-238.5 -64q-182 0 -307 119q-123 120 -123 297q0 175 123 295q127 121 307 121z" />
    <glyph glyph-name="ordfeminine" unicode="&#xaa;" horiz-adv-x="837" 
d="M352 1446q102 0 180 -60v48h269v-746h-269v47q-77 -59 -180 -59q-143 0 -237 110q-97 114 -97 275q0 160 97 274q94 111 237 111zM494 1149q-32 37 -79.5 37t-82.5 -37q-32 -35 -32 -86.5t32 -89.5q35 -37 82.5 -37t79.5 37q35 38 35 89.5t-35 86.5z" />
    <glyph glyph-name="guillemotleft" unicode="&#xab;" horiz-adv-x="1204" 
d="M461 115l-420 417l420 418l198 -196l-221 -222l221 -219zM954 115l-419 417l419 418l199 -196l-221 -222l221 -219z" />
    <glyph glyph-name="logicalnot" unicode="&#xac;" horiz-adv-x="1228" 
d="M827 293v268h-725v313h1024v-581h-299z" />
    <glyph glyph-name="uni00AD" unicode="&#xad;" horiz-adv-x="819" 
d="M102 377v313h615v-313h-615z" />
    <glyph glyph-name="registered" unicode="&#xae;" horiz-adv-x="1581" 
d="M791 1452q304 0 518 -217q217 -214 217 -518q0 -305 -215 -520t-520 -215q-306 0 -521 215t-215 520t215 520t521 215zM362 289q178 -178 429 -178q250 0 428 178t178 428t-178 428t-428 178q-251 0 -429 -178t-178 -428t178 -428zM674 311h-219v811h385q133 0 221 -82
t88 -204q0 -156 -135 -238l162 -287h-244l-135 240h-123v-240zM840 922h-166v-170h166q35 0 59.5 24.5t24.5 59.5q0 37 -23.5 61.5t-60.5 24.5z" />
    <glyph glyph-name="overscore" unicode="&#xaf;" horiz-adv-x="780" 
d="M713 1493h-645v246h645v-246z" />
    <glyph glyph-name="degree" unicode="&#xb0;" horiz-adv-x="866" 
d="M434 1561q168 0 275 -113q110 -113 110 -281q0 -169 -110 -282q-108 -111 -275 -111q-163 0 -276 113q-111 114 -111 280q0 167 111 281q113 113 276 113zM319 1167q0 -49 32.5 -81.5t82.5 -32.5q48 0 81.5 32.5t33.5 81.5q0 47 -34 81t-81 34q-49 0 -82 -33.5t-33 -81.5
z" />
    <glyph glyph-name="plusminus" unicode="&#xb1;" horiz-adv-x="1228" 
d="M459 696h-357v314h357v354h313v-354h354v-314h-354v-264h-313v264zM102 53v314h1024v-314h-1024z" />
    <glyph glyph-name="twosuperior" unicode="&#xb2;" horiz-adv-x="653" 
d="M395 1290q0 23 -22 39.5t-51 16.5q-77 0 -115 -93l-195 95q43 92 125.5 145t184.5 53q124 0 206 -73q86 -74 86 -177q0 -125 -176 -278l-78 -70h258v-200h-579v155l274 252q82 73 82 135z" />
    <glyph glyph-name="threesuperior" unicode="&#xb3;" horiz-adv-x="665" 
d="M397 1288q0 25 -24 41.5t-64 16.5q-76 0 -100 -52l-186 62q37 86 118.5 138t184.5 52q124 0 206 -73q84 -72 84 -183q0 -84 -71 -131q94 -52 94 -158q0 -112 -88 -188t-221 -76q-114 0 -199 57.5t-115 151.5l197 68q-3 -46 51.5 -64.5t108 -1t47.5 57.5q0 30 -27 48.5
t-69 18.5h-62v154h37q43 0 70.5 16.5t27.5 44.5z" />
    <glyph glyph-name="acute" unicode="&#xb4;" horiz-adv-x="729" 
d="M174 1442l-106 176l446 285l148 -256z" />
    <glyph glyph-name="mu" unicode="&#xb5;" horiz-adv-x="1142" 
d="M457 -25q-43 0 -78 9v-445h-316v1526h359v-596q0 -71 42.5 -117.5t106.5 -46.5q63 0 106.5 47.5t43.5 116.5v596h358v-1065h-358v86q-102 -111 -264 -111z" />
    <glyph glyph-name="paragraph" unicode="&#xb6;" horiz-adv-x="1466" 
d="M506 1434h915v-254h-190v-1538h-260v1538h-205v-1538h-260v899q-192 0 -322 127q-127 130 -127 319q0 191 127 318q129 129 322 129z" />
    <glyph glyph-name="middot" unicode="&#xb7;" horiz-adv-x="462" 
d="M43 717q0 79 54.5 133.5t133.5 54.5q81 0 135 -54t54 -134q0 -82 -53.5 -135.5t-135.5 -53.5q-80 0 -134 54t-54 135z" />
    <glyph glyph-name="cedilla" unicode="&#xb8;" horiz-adv-x="649" 
d="M188 -170l43 170h228l-17 -72q6 -1 15.5 -4t33.5 -15.5t42.5 -30t33.5 -50.5t15 -74q0 -98 -80 -163.5t-197 -65.5q-58 0 -118 19t-93 42l-26 19l28 145q53 -47 140 -47q50 0 84 16.5t34 42.5q0 24 -39 41.5t-86 22.5z" />
    <glyph glyph-name="onesuperior" unicode="&#xb9;" horiz-adv-x="509" 
d="M219 1300l-119 -53l-75 176l251 113h152v-788h-209v552z" />
    <glyph glyph-name="ordmasculine" unicode="&#xba;" horiz-adv-x="845" 
d="M135 786q-117 114 -117 275t117 272q116 113 289 113q174 0 287 -113q116 -110 116 -272t-116 -275q-113 -110 -287 -110q-173 0 -289 110zM424 936q49 0 86 37.5t37 87.5t-37 87.5t-86 37.5q-51 0 -88 -37.5t-37 -87.5t37 -87.5t88 -37.5z" />
    <glyph glyph-name="guillemotright" unicode="&#xbb;" horiz-adv-x="1204" 
d="M743 950l420 -418l-420 -417l-198 198l221 219l-221 222zM250 950l420 -418l-420 -417l-197 198l219 219l-219 222z" />
    <glyph glyph-name="onequarter" unicode="&#xbc;" horiz-adv-x="1701" 
d="M1391 479l-123 -143h123v143zM1391 0v135h-371v201l379 452h200v-452h82v-201h-82v-135h-208zM219 645v553l-119 -53l-75 176l251 113h152v-789h-209zM1450 1434l-1008 -1434h-288l1005 1434h291z" />
    <glyph glyph-name="onehalf" unicode="&#xbd;" horiz-adv-x="1755" 
d="M442 0h-288l1005 1434h291zM1309 506l-195 94q43 92 126 145.5t183 53.5q124 0 207 -74q86 -74 86 -176q0 -126 -176 -279l-76 -69h256v-201h-579v156l276 252q80 74 80 135q0 23 -21.5 39t-52.5 16q-73 0 -114 -92zM100 1145l-75 176l251 113h152v-789h-209v553z" />
    <glyph glyph-name="threequarters" unicode="&#xbe;" horiz-adv-x="1826" 
d="M565 0h-291l1006 1434h291zM1143 135v201l381 452h200v-452h80v-201h-80v-135h-211v135h-370zM330 635q-114 0 -199 57.5t-115 151.5l197 67q-3 -46 51.5 -64.5t108 -1t47.5 57.5q0 30 -27 49t-69 19h-62v153h37q42 0 70 16.5t28 45.5q0 25 -23.5 41t-64.5 16
q-77 0 -100 -51l-186 61q37 86 118.5 138.5t184.5 52.5q123 0 206 -74q84 -72 84 -182q0 -84 -71 -131q94 -52 94 -158q0 -112 -88 -188t-221 -76zM1513 479l-120 -143h120v143z" />
    <glyph glyph-name="questiondown" unicode="&#xbf;" horiz-adv-x="1249" 
d="M440 72q0 -57 58.5 -97.5t144.5 -40.5q75 0 131.5 34.5t73.5 90.5l362 -98q-53 -167 -204 -268q-151 -103 -357 -103q-243 0 -407 138q-162 137 -162 346q0 94 38 174t97 125q114 85 211 110l39 9l16 90h297l39 -285q-37 -4 -131 -33q-62 -17 -115 -43q-54 -25 -92.5 -66
t-38.5 -83zM838 887q0 -88 -58.5 -147.5t-146.5 -59.5t-146.5 59.5t-58.5 147.5q0 86 58.5 144.5t146.5 58.5t146.5 -58.5t58.5 -144.5z" />
    <glyph glyph-name="Agrave" unicode="&#xc0;" horiz-adv-x="1511" 
d="M397 0h-391l596 1434h309l594 -1434h-391l-84 213h-547zM967 1706l-107 -176l-487 205l147 256zM758 899l-144 -356h285z" />
    <glyph glyph-name="Aacute" unicode="&#xc1;" horiz-adv-x="1511" 
d="M483 213l-86 -213h-391l596 1434h309l594 -1434h-391l-84 213h-547zM1135 1735l-488 -205l-106 176l446 285zM758 899l-144 -356h285z" />
    <glyph glyph-name="Acircumflex" unicode="&#xc2;" horiz-adv-x="1511" 
d="M483 213l-86 -213h-391l596 1434h309l594 -1434h-391l-84 213h-547zM471 1513l-115 175l394 284h14l391 -284l-113 -172l-286 161zM758 899l-144 -356h285z" />
    <glyph glyph-name="Atilde" unicode="&#xc3;" horiz-adv-x="1511" 
d="M483 213l-86 -213h-391l596 1434h309l594 -1434h-391l-84 213h-547zM592 1567h-213q0 113 76 198q77 86 186 86q69 0 131 -45q64 -43 84 -43q25 0 44.5 23t19.5 53h213q0 -121 -76 -203t-183 -82q-69 0 -133 43q-62 45 -84 45q-27 0 -46 -21.5t-19 -53.5zM758 899
l-144 -356h285z" />
    <glyph glyph-name="Adieresis" unicode="&#xc4;" horiz-adv-x="1511" 
d="M483 213l-86 -213h-391l596 1434h309l594 -1434h-391l-84 213h-547zM416 1817q50 49 123 49t123 -49t50 -123t-50 -123t-123 -49t-123 49t-50 123t50 123zM973 1866q74 0 124 -49.5t50 -122.5t-50 -122.5t-124 -49.5q-72 0 -121 49.5t-49 122.5t49 122.5t121 49.5z
M758 899l-144 -356h285z" />
    <glyph glyph-name="Aring" unicode="&#xc5;" horiz-adv-x="1511" 
d="M483 213l-86 -213h-391l596 1434h309l594 -1434h-391l-84 213h-547zM756 1522q-109 0 -185 73q-73 76 -73 185q0 107 75 182q76 76 183 76q106 0 182 -76t76 -182q0 -107 -76 -183q-75 -75 -182 -75zM758 899l-144 -356h285zM713 1735q17 -17 43 -17t43 17q19 19 19 45
t-19 43q-17 17 -43 17t-43 -17t-17 -43t17 -45z" />
    <glyph glyph-name="AE" unicode="&#xc6;" horiz-adv-x="2093" 
d="M424 0h-418l832 1434h1194v-344h-648v-195h525v-344h-525v-207h658v-344h-1032v213h-467zM727 543h283v504z" />
    <glyph glyph-name="Ccedilla" unicode="&#xc7;" horiz-adv-x="1542" 
d="M53 717q0 317 217 528q219 213 541 213q231 0 420 -115q185 -113 274 -307l-364 -133q-44 91 -132 144t-198 53q-154 0 -262 -111q-105 -108 -105 -270q0 -164 105 -275q108 -108 262 -108q110 0 198 52.5t132 143.5l364 -135q-75 -162 -223.5 -271t-337.5 -140l-12 -58
q3 0 15.5 -4t33.5 -16t40.5 -30t33.5 -50.5t14 -73.5q0 -99 -78.5 -164t-197.5 -65q-57 0 -117.5 19.5t-89.5 41.5l-29 19l29 145q53 -47 139 -47q50 0 84.5 16.5t34.5 42.5q0 24 -38 41.5t-85 22.5l-43 4l39 152q-293 35 -477 237q-187 205 -187 498z" />
    <glyph glyph-name="Egrave" unicode="&#xc8;" 
d="M74 0v1434h1083v-344h-708v-195h587v-344h-587v-207h718v-344h-1093zM821 1706l-106 -176l-488 205l148 256z" />
    <glyph glyph-name="Eacute" unicode="&#xc9;" 
d="M74 1434h1083v-344h-708v-195h587v-344h-587v-207h718v-344h-1093v1434zM987 1735l-485 -205l-109 176l447 285z" />
    <glyph glyph-name="Ecircumflex" unicode="&#xca;" 
d="M74 0v1434h1083v-344h-708v-195h587v-344h-587v-207h718v-344h-1093zM326 1513l-115 175l393 284h12l394 -284l-113 -172l-287 161z" />
    <glyph glyph-name="Edieresis" unicode="&#xcb;" 
d="M1167 0h-1093v1434h1083v-344h-708v-195h587v-344h-587v-207h718v-344zM391 1522q-72 0 -121 49.5t-49 122.5t49 122.5t121 49.5q75 0 123.5 -49t48.5 -123t-48.5 -123t-123.5 -49zM827 1866q73 0 122.5 -49t49.5 -123t-49.5 -123t-122.5 -49q-72 0 -121 49.5t-49 122.5
t49 122.5t121 49.5z" />
    <glyph glyph-name="Igrave" unicode="&#xcc;" horiz-adv-x="522" 
d="M449 0h-375v1434h375v-1434zM367 1530l-488 205l148 256l446 -285z" />
    <glyph glyph-name="Iacute" unicode="&#xcd;" horiz-adv-x="522" 
d="M449 0h-375v1434h375v-1434zM154 1530l-109 176l447 285l147 -256z" />
    <glyph glyph-name="Icircumflex" unicode="&#xce;" horiz-adv-x="522" 
d="M449 0h-375v1434h375v-1434zM262 1677l-287 -164l-112 175l393 284h12l394 -284l-113 -172z" />
    <glyph glyph-name="Idieresis" unicode="&#xcf;" horiz-adv-x="522" 
d="M449 0h-375v1434h375v-1434zM43 1866q75 0 123.5 -49t48.5 -123t-48.5 -123t-123.5 -49q-72 0 -122 49.5t-50 122.5t50 122.5t122 49.5zM479 1866q73 0 122.5 -49t49.5 -123t-49.5 -123t-122.5 -49q-72 0 -121 49.5t-49 122.5t49 122.5t121 49.5z" />
    <glyph glyph-name="Eth" unicode="&#xd0;" horiz-adv-x="1552" 
d="M14 569v295h129v570h598q320 0 539 -207q217 -205 217 -510t-217 -510q-219 -207 -539 -207h-598v569h-129zM518 1090v-226h303v-295h-303v-225h223q156 0 260 107q107 107 107 266q0 157 -107 264q-106 109 -260 109h-223z" />
    <glyph glyph-name="Ntilde" unicode="&#xd1;" horiz-adv-x="1452" 
d="M74 0v1434h334l610 -793v793h360v-1434h-334l-610 791v-791h-360zM563 1567h-213q0 113 76 198q77 86 186 86q69 0 131 -45q64 -43 84 -43q25 0 44.5 23t19.5 53h213q0 -121 -76 -203t-182 -82q-71 0 -135 43q-62 45 -82 45q-29 0 -47.5 -21.5t-18.5 -53.5z" />
    <glyph glyph-name="Ograve" unicode="&#xd2;" horiz-adv-x="1622" 
d="M811 1458q322 0 541 -213q217 -211 217 -528q0 -318 -217 -529q-219 -213 -541 -213t-541 213q-217 211 -217 529q0 317 217 528q219 213 541 213zM444 719q0 -164 105 -275q108 -108 262 -108q158 0 262 110q107 110 107 273t-107 270q-108 111 -262 111t-262 -111
q-105 -108 -105 -270zM915 1530l-487 205l147 256l447 -285z" />
    <glyph glyph-name="Oacute" unicode="&#xd3;" horiz-adv-x="1622" 
d="M811 1458q322 0 541 -213q217 -211 217 -528q0 -318 -217 -529q-219 -213 -541 -213t-541 213q-217 211 -217 529q0 317 217 528q219 213 541 213zM444 719q0 -164 105 -275q108 -108 262 -108q158 0 262 110q107 110 107 273t-107 270q-108 111 -262 111t-262 -111
q-105 -108 -105 -270zM702 1530l-106 176l446 285l148 -256z" />
    <glyph glyph-name="Ocircumflex" unicode="&#xd4;" horiz-adv-x="1622" 
d="M811 1458q322 0 541 -213q217 -211 217 -528q0 -318 -217 -529q-219 -213 -541 -213t-541 213q-217 211 -217 529q0 317 217 528q219 213 541 213zM444 719q0 -164 105 -275q108 -108 262 -108q158 0 262 110q107 110 107 273t-107 270q-108 111 -262 111t-262 -111
q-105 -108 -105 -270zM811 1677l-285 -164l-114 175l393 284h14l391 -284l-112 -172z" />
    <glyph glyph-name="Otilde" unicode="&#xd5;" horiz-adv-x="1622" 
d="M811 1458q322 0 541 -213q217 -211 217 -528q0 -318 -217 -529q-219 -213 -541 -213t-541 213q-217 211 -217 529q0 317 217 528q219 213 541 213zM444 719q0 -164 105 -275q108 -108 262 -108q158 0 262 110q107 110 107 273t-107 270q-108 111 -262 111t-262 -111
q-105 -108 -105 -270zM647 1567h-213q0 113 76 198q77 86 186 86q69 0 131 -45q64 -43 84 -43q25 0 44.5 23t19.5 53h213q0 -121 -76 -203t-182 -82q-71 0 -135 43q-62 45 -82 45q-27 0 -46.5 -21.5t-19.5 -53.5z" />
    <glyph glyph-name="Odieresis" unicode="&#xd6;" horiz-adv-x="1622" 
d="M811 1458q322 0 541 -213q217 -211 217 -528q0 -318 -217 -529q-219 -213 -541 -213t-541 213q-217 211 -217 529q0 317 217 528q219 213 541 213zM444 719q0 -164 105 -275q108 -108 262 -108q158 0 262 110q107 110 107 273t-107 270q-108 111 -262 111t-262 -111
q-105 -108 -105 -270zM592 1866q75 0 123.5 -49t48.5 -123t-48.5 -123t-123.5 -49q-72 0 -121 49.5t-49 122.5t49 122.5t121 49.5zM1028 1866q74 0 123 -49t49 -123t-49 -123t-123 -49q-72 0 -121 49.5t-49 122.5t49 122.5t121 49.5z" />
    <glyph glyph-name="multiply" unicode="&#xd7;" horiz-adv-x="1228" 
d="M389 717l-297 295l223 223l299 -295l299 299l224 -223l-299 -297l299 -297l-224 -223l-299 297l-299 -297l-223 223z" />
    <glyph glyph-name="Oslash" unicode="&#xd8;" horiz-adv-x="1622" 
d="M260 68l57 82q-125 100 -194.5 248t-69.5 319q0 317 217 528q219 213 541 213q187 0 360 -84l60 84l133 -94l-57 -80q124 -104 193 -251t69 -316q0 -318 -217 -529q-219 -213 -541 -213q-192 0 -358 84l-60 -84zM1090 973l-424 -608q73 -29 145 -29q158 0 262 110
q107 110 107 273q0 144 -90 254zM537 461l421 608q-70 31 -147 31q-154 0 -262 -111q-105 -108 -105 -270q0 -151 93 -258z" />
    <glyph glyph-name="Ugrave" unicode="&#xd9;" horiz-adv-x="1423" 
d="M981 588v846h375v-848q0 -258 -185 -434q-186 -177 -458 -177q-275 0 -461 177q-184 175 -184 434v848h374v-846q0 -117 76 -193t195 -76q114 0 190 76q78 78 78 193zM815 1530l-487 205l147 256l447 -285z" />
    <glyph glyph-name="Uacute" unicode="&#xda;" horiz-adv-x="1423" 
d="M981 588v846h375v-848q0 -258 -185 -434q-186 -177 -458 -177q-275 0 -461 177q-184 175 -184 434v848h374v-846q0 -117 76 -193t195 -76q114 0 190 76q78 78 78 193zM602 1530l-106 176l446 285l148 -256z" />
    <glyph glyph-name="Ucircumflex" unicode="&#xdb;" horiz-adv-x="1423" 
d="M981 588v846h375v-848q0 -258 -185 -434q-186 -177 -458 -177q-275 0 -461 177q-184 175 -184 434v848h374v-846q0 -117 76 -193t195 -76q114 0 190 76q78 78 78 193zM713 1677l-287 -164l-113 175l392 284h14l393 -284l-115 -172z" />
    <glyph glyph-name="Udieresis" unicode="&#xdc;" horiz-adv-x="1423" 
d="M981 588v846h375v-848q0 -258 -185 -434q-186 -177 -458 -177q-275 0 -461 177q-184 175 -184 434v848h374v-846q0 -117 76 -193t195 -76q114 0 190 76q78 78 78 193zM371 1571q-49 49 -49 123t49 123t122 49t123 -49t50 -123t-50 -123t-123 -49t-122 49zM807 1571
q-49 49 -49 123t49 123t123 49t123 -49t49 -123t-49 -123t-123 -49t-123 49z" />
    <glyph glyph-name="Yacute" unicode="&#xdd;" horiz-adv-x="1454" 
d="M535 0v592l-529 842h430l285 -488l299 488h428l-539 -830v-604h-374zM1106 1735l-488 -205l-106 176l446 285z" />
    <glyph glyph-name="Thorn" unicode="&#xde;" horiz-adv-x="1312" 
d="M74 0v1434h375v-217h284q230 0 383 -144q156 -144 156 -356q0 -213 -156 -357q-152 -143 -383 -143h-284v-217h-375zM733 872h-284v-311h284q63 0 106.5 45t43.5 111t-43.5 110.5t-106.5 44.5z" />
    <glyph glyph-name="germandbls" unicode="&#xdf;" horiz-adv-x="1216" 
d="M555 1214q-57 0 -95 -35t-38 -89v-1090h-359v1149q0 174 140 293q141 117 350 117q201 0 332 -107q133 -106 133 -264q0 -45 -17.5 -94.5t-34 -76.5t-46.5 -71q-63 -87 -2 -160q22 -26 78.5 -75t82.5 -76q46 -46 75.5 -120.5t29.5 -162.5q0 -198 -146.5 -285t-476.5 -87
v346q152 0 207 14.5t55 52.5q0 25 -22 50t-54.5 44.5t-71 50t-71 65t-54.5 91t-22 125.5q0 60 20 117.5t44.5 92t44.5 66.5t20 48q0 31 -29.5 51t-72.5 20z" />
    <glyph glyph-name="agrave" unicode="&#xe0;" 
d="M526 -25q-208 0 -350 160q-139 160 -139 397q0 238 139 398q142 160 350 160q143 0 265 -84v59h358v-1065h-358v59q-122 -84 -265 -84zM786 535q0 86 -54.5 144t-133.5 58q-78 0 -132 -58t-54 -144t54 -146.5t132 -60.5t133 60t55 147zM831 1358l-106 -176l-487 204
l147 256z" />
    <glyph glyph-name="aacute" unicode="&#xe1;" 
d="M526 -25q-208 0 -350 160q-139 160 -139 397q0 238 139 398q142 160 350 160q143 0 265 -84v59h358v-1065h-358v59q-122 -84 -265 -84zM786 535q0 86 -54.5 144t-133.5 58q-78 0 -132 -58t-54 -144t54 -146.5t132 -60.5t133 60t55 147zM999 1386l-487 -204l-106 176
l446 284z" />
    <glyph glyph-name="acircumflex" unicode="&#xe2;" 
d="M526 -25q-208 0 -350 160q-139 160 -139 397q0 238 139 398q142 160 350 160q143 0 265 -84v59h358v-1065h-358v59q-122 -84 -265 -84zM336 1165l-113 174l391 285h15l393 -285l-115 -172l-284 162zM786 535q0 86 -54.5 144t-133.5 58q-78 0 -132 -58t-54 -144t54 -146.5
t132 -60.5t133 60t55 147z" />
    <glyph glyph-name="atilde" unicode="&#xe3;" 
d="M526 -25q-208 0 -350 160q-139 160 -139 397q0 238 139 398q142 160 350 160q143 0 265 -84v59h358v-1065h-358v59q-122 -84 -265 -84zM459 1219h-215q0 114 75 198q77 86 187 86q69 0 131 -45q64 -43 84 -43q25 0 44 22.5t19 53.5h213q0 -122 -75 -203q-76 -82 -183 -82
q-69 0 -133 43q-62 45 -84 45q-26 0 -44.5 -21.5t-18.5 -53.5zM786 535q0 86 -54.5 144t-133.5 58q-78 0 -132 -58t-54 -144t54 -146.5t132 -60.5t133 60t55 147z" />
    <glyph glyph-name="adieresis" unicode="&#xe4;" 
d="M526 -25q-208 0 -350 160q-139 160 -139 397q0 238 139 398q142 160 350 160q143 0 265 -84v59h358v-1065h-358v59q-122 -84 -265 -84zM786 535q0 86 -54.5 144t-133.5 58q-78 0 -132 -58t-54 -144t54 -146.5t132 -60.5t133 60t55 147zM838 1518q75 0 124.5 -49
t49.5 -123t-49.5 -123t-124.5 -49q-72 0 -121 49.5t-49 122.5t49 122.5t121 49.5zM526 1223q-50 -49 -123 -49t-122 49t-49 122t49 123t122 50t123 -50t50 -123t-50 -122z" />
    <glyph glyph-name="aring" unicode="&#xe5;" 
d="M526 -25q-208 0 -350 160q-139 160 -139 397q0 238 139 398q142 160 350 160q143 0 265 -84v59h358v-1065h-358v59q-122 -84 -265 -84zM365 1432q0 107 75 182q76 76 183 76q104 0 180 -76q78 -78 78 -182q0 -105 -78 -183q-75 -75 -180 -75q-107 0 -183 73
q-75 75 -75 185zM786 535q0 86 -54.5 144t-133.5 58q-78 0 -132 -58t-54 -144t54 -146.5t132 -60.5t133 60t55 147zM578 1475q-17 -17 -17 -43.5t17 -45.5q19 -17 45 -17t43 17q19 21 17 46.5t-19 40t-40 19t-46 -16.5z" />
    <glyph glyph-name="ae" unicode="&#xe6;" horiz-adv-x="1959" 
d="M520 -25q-205 0 -344 160t-139 397q0 238 139 398t344 160q152 0 271 -93v68h358v-55q124 77 268 77q218 0 365 -159t147 -396q0 -74 -14 -126h-739q24 -64 79.5 -102t128.5 -38q104 0 170 78l347 -65q-64 -139 -188.5 -221.5t-280.5 -82.5q-158 0 -283 82v-57h-358v68
q-119 -93 -271 -93zM786 535q0 86 -54.5 144t-133.5 58q-78 0 -132 -58t-54 -144t54 -146.5t132 -60.5t133 60t55 147zM1176 664h391q-23 62 -76.5 98.5t-120.5 36.5q-65 0 -117 -36.5t-77 -98.5z" />
    <glyph glyph-name="ccedilla" unicode="&#xe7;" horiz-adv-x="1177" 
d="M475 -170l37 154q-211 35 -342 184q-133 154 -133 364q0 239 164 398q165 160 409 160q196 0 342 -107q151 -106 209 -276l-360 -107q-24 63 -74.5 100t-116.5 37q-85 0 -141.5 -57.5t-56.5 -142.5q0 -88 57 -148.5t141 -60.5q66 0 116.5 37t74.5 100l360 -107
q-47 -139 -158.5 -237.5t-259.5 -130.5l-16 -62q6 -1 15 -4t33 -15.5t42.5 -30t33.5 -50.5t15 -74q0 -99 -78.5 -164t-197.5 -65q-57 0 -116.5 19t-92.5 42l-27 19l29 145q53 -47 139 -47q50 0 84.5 16.5t34.5 42.5q0 24 -39 41.5t-86 22.5z" />
    <glyph glyph-name="egrave" unicode="&#xe8;" horiz-adv-x="1206" 
d="M1161 406h-739q25 -64 80 -102t127 -38q106 0 172 78l344 -63q-70 -141 -208.5 -223.5t-313.5 -82.5q-249 0 -420 160q-166 163 -166 397q0 237 164 396q162 162 405 162q244 0 406 -162q164 -159 164 -396q0 -68 -15 -126zM422 664h389q-23 62 -76.5 98.5t-120.5 36.5
q-63 0 -116 -37t-76 -98zM717 1182l-488 204l148 256l446 -284z" />
    <glyph glyph-name="eacute" unicode="&#xe9;" horiz-adv-x="1206" 
d="M1161 406h-739q25 -64 80 -102t127 -38q106 0 172 78l344 -63q-70 -141 -208.5 -223.5t-313.5 -82.5q-249 0 -420 160q-166 163 -166 397q0 237 164 396q162 162 405 162q244 0 406 -162q164 -159 164 -396q0 -68 -15 -126zM422 664h389q-23 62 -76.5 98.5t-120.5 36.5
q-63 0 -116 -37t-76 -98zM504 1182l-107 176l447 284l147 -256z" />
    <glyph glyph-name="ecircumflex" unicode="&#xea;" horiz-adv-x="1206" 
d="M1161 406h-739q25 -64 80 -102t127 -38q106 0 172 78l344 -63q-70 -141 -208.5 -223.5t-313.5 -82.5q-249 0 -420 160q-166 163 -166 397q0 237 164 396q162 162 405 162q244 0 406 -162q164 -159 164 -396q0 -68 -15 -126zM422 664h389q-23 62 -76.5 98.5t-120.5 36.5
q-63 0 -116 -37t-76 -98zM612 1329l-284 -164l-115 174l393 285h15l391 -285l-113 -172z" />
    <glyph glyph-name="edieresis" unicode="&#xeb;" horiz-adv-x="1206" 
d="M1161 406h-739q25 -64 80 -102t127 -38q106 0 172 78l344 -63q-70 -141 -208.5 -223.5t-313.5 -82.5q-249 0 -420 160q-166 163 -166 397q0 237 164 396q162 162 405 162q244 0 406 -162q164 -159 164 -396q0 -68 -15 -126zM422 664h389q-23 62 -76.5 98.5t-120.5 36.5
q-63 0 -116 -37t-76 -98zM393 1518q75 0 123.5 -49t48.5 -123t-48.5 -123t-123.5 -49q-72 0 -121 49.5t-49 122.5t49 122.5t121 49.5zM829 1518q73 0 122.5 -49t49.5 -123t-49.5 -123t-122.5 -49q-72 0 -121 49.5t-49 122.5t49 122.5t121 49.5z" />
    <glyph glyph-name="igrave" unicode="&#xec;" horiz-adv-x="485" 
d="M422 0h-359v1065h359v-1065zM-88 1386l147 256l447 -284l-109 -176z" />
    <glyph glyph-name="iacute" unicode="&#xed;" horiz-adv-x="485" 
d="M422 0h-359v1065h359v-1065zM-25 1358l447 284l147 -256l-487 -204z" />
    <glyph glyph-name="icircumflex" unicode="&#xee;" horiz-adv-x="499" 
d="M428 0h-358v1065h358v-1065zM27 1182l-133 157l350 285h14l350 -285l-135 -157l-223 147z" />
    <glyph glyph-name="idieresis" unicode="&#xef;" horiz-adv-x="514" 
d="M436 0h-358v1065h358v-1065zM78 1511q67 0 113.5 -48t46.5 -117q0 -72 -45.5 -118t-114.5 -46q-66 0 -111 47.5t-45 116.5t45 117t111 48zM322 1229q-44 47 -44 116.5t44 116.5q44 50 112.5 50t112.5 -50q44 -47 44 -116.5t-44 -116.5t-112.5 -47t-112.5 47z" />
    <glyph glyph-name="eth" unicode="&#xf0;" horiz-adv-x="1222" 
d="M610 1090q76 0 150 -19q-71 112 -211 158l-74 -119l-133 82l43 70q-57 8 -156 8v291q161 0 322 -29l74 119l135 -84l-51 -82q244 -94 359.5 -323.5t117.5 -624.5q0 -243 -166 -402q-168 -160 -410 -160q-244 0 -409 160q-164 164 -164 397q0 237 164 396q162 162 409 162
zM610 328q84 0 142.5 59.5t58.5 144.5t-58.5 145t-142.5 60q-82 0 -140 -60t-58 -145t58 -144.5t140 -59.5z" />
    <glyph glyph-name="ntilde" unicode="&#xf1;" horiz-adv-x="1142" 
d="M63 0v1065h359v-86q102 111 264 111q165 0 279 -117t114 -287v-686h-358v598q0 69 -42.5 115.5t-105.5 46.5q-66 0 -108.5 -46.5t-42.5 -115.5v-598h-359zM420 1219h-215q0 111 78 198q77 86 184 86q69 0 131 -45q64 -43 84 -43q25 0 44 22.5t19 53.5h213
q0 -122 -75 -203q-73 -82 -183 -82q-69 0 -133 43q-62 45 -84 45q-26 0 -44.5 -21.5t-18.5 -53.5z" />
    <glyph glyph-name="ograve" unicode="&#xf2;" horiz-adv-x="1222" 
d="M201 135q-164 164 -164 397q0 237 164 396q162 162 409 162q248 0 410 -162q166 -159 166 -396q0 -234 -166 -397q-165 -160 -410 -160q-244 0 -409 160zM610 328q84 0 142.5 59.5t58.5 144.5t-58.5 145t-142.5 60q-82 0 -140 -60t-58 -145t58 -144.5t140 -59.5z
M715 1182l-488 204l148 256l446 -284z" />
    <glyph glyph-name="oacute" unicode="&#xf3;" horiz-adv-x="1222" 
d="M201 135q-164 164 -164 397q0 237 164 396q162 162 409 162q248 0 410 -162q166 -159 166 -396q0 -234 -166 -397q-165 -160 -410 -160q-244 0 -409 160zM610 328q84 0 142.5 59.5t58.5 144.5t-58.5 145t-142.5 60q-82 0 -140 -60t-58 -145t58 -144.5t140 -59.5z
M502 1182l-107 176l447 284l147 -256z" />
    <glyph glyph-name="ocircumflex" unicode="&#xf4;" horiz-adv-x="1222" 
d="M201 135q-164 164 -164 397q0 237 164 396q162 162 409 162q248 0 410 -162q166 -159 166 -396q0 -234 -166 -397q-165 -160 -410 -160q-244 0 -409 160zM610 328q84 0 142.5 59.5t58.5 144.5t-58.5 145t-142.5 60q-82 0 -140 -60t-58 -145t58 -144.5t140 -59.5z
M612 1329l-286 -164l-113 174l391 285h14l394 -285l-115 -172z" />
    <glyph glyph-name="otilde" unicode="&#xf5;" horiz-adv-x="1222" 
d="M201 135q-164 164 -164 397q0 237 164 396q162 162 409 162q248 0 410 -162q166 -159 166 -396q0 -234 -166 -397q-165 -160 -410 -160q-244 0 -409 160zM610 328q84 0 142.5 59.5t58.5 144.5t-58.5 145t-142.5 60q-82 0 -140 -60t-58 -145t58 -144.5t140 -59.5z
M446 1219h-213q0 113 76 198q77 86 187 86q69 0 131 -45q64 -43 84 -43q25 0 44 22.5t19 53.5h213q0 -121 -76 -203t-182 -82q-69 0 -133 43q-62 45 -84 45q-27 0 -46.5 -21.5t-19.5 -53.5z" />
    <glyph glyph-name="odieresis" unicode="&#xf6;" horiz-adv-x="1222" 
d="M201 135q-164 164 -164 397q0 237 164 396q162 162 409 162q248 0 410 -162q166 -159 166 -396q0 -234 -166 -397q-165 -160 -410 -160q-244 0 -409 160zM610 328q84 0 142.5 59.5t58.5 144.5t-58.5 145t-142.5 60q-82 0 -140 -60t-58 -145t58 -144.5t140 -59.5z
M270 1223q-50 49 -50 122t50 123t123 50t123 -50t50 -123t-50 -122t-123 -49t-123 49zM827 1518q75 0 124.5 -49t49.5 -123t-49.5 -123t-124.5 -49q-72 0 -121 49.5t-49 122.5t49 122.5t121 49.5z" />
    <glyph glyph-name="divide" unicode="&#xf7;" horiz-adv-x="1228" 
d="M102 561v313h1024v-313h-1024zM410 272q0 87 58.5 146t145.5 59t146 -59t59 -146q0 -88 -58.5 -146t-146.5 -58t-146 58t-58 146zM410 1161q0 88 58 146.5t146 58.5t146.5 -58.5t58.5 -146.5q0 -86 -58.5 -144.5t-146.5 -58.5t-146 58t-58 145z" />
    <glyph glyph-name="oslash" unicode="&#xf8;" horiz-adv-x="1222" 
d="M610 1090q149 0 267 -62l43 62l106 -76l-39 -58q199 -163 199 -424q0 -234 -166 -397q-165 -160 -410 -160q-148 0 -266 62l-41 -62l-108 78l38 56q-196 159 -196 423q0 237 164 396q162 162 409 162zM774 651l-221 -315q21 -8 57 -8q84 0 142.5 59.5t58.5 144.5
q0 70 -37 119zM446 414l222 315q-21 8 -58 8q-82 0 -140 -60t-58 -145q0 -66 34 -118z" />
    <glyph glyph-name="ugrave" unicode="&#xf9;" horiz-adv-x="1142" 
d="M457 -25q-165 0 -279 117q-115 118 -115 287v686h359v-596q0 -71 42.5 -117.5t106.5 -46.5q63 0 106.5 47.5t43.5 116.5v596h358v-1065h-358v86q-102 -111 -264 -111zM782 1358l-106 -176l-488 204l148 256z" />
    <glyph glyph-name="uacute" unicode="&#xfa;" horiz-adv-x="1142" 
d="M457 -25q-165 0 -279 117q-115 118 -115 287v686h359v-596q0 -71 42.5 -117.5t106.5 -46.5q63 0 106.5 47.5t43.5 116.5v596h358v-1065h-358v86q-102 -111 -264 -111zM950 1386l-487 -204l-107 176l447 284z" />
    <glyph glyph-name="ucircumflex" unicode="&#xfb;" horiz-adv-x="1142" 
d="M63 379v686h359v-596q0 -71 42.5 -117.5t106.5 -46.5q63 0 106.5 47.5t43.5 116.5v596h358v-1065h-358v86q-102 -111 -264 -111q-165 0 -279 117q-115 118 -115 287zM573 1329l-286 -164l-113 174l391 285h15l393 -285l-115 -172z" />
    <glyph glyph-name="udieresis" unicode="&#xfc;" horiz-adv-x="1142" 
d="M63 379v686h359v-596q0 -71 42.5 -117.5t106.5 -46.5q63 0 106.5 47.5t43.5 116.5v596h358v-1065h-358v86q-102 -111 -264 -111q-165 0 -279 117q-115 118 -115 287zM913 1223q-49 -49 -122 -49t-123 49t-50 122t50 123t123 50t122 -50t49 -123t-49 -122zM231 1223
q-49 49 -49 122t49 123t123 50t123 -50t49 -123t-49 -122t-123 -49t-123 49z" />
    <glyph glyph-name="yacute" unicode="&#xfd;" horiz-adv-x="1144" 
d="M401 -6l-395 1071h369l194 -590l201 590h369l-426 -1149q-78 -198 -211 -287.5t-348 -89.5h-33v342h33q186 0 247 113zM950 1386l-487 -204l-107 176l447 284z" />
    <glyph glyph-name="thorn" unicode="&#xfe;" 
d="M422 -461h-359v1997h359v-530q122 84 264 84q209 0 348 -160q142 -160 142 -398q0 -237 -142 -397q-139 -160 -348 -160q-142 0 -264 84v-520zM426 530q0 -85 55 -143.5t133 -58.5t133.5 59t55.5 143q0 88 -54.5 147.5t-134.5 59.5t-134 -59.5t-54 -147.5z" />
    <glyph glyph-name="ydieresis" unicode="&#xff;" horiz-adv-x="1144" 
d="M401 -6l-395 1071h369l194 -590l201 590h369l-426 -1149q-78 -198 -211 -287.5t-348 -89.5h-33v342h33q186 0 247 113zM668 1223q-50 49 -50 122t50 123t123 50t122 -50t49 -123t-49 -122t-122 -49t-123 49zM477 1223q-49 -49 -123 -49t-123 49t-49 122t49 123t123 50
t123 -50t49 -123t-49 -122z" />
    <glyph glyph-name="Amacron" unicode="&#x100;" horiz-adv-x="1511" 
d="M397 0h-391l596 1434h309l594 -1434h-391l-84 213h-547zM1077 1581h-645v248h645v-248zM758 899l-144 -356h285z" />
    <glyph glyph-name="amacron" unicode="&#x101;" 
d="M526 1090q143 0 265 -84v59h358v-1065h-358v59q-122 -84 -265 -84q-208 0 -350 160q-139 160 -139 397q0 238 139 398q142 160 350 160zM944 1481v-248h-645v248h645zM786 535q0 86 -54.5 144t-133.5 58q-78 0 -132 -58t-54 -144t54 -146.5t132 -60.5t133 60t55 147z" />
    <glyph glyph-name="Abreve" unicode="&#x102;" horiz-adv-x="1511" 
d="M483 213l-86 -213h-391l596 1434h309l594 -1434h-391l-84 213h-547zM403 1864h230q0 -57 34 -95t85 -38q50 0 82 37.5t32 95.5h230q0 -145 -99 -244q-98 -98 -247 -98q-150 0 -248 98q-99 99 -99 244zM758 899l-144 -356h285z" />
    <glyph glyph-name="abreve" unicode="&#x103;" 
d="M526 -25q-208 0 -350 160q-139 160 -139 397q0 238 139 398q142 160 350 160q143 0 265 -84v59h358v-1065h-358v59q-122 -84 -265 -84zM268 1516h230q0 -57 33.5 -95.5t84.5 -38.5t83 38t32 96h230q0 -145 -99 -244q-98 -98 -248 -98q-149 0 -247 98q-99 99 -99 244z
M786 535q0 86 -54.5 144t-133.5 58q-78 0 -132 -58t-54 -144t54 -146.5t132 -60.5t133 60t55 147z" />
    <glyph glyph-name="Aogonek" unicode="&#x104;" horiz-adv-x="1511" 
d="M483 213l-86 -213h-391l596 1434h309l594 -1434h-61l-35 -31q-24 -24 -55 -71q-33 -50 -33 -93q0 -34 22.5 -52.5t59.5 -18.5q28 0 54.5 10t39.5 23l12 10l82 -113l-39 -35q-15 -15 -96 -53q-72 -35 -141 -35q-97 0 -161 58.5t-64 148.5q0 53 26.5 115.5t59.5 101.5
l28 35h-90l-84 213h-547zM758 899l-144 -356h285z" />
    <glyph glyph-name="aogonek" unicode="&#x105;" 
d="M526 -25q-208 0 -350 160q-139 160 -139 397q0 238 139 398q142 160 350 160q143 0 265 -84v59h358v-1065h-45l-35 -31q-24 -24 -55 -71q-33 -50 -33 -93q0 -34 22 -52.5t58 -18.5q28 0 54.5 10t39.5 23l14 10l82 -113l-39 -35q-15 -15 -96 -53q-75 -35 -143 -35
q-97 0 -161 58.5t-64 148.5q0 53 26.5 116.5t59.5 102.5l28 33h-71v59q-122 -84 -265 -84zM786 535q0 86 -54.5 144t-133.5 58q-78 0 -132 -58t-54 -144t54 -146.5t132 -60.5t133 60t55 147z" />
    <glyph glyph-name="Cacute" unicode="&#x106;" horiz-adv-x="1542" 
d="M811 1458q231 0 420 -115q185 -113 274 -307l-364 -133q-44 91 -132 144t-198 53q-154 0 -262 -111q-105 -108 -105 -270q0 -164 105 -275q108 -108 262 -108q110 0 198 52.5t132 143.5l364 -135q-89 -194 -274 -307q-186 -115 -420 -115q-322 0 -541 213
q-217 211 -217 529q0 317 217 528q219 213 541 213zM702 1530l-108 176l448 285l146 -256z" />
    <glyph glyph-name="cacute" unicode="&#x107;" horiz-adv-x="1177" 
d="M1161 707l-360 -107q-24 63 -74.5 100t-116.5 37q-85 0 -141.5 -57.5t-56.5 -142.5q0 -88 57 -148.5t141 -60.5q66 0 116.5 37t74.5 100l360 -107q-57 -169 -209 -278q-147 -105 -342 -105q-244 0 -409 160q-164 159 -164 397q0 239 164 398q165 160 409 160
q196 0 342 -107q151 -106 209 -276zM496 1182l-107 176l447 284l147 -256z" />
    <glyph glyph-name="Ccircumflex" unicode="&#x108;" horiz-adv-x="1542" 
d="M811 1458q231 0 420 -115q185 -113 274 -307l-364 -133q-44 91 -132 144t-198 53q-154 0 -262 -111q-105 -108 -105 -270q0 -164 105 -275q108 -108 262 -108q110 0 198 52.5t132 143.5l364 -135q-89 -194 -274 -307q-186 -115 -420 -115q-322 0 -541 213
q-217 211 -217 529q0 317 217 528q219 213 541 213zM811 1677l-285 -164l-114 175l393 284h12l393 -284l-112 -172z" />
    <glyph glyph-name="ccircumflex" unicode="&#x109;" horiz-adv-x="1177" 
d="M1161 707l-360 -107q-24 63 -74.5 100t-116.5 37q-85 0 -141.5 -57.5t-56.5 -142.5q0 -88 57 -148.5t141 -60.5q66 0 116.5 37t74.5 100l360 -107q-57 -169 -209 -278q-147 -105 -342 -105q-244 0 -409 160q-164 159 -164 397q0 239 164 398q165 160 409 160
q196 0 342 -107q151 -106 209 -276zM604 1329l-285 -164l-114 174l393 285h14l392 -285l-113 -172z" />
    <glyph glyph-name="Cdotaccent" unicode="&#x10a;" horiz-adv-x="1542" 
d="M811 1458q231 0 420 -115q185 -113 274 -307l-364 -133q-44 91 -132 144t-198 53q-154 0 -262 -111q-105 -108 -105 -270q0 -164 105 -275q108 -108 262 -108q110 0 198 52.5t132 143.5l364 -135q-89 -194 -274 -307q-186 -115 -420 -115q-322 0 -541 213
q-217 211 -217 529q0 317 217 528q219 213 541 213zM623 1710q0 82 53 136.5t133 54.5q81 0 134.5 -54.5t53.5 -136.5q0 -80 -53.5 -134t-134.5 -54q-79 0 -132.5 54t-53.5 134z" />
    <glyph glyph-name="cdotaccent" unicode="&#x10b;" horiz-adv-x="1177" 
d="M1161 707l-360 -107q-24 63 -74.5 100t-116.5 37q-85 0 -141.5 -57.5t-56.5 -142.5q0 -88 57 -148.5t141 -60.5q66 0 116.5 37t74.5 100l360 -107q-57 -169 -209 -278q-147 -105 -342 -105q-244 0 -409 160q-164 159 -164 397q0 239 164 398q165 160 409 160
q196 0 342 -107q151 -106 209 -276zM416 1362q0 82 53 136t133 54q82 0 135.5 -54t53.5 -136q0 -80 -54 -134t-135 -54q-79 0 -132.5 54t-53.5 134z" />
    <glyph glyph-name="Ccaron" unicode="&#x10c;" horiz-adv-x="1542" 
d="M811 1458q231 0 420 -115q185 -113 274 -307l-364 -133q-44 91 -132 144t-198 53q-154 0 -262 -111q-105 -108 -105 -270q0 -164 105 -275q108 -108 262 -108q110 0 198 52.5t132 143.5l364 -135q-89 -194 -274 -307q-186 -115 -420 -115q-322 0 -541 213
q-217 211 -217 529q0 317 217 528q219 213 541 213zM811 1810l287 162l112 -172l-393 -284h-12l-393 286l114 172z" />
    <glyph glyph-name="ccaron" unicode="&#x10d;" horiz-adv-x="1177" 
d="M1161 707l-360 -107q-24 63 -74.5 100t-116.5 37q-85 0 -141.5 -57.5t-56.5 -142.5q0 -88 57 -148.5t141 -60.5q66 0 116.5 37t74.5 100l360 -107q-57 -169 -209 -278q-147 -105 -342 -105q-244 0 -409 160q-164 159 -164 397q0 239 164 398q165 160 409 160
q196 0 342 -107q151 -106 209 -276zM604 1462l287 162l113 -172l-392 -285h-14l-393 287l114 172z" />
    <glyph glyph-name="Dcaron" unicode="&#x10e;" horiz-adv-x="1482" 
d="M672 0h-598v1434h598q321 0 540 -207q218 -206 218 -510t-218 -510q-219 -207 -540 -207zM672 1090h-223v-746h223q156 0 260 107q106 106 106 266q0 158 -106 264q-106 109 -260 109zM485 1516h-14l-393 286l115 172l284 -164l287 162l113 -172z" />
    <glyph glyph-name="dcaron" unicode="&#x10f;" horiz-adv-x="1554" 
d="M526 1090q144 0 265 -86v532h358v-1536h-358v61q-121 -86 -265 -86q-208 0 -350 160q-139 160 -139 397q0 238 139 398q142 160 350 160zM1223 1415q0 62 42 104t105 42q71 0 117.5 -54t46.5 -133q0 -49 -21.5 -98t-50.5 -82.5t-62 -62t-53 -41.5t-26 -15l-78 82
q95 74 98 109q-51 11 -84.5 52.5t-33.5 96.5zM600 737q-79 0 -133.5 -58t-54.5 -144q0 -87 55 -147t133 -60q80 0 135.5 60t55.5 147q0 86 -55.5 144t-135.5 58z" />
    <glyph glyph-name="Dcroat" unicode="&#x110;" horiz-adv-x="1552" 
d="M14 569v295h129v570h598q320 0 539 -207q217 -205 217 -510t-217 -510q-219 -207 -539 -207h-598v569h-129zM518 1090v-226h303v-295h-303v-225h223q156 0 260 107q107 107 107 266q0 157 -107 264q-106 109 -260 109h-223z" />
    <glyph glyph-name="dslash" unicode="&#x111;" horiz-adv-x="1241" 
d="M526 1090q143 0 265 -84v157h-291v226h291v147h358v-147h82v-226h-82v-1163h-358v59q-122 -84 -265 -84q-208 0 -350 160q-139 160 -139 397q0 238 139 398q142 160 350 160zM786 535q0 86 -54.5 144t-133.5 58q-78 0 -132 -58t-54 -144t54 -146.5t132 -60.5t133 60
t55 147z" />
    <glyph glyph-name="Emacron" unicode="&#x112;" 
d="M74 0v1434h1083v-344h-708v-195h587v-344h-587v-207h718v-344h-1093zM932 1829v-248h-645v248h645z" />
    <glyph glyph-name="emacron" unicode="&#x113;" horiz-adv-x="1206" 
d="M1161 406h-739q25 -64 80 -102t127 -38q106 0 172 78l344 -63q-70 -141 -208.5 -223.5t-313.5 -82.5q-249 0 -420 160q-166 163 -166 397q0 237 164 396q162 162 405 162q244 0 406 -162q164 -159 164 -396q0 -68 -15 -126zM422 664h389q-23 62 -76.5 98.5t-120.5 36.5
q-63 0 -116 -37t-76 -98zM934 1233h-645v248h645v-248z" />
    <glyph glyph-name="Ebreve" unicode="&#x114;" 
d="M1167 0h-1093v1434h1083v-344h-708v-195h587v-344h-587v-207h718v-344zM258 1864h229q0 -57 33 -95t84 -38t83 38t32 95h229q0 -146 -98 -244t-248 -98q-148 0 -246 98t-98 244z" />
    <glyph glyph-name="ebreve" unicode="&#x115;" horiz-adv-x="1206" 
d="M1161 406h-739q25 -64 80 -102t127 -38q106 0 172 78l344 -63q-70 -141 -208.5 -223.5t-313.5 -82.5q-249 0 -420 160q-166 163 -166 397q0 237 164 396q162 162 405 162q244 0 406 -162q164 -159 164 -396q0 -68 -15 -126zM422 664h389q-23 62 -76.5 98.5t-120.5 36.5
q-63 0 -116 -37t-76 -98zM260 1516h229q0 -57 34 -95.5t85 -38.5q49 0 81 38.5t32 95.5h231q0 -146 -98 -244t-248 -98t-248 98t-98 244z" />
    <glyph glyph-name="Edotaccent" unicode="&#x116;" 
d="M74 1434h1083v-344h-708v-195h587v-344h-587v-207h718v-344h-1093v1434zM608 1522q-79 0 -132.5 54t-53.5 134q0 82 53 136.5t133 54.5q82 0 135.5 -54.5t53.5 -136.5q0 -80 -54 -134t-135 -54z" />
    <glyph glyph-name="edotaccent" unicode="&#x117;" horiz-adv-x="1206" 
d="M1161 406h-739q25 -64 80 -102t127 -38q106 0 172 78l344 -63q-70 -141 -208.5 -223.5t-313.5 -82.5q-249 0 -420 160q-166 163 -166 397q0 237 164 396q162 162 405 162q244 0 406 -162q164 -159 164 -396q0 -68 -15 -126zM422 664h389q-23 62 -76.5 98.5t-120.5 36.5
q-63 0 -116 -37t-76 -98zM424 1362q0 82 53 136t133 54q82 0 136.5 -54t54.5 -136q0 -80 -54.5 -134t-136.5 -54q-79 0 -132.5 54t-53.5 134z" />
    <glyph glyph-name="Eogonek" unicode="&#x118;" 
d="M862 0h-788v1434h1083v-344h-708v-195h587v-344h-587v-207h718v-344h-65l-35 -31q-24 -24 -55 -71q-33 -50 -33 -93q0 -34 22.5 -52.5t59.5 -18.5q28 0 54.5 10t39.5 23l14 10l80 -113l-39 -35q-15 -15 -96 -53q-72 -35 -141 -35q-97 0 -161 58.5t-64 148.5
q0 53 26.5 116.5t59.5 102.5z" />
    <glyph glyph-name="eogonek" unicode="&#x119;" horiz-adv-x="1206" 
d="M37 532q0 237 164 396q162 162 405 162q244 0 406 -162q164 -159 164 -396q0 -68 -15 -126h-739q25 -64 80 -102t127 -38q106 0 172 78l344 -63q-56 -112 -157 -188.5t-230 -102.5q-111 -102 -111 -185q0 -34 22.5 -52.5t59.5 -18.5q28 0 54.5 10t39.5 23l15 10l82 -113
l-39 -35q-14 -14 -97 -53q-75 -35 -143 -35q-97 0 -161 58.5t-64 148.5q0 118 100 236q-212 35 -346 186q-133 154 -133 362zM422 664h389q-23 62 -76.5 98.5t-120.5 36.5q-63 0 -116 -37t-76 -98z" />
    <glyph glyph-name="Ecaron" unicode="&#x11a;" 
d="M74 0v1434h1083v-344h-708v-195h587v-344h-587v-207h718v-344h-1093zM616 1516h-12l-393 286l115 172l284 -164l287 162l113 -172z" />
    <glyph glyph-name="ecaron" unicode="&#x11b;" horiz-adv-x="1206" 
d="M1161 406h-739q25 -64 80 -102t127 -38q106 0 172 78l344 -63q-70 -141 -208.5 -223.5t-313.5 -82.5q-249 0 -420 160q-166 163 -166 397q0 237 164 396q162 162 405 162q244 0 406 -162q164 -159 164 -396q0 -68 -15 -126zM422 664h389q-23 62 -76.5 98.5t-120.5 36.5
q-63 0 -116 -37t-76 -98zM612 1462l287 162l113 -172l-391 -285h-15l-393 287l115 172z" />
    <glyph glyph-name="Gcircumflex" unicode="&#x11c;" horiz-adv-x="1613" 
d="M53 717q0 318 221 530q220 211 547 211q234 0 418 -112q191 -116 281 -310l-365 -133q-47 92 -136 144.5t-198 52.5q-162 0 -270 -111q-107 -110 -107 -270q0 -162 105 -273q104 -110 260 -110q101 0 188 50.5t129 135.5h-370v301h796q9 -52 9 -84q0 -328 -215 -546
q-212 -218 -539 -218q-318 0 -535 211q-219 213 -219 531zM811 1677l-285 -164l-114 175l393 284h12l393 -284l-112 -172z" />
    <glyph glyph-name="gcircumflex" unicode="&#x11d;" 
d="M526 -25q-208 0 -350 160q-139 160 -139 397q0 238 139 398q142 160 350 160q143 0 265 -84v59h358v-1049q0 -210 -158 -356q-157 -145 -389 -145q-192 0 -338 98q-143 94 -194 248l350 71q24 -39 72 -63.5t104 -24.5q82 0 138.5 47.5t56.5 118.5v49q-122 -84 -265 -84z
M608 1329l-284 -164l-115 174l393 285h12l394 -285l-113 -172zM598 737q-78 0 -132 -59.5t-54 -147.5q0 -85 54 -143.5t132 -58.5t133 58.5t55 143.5q0 88 -54 147.5t-134 59.5z" />
    <glyph glyph-name="Gbreve" unicode="&#x11e;" horiz-adv-x="1613" 
d="M53 717q0 318 221 530q220 211 547 211q234 0 418 -112q191 -116 281 -310l-365 -133q-47 92 -136 144.5t-198 52.5q-162 0 -270 -111q-107 -110 -107 -270q0 -162 105 -273q104 -110 260 -110q101 0 188 50.5t129 135.5h-370v301h796q9 -52 9 -84q0 -328 -215 -546
q-212 -218 -539 -218q-318 0 -535 211q-219 213 -219 531zM459 1864h229q0 -57 33 -95t84 -38t83 38t32 95h229q0 -146 -98 -244t-248 -98q-148 0 -246 98t-98 244z" />
    <glyph glyph-name="gbreve" unicode="&#x11f;" 
d="M526 -25q-208 0 -350 160q-139 160 -139 397q0 238 139 398q142 160 350 160q143 0 265 -84v59h358v-1049q0 -210 -158 -356q-157 -145 -389 -145q-192 0 -338 98q-143 94 -194 248l350 71q24 -39 72 -63.5t104 -24.5q82 0 138.5 47.5t56.5 118.5v49q-122 -84 -265 -84z
M600 1174q-148 0 -246 98t-98 244h229q0 -57 33 -95.5t84 -38.5t83 38t32 96h229q0 -146 -98 -244t-248 -98zM598 737q-78 0 -132 -59.5t-54 -147.5q0 -85 54 -143.5t132 -58.5t133 58.5t55 143.5q0 88 -54 147.5t-134 59.5z" />
    <glyph glyph-name="Gdotaccent" unicode="&#x120;" horiz-adv-x="1613" 
d="M53 717q0 318 221 530q220 211 547 211q234 0 418 -112q191 -116 281 -310l-365 -133q-47 92 -136 144.5t-198 52.5q-162 0 -270 -111q-107 -110 -107 -270q0 -162 105 -273q104 -110 260 -110q101 0 188 50.5t129 135.5h-370v301h796q9 -52 9 -84q0 -328 -215 -546
q-212 -218 -539 -218q-318 0 -535 211q-219 213 -219 531zM623 1710q0 82 53 136.5t133 54.5q81 0 134.5 -54.5t53.5 -136.5q0 -80 -53.5 -134t-134.5 -54q-79 0 -132.5 54t-53.5 134z" />
    <glyph glyph-name="gdotaccent" unicode="&#x121;" 
d="M526 -25q-208 0 -350 160q-139 160 -139 397q0 238 139 398q142 160 350 160q143 0 265 -84v59h358v-1049q0 -210 -158 -356q-157 -145 -389 -145q-192 0 -338 98q-143 94 -194 248l350 71q24 -39 72 -63.5t104 -24.5q82 0 138.5 47.5t56.5 118.5v49q-122 -84 -265 -84z
M412 530q0 -85 54 -143.5t132 -58.5t133 58.5t55 143.5q0 88 -54 147.5t-134 59.5q-78 0 -132 -59.5t-54 -147.5zM606 1174q-79 0 -132.5 54t-53.5 134q0 82 53 136t133 54q82 0 135.5 -54t53.5 -136q0 -80 -54 -134t-135 -54z" />
    <glyph glyph-name="uni0122" unicode="&#x122;" horiz-adv-x="1613" 
d="M53 717q0 318 221 530q220 211 547 211q234 0 418 -112q191 -116 281 -310l-365 -133q-47 92 -136 144.5t-198 52.5q-162 0 -270 -111q-107 -110 -107 -270q0 -162 105 -273q104 -110 260 -110q101 0 188 50.5t129 135.5h-370v301h796q9 -52 9 -84q0 -328 -215 -546
q-212 -218 -539 -218q-318 0 -535 211q-219 213 -219 531zM993 -264q0 -157 -213 -299l-78 80q97 75 97 110q-50 11 -83.5 53t-33.5 97q0 60 42 101.5t105 41.5q71 0 117.5 -54t46.5 -130z" />
    <glyph glyph-name="uni0123" unicode="&#x123;" 
d="M526 -25q-208 0 -350 160q-139 160 -139 397q0 238 139 398q142 160 350 160q143 0 265 -84v59h358v-1049q0 -210 -158 -356q-157 -145 -389 -145q-192 0 -338 98q-143 94 -194 248l350 71q24 -39 72 -63.5t104 -24.5q82 0 138.5 47.5t56.5 118.5v49q-122 -84 -265 -84z
M598 737q-78 0 -132 -59.5t-54 -147.5q0 -85 54 -143.5t132 -58.5t133 58.5t55 143.5q0 88 -54 147.5t-134 59.5zM432 1360q0 50 22 99t50.5 82t62.5 62t52 40.5t26 15.5l80 -80q-97 -72 -100 -111q52 -11 85 -51.5t33 -95.5q0 -62 -42 -103.5t-105 -41.5q-71 0 -117.5 52.5
t-46.5 131.5z" />
    <glyph glyph-name="Hcircumflex" unicode="&#x124;" horiz-adv-x="1435" 
d="M449 551v-551h-375v1434h375v-539h538v539h375v-1434h-375v551h-538zM432 1513l-113 175l392 284h14l393 -284l-114 -172l-285 161z" />
    <glyph glyph-name="hcircumflex" unicode="&#x125;" horiz-adv-x="1148" 
d="M422 598v-598h-359v1536h359v-557q108 111 266 111q167 0 281 -117q116 -116 116 -287v-686h-358v598q0 69 -43 115.5t-109 46.5t-109.5 -46.5t-43.5 -115.5zM238 1759l-285 -164l-115 174l393 285h15l393 -285l-115 -172z" />
    <glyph glyph-name="Hbar" unicode="&#x126;" horiz-adv-x="1560" 
d="M1419 1434v-162h129v-252h-129v-1020h-375v551h-540v-551h-375v1020h-115v252h115v162h375v-162h540v162h375zM1044 895v125h-540v-125h540z" />
    <glyph glyph-name="hbar" unicode="&#x127;" horiz-adv-x="1177" 
d="M451 1536v-147h290v-226h-290v-184q108 111 266 111q166 0 280 -117q117 -117 117 -287v-686h-358v598q0 69 -43 115.5t-109 46.5t-109.5 -46.5t-43.5 -115.5v-598h-359v1163h-82v226h82v147h359z" />
    <glyph glyph-name="Itilde" unicode="&#x128;" horiz-adv-x="522" 
d="M449 0h-375v1434h375v-1434zM98 1567h-215q0 111 78 198q77 86 184 86q72 0 134 -45q64 -43 81 -43q25 0 44.5 23t19.5 53h215q0 -121 -76 -203t-182 -82q-71 0 -135 43q-62 45 -84 45q-27 0 -45.5 -21.5t-18.5 -53.5z" />
    <glyph glyph-name="itilde" unicode="&#x129;" horiz-adv-x="518" 
d="M438 0h-358v1065h358v-1065zM125 1219h-215q0 113 70 198q71 86 165 86q60 0 117 -45q58 -43 78 -43q23 0 39 22.5t16 53.5h213q0 -121 -67 -203t-164 -82q-61 0 -119 43q-57 45 -76 45q-25 0 -41 -21.5t-16 -53.5z" />
    <glyph glyph-name="Imacron" unicode="&#x12a;" horiz-adv-x="522" 
d="M449 0h-375v1434h375v-1434zM584 1581h-645v248h645v-248z" />
    <glyph glyph-name="imacron" unicode="&#x12b;" horiz-adv-x="497" 
d="M428 0h-358v1065h358v-1065zM-45 1233v248h588v-248h-588z" />
    <glyph glyph-name="Ibreve" unicode="&#x12c;" horiz-adv-x="522" 
d="M449 0h-375v1434h375v-1434zM-92 1864h231q0 -57 33 -95t84 -38t83 38t32 95h229q0 -146 -98 -244t-248 -98t-248 98t-98 244z" />
    <glyph glyph-name="ibreve" unicode="&#x12d;" horiz-adv-x="499" 
d="M428 0h-358v1065h358v-1065zM-82 1516h229q0 -57 30.5 -95.5t74.5 -38.5t72 38t28 96h230q0 -144 -95 -244q-94 -98 -237 -98q-144 0 -238 98t-94 244z" />
    <glyph glyph-name="Iogonek" unicode="&#x12e;" horiz-adv-x="522" 
d="M31 -252q0 53 26.5 115.5t59.5 101.5l28 35h-71v1434h375v-1434h-62q-106 -89 -121 -174q-2 -4 -2 -21q0 -71 82 -71q25 0 52 10t40 23l15 10l82 -113l-39 -35q-14 -14 -97 -53q-75 -35 -143 -35q-97 0 -161 58.5t-64 148.5z" />
    <glyph glyph-name="iogonek" unicode="&#x12f;" horiz-adv-x="485" 
d="M27 -252q0 53 26.5 115.5t59.5 101.5l28 35h-78v1065h359v-1065h-39l-35 -31q-24 -24 -55 -71q-33 -50 -33 -93q0 -65 68 -71q75 0 121 43l81 -113l-38 -35q-14 -14 -97 -53q-75 -35 -143 -35q-97 0 -161 58.5t-64 148.5zM242 1552q93 0 155 -62t62 -155
q0 -92 -61.5 -153.5t-155.5 -61.5q-91 0 -153 61.5t-62 153.5t62 154.5t153 62.5z" />
    <glyph glyph-name="Idot" unicode="&#x130;" horiz-adv-x="522" 
d="M449 0h-375v1434h375v-1434zM74 1710q0 82 53 136.5t133 54.5q82 0 135.5 -54.5t53.5 -136.5q0 -80 -54 -134t-135 -54q-79 0 -132.5 54t-53.5 134z" />
    <glyph glyph-name="dotlessi" unicode="&#x131;" horiz-adv-x="485" 
d="M422 0h-359v1065h359v-1065z" />
    <glyph glyph-name="IJ" unicode="&#x132;" horiz-adv-x="1710" 
d="M449 0h-375v1434h375v-1434zM1645 1434v-891q0 -243 -172 -406q-171 -162 -433 -162q-160 0 -294.5 69t-213.5 189l310 203q64 -117 207 -117q100 0 167.5 65.5t67.5 162.5v887h361z" />
    <glyph glyph-name="ij" unicode="&#x133;" horiz-adv-x="978" 
d="M422 0h-359v1065h359v-1065zM242 1552q93 0 155 -62t62 -155q0 -92 -61.5 -153.5t-155.5 -61.5q-91 0 -153 61.5t-62 153.5t62 154.5t153 62.5zM559 1065h359v-1157q0 -155 -125 -262t-308 -107h-102v342h74q43 0 72.5 23t29.5 55v1106zM584 1182q-62 62 -62 153
q0 92 62 154q63 63 155 63q94 0 154 -63q61 -61 61 -154q0 -92 -61 -153q-62 -62 -154 -62q-90 0 -155 62z" />
    <glyph glyph-name="Jcircumflex" unicode="&#x134;" horiz-adv-x="1189" 
d="M1122 1434v-891q0 -243 -172 -406q-171 -162 -432 -162q-160 0 -294.5 69t-213.5 189l309 203q65 -117 207 -117q100 0 168 65.5t68 162.5v887h360zM936 1677l-287 -164l-112 175l393 284h12l393 -284l-112 -172z" />
    <glyph glyph-name="jcircumflex" unicode="&#x135;" horiz-adv-x="493" 
d="M74 1065h358v-1157q0 -155 -125 -262t-307 -107h-102v342h73q45 0 74 21.5t29 56.5v1106zM252 1329l-285 -164l-114 174l393 285h14l391 -285l-112 -172z" />
    <glyph glyph-name="uni0136" unicode="&#x136;" horiz-adv-x="1376" 
d="M74 0v1434h375v-519l407 519h473l-549 -699l590 -735h-473l-448 559v-559h-375zM629 -373q-50 11 -83.5 53t-33.5 97q0 61 42 102t105 41q71 0 117.5 -54t46.5 -130q0 -50 -22 -99t-51 -82t-63.5 -62t-52.5 -40.5t-26 -15.5l-78 80q96 75 99 110z" />
    <glyph glyph-name="uni0137" unicode="&#x137;" horiz-adv-x="1122" 
d="M422 0h-359v1536h359v-840l246 369h417l-340 -514l371 -551h-424l-270 406v-406zM528 -373q-50 11 -83 53t-33 97q0 61 42 102t105 41q71 0 117.5 -54t46.5 -130q0 -50 -22 -99t-51 -82t-63.5 -62t-52.5 -40.5t-26 -15.5l-78 80q95 74 98 110z" />
    <glyph glyph-name="Lacute" unicode="&#x139;" horiz-adv-x="1148" 
d="M1112 0h-1038v1434h375v-1090h663v-344zM51 1706l447 285l145 -256l-485 -205z" />
    <glyph glyph-name="lacute" unicode="&#x13a;" horiz-adv-x="485" 
d="M422 0h-359v1536h359v-1536zM133 1612l-106 176l446 285l148 -256z" />
    <glyph glyph-name="uni013B" unicode="&#x13b;" horiz-adv-x="1148" 
d="M74 0v1434h375v-1090h663v-344h-1038zM477 -223q0 60 42.5 101.5t105.5 41.5q71 0 117 -52.5t46 -131.5q0 -50 -22 -99t-50.5 -82t-62.5 -62t-52 -40.5t-26 -15.5l-77 80q95 74 98 110q-51 11 -85 53t-34 97z" />
    <glyph glyph-name="uni013C" unicode="&#x13c;" horiz-adv-x="485" 
d="M422 0h-359v1536h359v-1536zM399 -264q0 -50 -22 -99t-51 -82t-63.5 -62t-52.5 -40.5t-26 -15.5l-78 80q96 75 99 110q-51 11 -85 53t-34 97q0 60 42 101.5t105 41.5q72 0 119 -53t47 -131z" />
    <glyph glyph-name="Lcaron" unicode="&#x13d;" horiz-adv-x="1148" 
d="M74 0v1434h375v-1090h663v-344h-1038zM645 1313q0 62 42.5 103.5t105.5 41.5q71 0 117 -53.5t46 -132.5q0 -49 -21.5 -98t-50.5 -82.5t-62 -62t-53 -41.5t-26 -15l-77 82q95 74 98 108q-51 11 -85 53t-34 97z" />
    <glyph glyph-name="lcaron" unicode="&#x13e;" horiz-adv-x="827" 
d="M422 0h-359v1536h359v-1536zM496 1415q0 62 42 104t105 42q71 0 117.5 -54t46.5 -133q0 -49 -21.5 -98t-50.5 -82.5t-62 -62t-53 -41.5t-26 -15l-78 82q95 74 98 109q-51 11 -84.5 52.5t-33.5 96.5z" />
    <glyph glyph-name="Ldot" unicode="&#x13f;" horiz-adv-x="1148" 
d="M74 0v1434h375v-1090h663v-344h-1038zM834 528q-80 0 -133.5 54t-53.5 135q0 80 54 134t133 54q81 0 134.5 -54t53.5 -134q0 -82 -53 -135.5t-135 -53.5z" />
    <glyph glyph-name="ldot" unicode="&#x140;" horiz-adv-x="948" 
d="M422 0h-359v1536h359v-1536zM528 717q0 80 54 134t135 54t134.5 -54t53.5 -134q0 -82 -53 -135.5t-135 -53.5t-135.5 53.5t-53.5 135.5z" />
    <glyph glyph-name="Lslash" unicode="&#x141;" horiz-adv-x="1296" 
d="M221 432l-65 -41l-142 248l207 127v668h375v-437l184 115l142 -248l-326 -200v-320h664v-344h-1039v432z" />
    <glyph glyph-name="lslash" unicode="&#x142;" horiz-adv-x="569" 
d="M463 1536v-596l106 61v-262l-106 -61v-678h-357v475l-106 -61v262l106 61v799h357z" />
    <glyph glyph-name="Nacute" unicode="&#x143;" horiz-adv-x="1452" 
d="M74 0v1434h334l610 -793v793h360v-1434h-334l-610 791v-791h-360zM1106 1735l-488 -205l-106 176l446 285z" />
    <glyph glyph-name="nacute" unicode="&#x144;" horiz-adv-x="1142" 
d="M63 0v1065h359v-86q102 111 264 111q165 0 279 -117t114 -287v-686h-358v598q0 69 -42.5 115.5t-105.5 46.5q-66 0 -108.5 -46.5t-42.5 -115.5v-598h-359zM473 1182l-106 176l446 284l148 -256z" />
    <glyph glyph-name="uni0145" unicode="&#x145;" horiz-adv-x="1452" 
d="M434 0h-360v1434h334l610 -793v793h360v-1434h-334l-610 791v-791zM711 -373q-50 11 -83.5 53t-33.5 97q0 60 42 101.5t105 41.5q71 0 117.5 -54t46.5 -130q0 -157 -213 -299l-78 80q97 75 97 110z" />
    <glyph glyph-name="uni0146" unicode="&#x146;" horiz-adv-x="1142" 
d="M422 0h-359v1065h359v-86q102 111 264 111q165 0 279 -117t114 -287v-686h-358v598q0 69 -42.5 115.5t-105.5 46.5q-66 0 -108.5 -46.5t-42.5 -115.5v-598zM555 -373q-51 11 -85 53t-34 97q0 60 42.5 101.5t105.5 41.5q71 0 117.5 -52.5t46.5 -131.5q0 -50 -22 -99
t-50.5 -82t-62.5 -62t-52 -40.5t-26 -15.5l-78 80q95 74 98 110z" />
    <glyph glyph-name="Ncaron" unicode="&#x147;" horiz-adv-x="1452" 
d="M74 0v1434h334l610 -793v793h360v-1434h-334l-610 791v-791h-360zM735 1516h-14l-393 286l114 172l285 -164l287 162l112 -172z" />
    <glyph glyph-name="ncaron" unicode="&#x148;" horiz-adv-x="1142" 
d="M422 598v-598h-359v1065h359v-86q102 111 264 111q165 0 279 -117t114 -287v-686h-358v598q0 69 -42.5 115.5t-105.5 46.5q-66 0 -108.5 -46.5t-42.5 -115.5zM590 1167h-15l-391 287l113 172l287 -164l284 162l115 -172z" />
    <glyph glyph-name="Eng" unicode="&#x14a;" horiz-adv-x="1452" 
d="M1018 1434h360v-1352q0 -243 -172 -406q-167 -161 -430 -161l6 344q87 0 151 50t81 130l-580 752v-791h-360v1434h334l610 -795v795z" />
    <glyph glyph-name="eng" unicode="&#x14b;" horiz-adv-x="1142" 
d="M63 0v1065h359v-86q102 111 264 111q165 0 279 -117t114 -287v-780q0 -158 -125 -262q-122 -107 -307 -107h-102v342h73q43 0 73 23t30 55v641q0 69 -42.5 115.5t-105.5 46.5q-66 0 -108.5 -46.5t-42.5 -115.5v-598h-359z" />
    <glyph glyph-name="Omacron" unicode="&#x14c;" horiz-adv-x="1622" 
d="M811 1458q322 0 541 -213q217 -211 217 -528q0 -318 -217 -529q-219 -213 -541 -213t-541 213q-217 211 -217 529q0 317 217 528q219 213 541 213zM444 719q0 -164 105 -275q108 -108 262 -108q158 0 262 110q107 110 107 273t-107 270q-108 111 -262 111t-262 -111
q-105 -108 -105 -270zM1133 1581h-646v248h646v-248z" />
    <glyph glyph-name="omacron" unicode="&#x14d;" horiz-adv-x="1222" 
d="M201 135q-164 164 -164 397q0 237 164 396q162 162 409 162q248 0 410 -162q166 -159 166 -396q0 -234 -166 -397q-165 -160 -410 -160q-244 0 -409 160zM610 328q84 0 142.5 59.5t58.5 144.5t-58.5 145t-142.5 60q-82 0 -140 -60t-58 -145t58 -144.5t140 -59.5z
M932 1233h-643v248h643v-248z" />
    <glyph glyph-name="Obreve" unicode="&#x14e;" horiz-adv-x="1622" 
d="M811 1458q322 0 541 -213q217 -211 217 -528q0 -318 -217 -529q-219 -213 -541 -213t-541 213q-217 211 -217 529q0 317 217 528q219 213 541 213zM444 719q0 -164 105 -275q108 -108 262 -108q158 0 262 110q107 110 107 273t-107 270q-108 111 -262 111t-262 -111
q-105 -108 -105 -270zM459 1864h229q0 -57 34 -95t85 -38q49 0 81 38t32 95h231q0 -146 -98 -244t-248 -98t-248 98t-98 244z" />
    <glyph glyph-name="obreve" unicode="&#x14f;" horiz-adv-x="1222" 
d="M201 135q-164 164 -164 397q0 237 164 396q162 162 409 162q248 0 410 -162q166 -159 166 -396q0 -234 -166 -397q-165 -160 -410 -160q-244 0 -409 160zM610 328q84 0 142.5 59.5t58.5 144.5t-58.5 145t-142.5 60q-82 0 -140 -60t-58 -145t58 -144.5t140 -59.5z
M258 1516h229q0 -57 34 -95.5t85 -38.5t83 38t32 96h229q0 -146 -98 -244t-248 -98t-248 98t-98 244z" />
    <glyph glyph-name="Ohungarumlaut" unicode="&#x150;" horiz-adv-x="1622" 
d="M811 1458q322 0 541 -213q217 -211 217 -528q0 -318 -217 -529q-219 -213 -541 -213t-541 213q-217 211 -217 529q0 317 217 528q219 213 541 213zM444 719q0 -164 105 -275q108 -108 262 -108q158 0 262 110q107 110 107 273t-107 270q-108 111 -262 111t-262 -111
q-105 -108 -105 -270zM600 1516l-162 129l293 380l225 -190zM1044 1516l-159 129l291 380l227 -190z" />
    <glyph glyph-name="ohungarumlaut" unicode="&#x151;" horiz-adv-x="1222" 
d="M201 135q-164 164 -164 397q0 237 164 396q162 162 409 162q248 0 410 -162q166 -159 166 -396q0 -234 -166 -397q-165 -160 -410 -160q-244 0 -409 160zM610 328q84 0 142.5 59.5t58.5 144.5t-58.5 145t-142.5 60q-82 0 -140 -60t-58 -145t58 -144.5t140 -59.5z
M399 1167l-161 129l292 381l228 -190zM846 1167l-162 129l293 381l225 -190z" />
    <glyph glyph-name="OE" unicode="&#x152;" horiz-adv-x="2334" 
d="M811 -25q-322 0 -541 213q-217 211 -217 529q0 317 217 528q219 213 541 213q217 0 393 -102v78h1069v-344h-696v-195h573v-344h-573v-207h707v-344h-1080v78q-177 -103 -393 -103zM444 719q0 -164 105 -275q108 -108 262 -108q158 0 262 110q107 110 107 273t-107 270
q-108 111 -262 111t-262 -111q-105 -108 -105 -270z" />
    <glyph glyph-name="oe" unicode="&#x153;" horiz-adv-x="1980" 
d="M610 1090q224 0 389 -142q165 142 387 142q240 0 402 -162q162 -158 162 -396q0 -68 -15 -126h-739q23 -64 79.5 -102t129.5 -38q104 0 170 78l346 -63q-68 -141 -205.5 -223.5t-312.5 -82.5q-239 0 -402 144q-159 -144 -391 -144q-244 0 -409 160q-164 164 -164 397
q0 237 164 396q162 162 409 162zM610 328q84 0 142.5 59.5t58.5 144.5t-58.5 145t-142.5 60q-82 0 -140 -60t-58 -145t58 -144.5t140 -59.5zM1196 664h391q-23 62 -76 98.5t-120 36.5q-66 0 -118 -36.5t-77 -98.5z" />
    <glyph glyph-name="Racute" unicode="&#x154;" horiz-adv-x="1372" 
d="M449 0h-375v1434h680q232 0 385 -144q153 -141 153 -354q0 -134 -65 -245.5t-178 -178.5l292 -512h-415l-248 434h-229v-434zM754 1090h-305v-312h305q63 0 106 45.5t43 112.5q0 66 -43 110t-106 44zM961 1735l-488 -205l-106 176l446 285z" />
    <glyph glyph-name="racute" unicode="&#x155;" horiz-adv-x="739" 
d="M422 1065v-90q103 115 264 115q23 0 35 -3v-368q-47 35 -113 35q-80 0 -133 -54.5t-53 -136.5v-563h-359v1065h359zM256 1182l-106 176l446 284l147 -256z" />
    <glyph glyph-name="uni0156" unicode="&#x156;" horiz-adv-x="1372" 
d="M74 1434h680q232 0 385 -144q153 -141 153 -354q0 -134 -65 -245.5t-178 -178.5l292 -512h-415l-248 434h-229v-434h-375v1434zM754 1090h-305v-312h305q63 0 106 45.5t43 112.5q0 66 -43 110t-106 44zM670 -373q-51 11 -85 53t-34 97q0 60 42 101.5t105 41.5
q72 0 119 -53t47 -131q0 -50 -22 -99t-51 -82t-63.5 -62t-52.5 -40.5t-26 -15.5l-78 80q96 75 99 110z" />
    <glyph glyph-name="uni0157" unicode="&#x157;" horiz-adv-x="739" 
d="M422 1065v-90q103 115 264 115q23 0 35 -3v-368q-47 35 -113 35q-80 0 -133 -54.5t-53 -136.5v-563h-359v1065h359zM403 -264q0 -50 -22 -99t-50.5 -82t-62.5 -62t-52 -40.5t-26 -15.5l-77 80q95 74 98 110q-51 11 -85 53t-34 97q0 60 42.5 101.5t105.5 41.5
q71 0 117 -52.5t46 -131.5z" />
    <glyph glyph-name="Rcaron" unicode="&#x158;" horiz-adv-x="1372" 
d="M449 434v-434h-375v1434h680q232 0 385 -144q153 -141 153 -354q0 -134 -65 -245.5t-178 -178.5l292 -512h-415l-248 434h-229zM590 1516h-15l-393 286l115 172l285 -164l286 162l113 -172zM754 1090h-305v-312h305q63 0 106 45.5t43 112.5q0 66 -43 110t-106 44z" />
    <glyph glyph-name="rcaron" unicode="&#x159;" horiz-adv-x="739" 
d="M422 1065v-90q103 115 264 115q23 0 35 -3v-368q-47 35 -113 35q-80 0 -133 -54.5t-53 -136.5v-563h-359v1065h359zM367 1462l284 162l115 -172l-393 -285h-15l-391 287l113 172z" />
    <glyph glyph-name="Sacute" unicode="&#x15a;" horiz-adv-x="1218" 
d="M1106 1108l-371 -74q-8 53 -79 75.5t-137.5 2t-61.5 -73.5q0 -24 14.5 -39t48.5 -36q59 -26 103 -37l137 -41q85 -26 144.5 -54.5t125.5 -76.5q141 -103 141 -312q0 -215 -149 -340q-151 -127 -391 -127q-221 0 -383 107t-209 278l381 78q12 -54 72 -89.5t141 -35.5
q70 0 117 26t47 67q0 40 -64 73q-78 40 -184 68q-154 49 -256 106q-100 59 -151 142.5t-58 212.5q0 200 137 325t359 125q199 0 342 -98q146 -99 184 -252zM489 1530l-106 176l446 285l148 -256z" />
    <glyph glyph-name="sacute" unicode="&#x15b;" horiz-adv-x="991" 
d="M942 793l-324 -52q-21 74 -131 74q-94 0 -94 -45q0 -34 74 -55l162 -49q179 -55 254 -132.5t75 -203.5q0 -171 -119.5 -263t-336.5 -92q-208 0 -327.5 84.5t-143.5 241.5l323 45q24 -88 154 -88q108 0 108 53q0 40 -96 64l-170 43q-162 38 -232.5 113.5t-70.5 205.5
q0 178 119 265.5t330 87.5q197 0 312 -77.5t134 -219.5zM387 1182l-106 176l446 284l145 -256z" />
    <glyph glyph-name="Scircumflex" unicode="&#x15c;" horiz-adv-x="1218" 
d="M1106 1108l-371 -74q-8 53 -79 75.5t-137.5 2t-61.5 -73.5q0 -24 14.5 -39t48.5 -36q59 -26 103 -37l137 -41q85 -26 144.5 -54.5t125.5 -76.5q141 -103 141 -312q0 -215 -149 -340q-151 -127 -391 -127q-221 0 -383 107t-209 278l381 78q12 -54 72 -89.5t141 -35.5
q70 0 117 26t47 67q0 40 -64 73q-78 40 -184 68q-154 49 -256 106q-100 59 -151 142.5t-58 212.5q0 200 137 325t359 125q199 0 342 -98q146 -99 184 -252zM600 1677l-287 -164l-112 175l391 284h14l393 -284l-114 -172z" />
    <glyph glyph-name="scircumflex" unicode="&#x15d;" horiz-adv-x="991" 
d="M942 793l-324 -52q-21 74 -131 74q-94 0 -94 -45q0 -34 74 -55l162 -49q179 -55 254 -132.5t75 -203.5q0 -171 -119.5 -263t-336.5 -92q-208 0 -327.5 84.5t-143.5 241.5l323 45q24 -88 154 -88q108 0 108 53q0 40 -96 64l-170 43q-162 38 -232.5 113.5t-70.5 205.5
q0 178 119 265.5t330 87.5q197 0 312 -77.5t134 -219.5zM496 1329l-285 -164l-115 174l393 285h15l391 -285l-113 -172z" />
    <glyph glyph-name="Scedilla" unicode="&#x15e;" horiz-adv-x="1218" 
d="M39 360l381 78q12 -54 72 -89.5t141 -35.5q70 0 117 26t47 67q0 40 -64 73q-78 40 -184 68q-154 49 -256 106q-100 59 -151 142.5t-58 212.5q0 200 137 325t359 125q199 0 342 -98q146 -99 184 -252l-371 -74q-8 53 -79 75.5t-137.5 2t-61.5 -73.5q0 -24 14.5 -39
t48.5 -36q59 -26 103 -37l137 -41q85 -26 144.5 -54.5t125.5 -76.5q141 -103 141 -312q0 -177 -105.5 -296.5t-287.5 -155.5l-16 -62q6 -1 15 -4t33 -15.5t42.5 -30t33.5 -50.5t15 -74q0 -98 -79.5 -163.5t-196.5 -65.5q-57 0 -117.5 19.5t-89.5 41.5l-29 19l29 145
q53 -47 139 -47q50 0 84.5 16.5t34.5 42.5q0 24 -38 41.5t-85 22.5l-43 4l37 150q-194 21 -330 122q-137 105 -178 258z" />
    <glyph glyph-name="scedilla" unicode="&#x15f;" horiz-adv-x="991" 
d="M387 -170l37 150q-350 30 -393 321l323 45q24 -88 154 -88q108 0 108 53q0 40 -96 64l-170 43q-162 38 -232.5 113.5t-70.5 205.5q0 178 119 265.5t330 87.5q197 0 312 -77.5t134 -219.5l-324 -52q-21 74 -131 74q-94 0 -94 -45q0 -34 74 -55l162 -49q179 -55 254 -132.5
t75 -203.5q0 -136 -78 -223.5t-225 -116.5l-16 -62q6 -1 15 -4t33 -15.5t42.5 -30t33.5 -50.5t15 -74q0 -98 -79.5 -163.5t-196.5 -65.5q-57 0 -117.5 19.5t-89.5 41.5l-29 19l29 145q53 -47 139 -47q50 0 84.5 16.5t34.5 42.5q0 24 -38 41.5t-85 22.5z" />
    <glyph glyph-name="Scaron" unicode="&#x160;" horiz-adv-x="1218" 
d="M1106 1108l-371 -74q-8 53 -79 75.5t-137.5 2t-61.5 -73.5q0 -24 14.5 -39t48.5 -36q59 -26 103 -37l137 -41q85 -26 144.5 -54.5t125.5 -76.5q141 -103 141 -312q0 -215 -149 -340q-151 -127 -391 -127q-221 0 -383 107t-209 278l381 78q12 -54 72 -89.5t141 -35.5
q70 0 117 26t47 67q0 40 -64 73q-78 40 -184 68q-154 49 -256 106q-100 59 -151 142.5t-58 212.5q0 200 137 325t359 125q199 0 342 -98q146 -99 184 -252zM600 1810l285 162l114 -172l-393 -284h-14l-391 286l112 172z" />
    <glyph glyph-name="scaron" unicode="&#x161;" horiz-adv-x="991" 
d="M942 793l-324 -52q-21 74 -131 74q-94 0 -94 -45q0 -34 74 -55l162 -49q179 -55 254 -132.5t75 -203.5q0 -171 -119.5 -263t-336.5 -92q-208 0 -327.5 84.5t-143.5 241.5l323 45q24 -88 154 -88q108 0 108 53q0 40 -96 64l-170 43q-162 38 -232.5 113.5t-70.5 205.5
q0 178 119 265.5t330 87.5q197 0 312 -77.5t134 -219.5zM496 1462l286 162l113 -172l-391 -285h-15l-393 287l115 172z" />
    <glyph glyph-name="uni0162" unicode="&#x162;" horiz-adv-x="1263" 
d="M444 0v1090h-407v344h1190v-344h-408v-1090h-375zM606 -373q-50 11 -83.5 53t-33.5 97q0 61 42.5 102t105.5 41q71 0 117.5 -54t46.5 -130q0 -50 -22 -99t-51 -82t-63.5 -62t-52.5 -40.5t-26 -15.5l-78 80q98 73 98 110z" />
    <glyph glyph-name="uni0163" unicode="&#x163;" horiz-adv-x="768" 
d="M14 754v311h140v203h358v-203h217v-311h-217v-330q0 -41 29 -68.5t73 -27.5h117v-328h-194q-163 0 -273 98t-110 244v412h-140zM602 -264q0 -50 -22 -99t-50.5 -82t-62.5 -62t-52 -40.5t-26 -15.5l-78 80q96 75 99 110q-51 11 -85 53t-34 97q0 60 42 101.5t105 41.5
q71 0 117.5 -52.5t46.5 -131.5z" />
    <glyph glyph-name="Tcaron" unicode="&#x164;" horiz-adv-x="1263" 
d="M37 1434h1190v-344h-408v-1090h-375v1090h-407v344zM639 1516h-14l-392 286l113 172l287 -164l285 162l114 -172z" />
    <glyph glyph-name="tcaron" unicode="&#x165;" horiz-adv-x="894" 
d="M14 754v311h140v203h358v-203h217v-311h-217v-330q0 -41 29 -68.5t73 -27.5h117v-328h-194q-163 0 -273 98t-110 244v412h-140zM874 1397q0 -50 -21.5 -99t-50 -82t-62.5 -62t-52.5 -40.5t-25.5 -15.5l-80 80q98 73 98 110q-50 11 -83.5 52t-33.5 96q0 62 42.5 103.5
t105.5 41.5q71 0 117 -54t46 -130z" />
    <glyph glyph-name="Tbar" unicode="&#x166;" horiz-adv-x="1263" 
d="M1036 479h-217v-479h-375v479h-217v316h217v295h-407v344h1190v-344h-408v-295h217v-316z" />
    <glyph glyph-name="tbar" unicode="&#x167;" horiz-adv-x="768" 
d="M154 754h-140v311h140v203h358v-203h217v-311h-217v-105h156v-196h-156v-29q0 -41 29 -68.5t73 -27.5h117v-328h-194q-163 0 -273 98t-110 244v111h-97v196h97v105z" />
    <glyph glyph-name="Utilde" unicode="&#x168;" horiz-adv-x="1423" 
d="M981 588v846h375v-848q0 -258 -185 -434q-186 -177 -458 -177q-275 0 -461 177q-184 175 -184 434v848h374v-846q0 -117 76 -193t195 -76q114 0 190 76q78 78 78 193zM549 1567h-215q0 113 76 198q77 86 186 86q69 0 131 -45q64 -43 84 -43q25 0 44 22.5t19 53.5h213
q0 -122 -75 -203q-73 -82 -183 -82q-69 0 -133 43q-62 45 -84 45q-26 0 -44.5 -21.5t-18.5 -53.5z" />
    <glyph glyph-name="utilde" unicode="&#x169;" horiz-adv-x="1142" 
d="M63 379v686h359v-596q0 -71 42.5 -117.5t106.5 -46.5q63 0 106.5 47.5t43.5 116.5v596h358v-1065h-358v86q-102 -111 -264 -111q-165 0 -279 117q-115 118 -115 287zM410 1219h-215q0 112 77 198t185 86q69 0 131 -45q64 -43 84 -43q25 0 44 22.5t19 53.5h213
q0 -121 -76 -203q-73 -82 -182 -82q-69 0 -133 43q-62 45 -84 45q-26 0 -44.5 -21.5t-18.5 -53.5z" />
    <glyph glyph-name="Umacron" unicode="&#x16a;" horiz-adv-x="1423" 
d="M981 588v846h375v-848q0 -258 -185 -434q-186 -177 -458 -177q-275 0 -461 177q-184 175 -184 434v848h374v-846q0 -117 76 -193t195 -76q114 0 190 76q78 78 78 193zM1034 1581h-645v248h645v-248z" />
    <glyph glyph-name="umacron" unicode="&#x16b;" horiz-adv-x="1142" 
d="M457 -25q-165 0 -279 117q-115 118 -115 287v686h359v-596q0 -71 42.5 -117.5t106.5 -46.5q63 0 106.5 47.5t43.5 116.5v596h358v-1065h-358v86q-102 -111 -264 -111zM895 1481v-248h-645v248h645z" />
    <glyph glyph-name="Ubreve" unicode="&#x16c;" horiz-adv-x="1423" 
d="M981 588v846h375v-848q0 -258 -185 -434q-186 -177 -458 -177q-275 0 -461 177q-184 175 -184 434v848h374v-846q0 -117 76 -193t195 -76q114 0 190 76q78 78 78 193zM358 1864h230q0 -57 34 -95t85 -38t82.5 37.5t31.5 95.5h230q0 -145 -99 -244q-98 -98 -247 -98
q-150 0 -248 98q-99 99 -99 244z" />
    <glyph glyph-name="ubreve" unicode="&#x16d;" horiz-adv-x="1142" 
d="M63 379v686h359v-596q0 -71 42.5 -117.5t106.5 -46.5q63 0 106.5 47.5t43.5 116.5v596h358v-1065h-358v86q-102 -111 -264 -111q-165 0 -279 117q-115 118 -115 287zM219 1516h230q0 -57 33.5 -95.5t84.5 -38.5t83 38t32 96h229q0 -146 -98 -244t-248 -98t-248 98
t-98 244z" />
    <glyph glyph-name="Uring" unicode="&#x16e;" horiz-adv-x="1423" 
d="M981 588v846h375v-848q0 -258 -185 -434q-186 -177 -458 -177q-275 0 -461 177q-184 175 -184 434v848h374v-846q0 -117 76 -193t195 -76q114 0 190 76q78 78 78 193zM455 1780q0 107 75 182q76 76 183 76q106 0 182 -76t76 -182q0 -107 -76 -183q-75 -75 -182 -75
t-183 73q-75 75 -75 185zM668 1823q-17 -17 -17 -43t17 -45q19 -17 45 -17t43 17q19 21 17 46t-19 40t-40 19t-46 -17z" />
    <glyph glyph-name="uring" unicode="&#x16f;" horiz-adv-x="1142" 
d="M63 379v686h359v-596q0 -71 42.5 -117.5t106.5 -46.5q63 0 106.5 47.5t43.5 116.5v596h358v-1065h-358v86q-102 -111 -264 -111q-165 0 -279 117q-115 118 -115 287zM315 1432q0 106 76 182t182 76q107 0 183 -76q75 -75 75 -182q0 -108 -75 -183t-183 -75
q-106 0 -182 73q-76 76 -76 185zM616 1475q-17 17 -43 17t-45 -17q-17 -17 -17 -43.5t17 -45.5q19 -17 45 -17t43 17q17 19 17 45.5t-17 43.5z" />
    <glyph glyph-name="Uhungarumlaut" unicode="&#x170;" horiz-adv-x="1423" 
d="M981 588v846h375v-848q0 -258 -185 -434q-186 -177 -458 -177q-275 0 -461 177q-184 175 -184 434v848h374v-846q0 -117 76 -193t195 -76q114 0 190 76q78 78 78 193zM500 1516l-162 129l293 380l227 -190zM946 1516l-162 129l293 380l226 -190z" />
    <glyph glyph-name="uhungarumlaut" unicode="&#x171;" horiz-adv-x="1142" 
d="M63 379v686h359v-596q0 -71 42.5 -117.5t106.5 -46.5q63 0 106.5 47.5t43.5 116.5v596h358v-1065h-358v86q-102 -111 -264 -111q-165 0 -279 117q-115 118 -115 287zM360 1167l-161 129l293 381l227 -190zM1163 1487l-356 -320l-162 129l293 381z" />
    <glyph glyph-name="Uogonek" unicode="&#x172;" horiz-adv-x="1423" 
d="M68 586v848h374v-846q0 -117 76 -193t195 -76q114 0 190 76q78 78 78 193v846h375v-848q0 -221 -137 -383q-139 -165 -355 -211q-112 -103 -112 -187q0 -71 82 -71q25 0 52 10t40 23l14 10l82 -113l-39 -35q-15 -15 -96 -53q-72 -35 -142 -35q-99 0 -163 57.5t-64 149.5
q0 109 98 234q-240 30 -395 198q-153 170 -153 406z" />
    <glyph glyph-name="uogonek" unicode="&#x173;" horiz-adv-x="1142" 
d="M457 -25q-165 0 -279 117q-115 118 -115 287v686h359v-596q0 -71 42.5 -117.5t106.5 -46.5q63 0 106.5 47.5t43.5 116.5v596h358v-1065h-39l-34 -31q-27 -27 -56 -71q-32 -49 -32 -93q0 -34 22.5 -52.5t58.5 -18.5q28 0 55 10t40 23l14 10l82 -113l-39 -35
q-15 -15 -96 -53q-75 -35 -144 -35q-97 0 -161 58.5t-64 148.5q0 53 26.5 116.5t59.5 102.5l29 33h-80v86q-102 -111 -264 -111z" />
    <glyph glyph-name="Wcircumflex" unicode="&#x174;" horiz-adv-x="2045" 
d="M793 0h-312l-475 1434h383l244 -824l235 824h310l239 -824l240 824h383l-475 -1434h-310l-231 776zM1024 1677l-287 -164l-112 175l391 284h14l393 -284l-114 -172z" />
    <glyph glyph-name="wcircumflex" unicode="&#x175;" horiz-adv-x="1587" 
d="M332 0l-326 1065h361l129 -504l131 504h334l131 -504l129 504h360l-326 -1065h-329l-131 477l-133 -477h-330zM795 1329l-285 -164l-115 174l393 285h15l391 -285l-113 -172z" />
    <glyph glyph-name="Ycircumflex" unicode="&#x176;" horiz-adv-x="1454" 
d="M535 0v592l-529 842h430l285 -488l299 488h428l-539 -830v-604h-374zM442 1513l-112 175l391 284h14l393 -284l-114 -172l-285 161z" />
    <glyph glyph-name="ycircumflex" unicode="&#x177;" horiz-adv-x="1144" 
d="M401 -6l-395 1071h369l194 -590l201 590h369l-426 -1149q-78 -198 -211 -287.5t-348 -89.5h-33v342h33q186 0 247 113zM287 1165l-113 174l391 285h15l393 -285l-115 -172l-285 162z" />
    <glyph glyph-name="Ydieresis" unicode="&#x178;" horiz-adv-x="1454" 
d="M535 0v592l-529 842h430l285 -488l299 488h428l-539 -830v-604h-374zM944 1866q75 0 124.5 -49t49.5 -123t-49.5 -123t-124.5 -49q-72 0 -121 49.5t-49 122.5t49 122.5t121 49.5zM387 1571q-49 49 -49 123t49 123t123 49t123 -49t49 -123t-49 -123t-123 -49t-123 49z" />
    <glyph glyph-name="Zacute" unicode="&#x179;" horiz-adv-x="1275" 
d="M1219 344v-344h-1158v289l629 801h-622v344h1144v-287l-632 -803h639zM530 1530l-106 176l446 285l148 -256z" />
    <glyph glyph-name="zacute" unicode="&#x17a;" horiz-adv-x="991" 
d="M940 326v-326h-889v236l385 503h-375v326h869v-236l-381 -503h391zM874 1386l-487 -204l-106 176l446 284z" />
    <glyph glyph-name="Zdotaccent" unicode="&#x17b;" horiz-adv-x="1275" 
d="M1219 0h-1158v289l629 801h-622v344h1144v-287l-632 -803h639v-344zM451 1710q0 82 54 136.5t134 54.5q81 0 134.5 -54.5t53.5 -136.5q0 -80 -53.5 -134t-134.5 -54q-79 0 -133.5 54t-54.5 134z" />
    <glyph glyph-name="zdotaccent" unicode="&#x17c;" horiz-adv-x="991" 
d="M940 326v-326h-889v236l385 503h-375v326h869v-236l-381 -503h391zM496 1174q-80 0 -134.5 54.5t-54.5 133.5q0 81 54.5 135.5t134.5 54.5q82 0 135 -54t53 -136q0 -80 -53.5 -134t-134.5 -54z" />
    <glyph glyph-name="Zcaron" unicode="&#x17d;" horiz-adv-x="1275" 
d="M1219 0h-1158v289l629 801h-622v344h1144v-287l-632 -803h639v-344zM647 1516h-14l-391 286l112 172l287 -164l285 162l114 -172z" />
    <glyph glyph-name="zcaron" unicode="&#x17e;" horiz-adv-x="991" 
d="M940 326v-326h-889v236l385 503h-375v326h869v-236l-381 -503h391zM504 1167h-15l-391 287l113 172l287 -164l284 162l115 -172z" />
    <glyph glyph-name="uni018F" unicode="&#x18f;" horiz-adv-x="1622" 
d="M811 1458q322 0 541 -213q217 -211 217 -528q0 -320 -217 -531t-541 -211q-322 0 -541 213q-217 211 -217 531q0 68 13 151h393h-6h710q-50 106 -143.5 168t-208.5 62q-157 0 -264 -101l-375 138q100 150 269.5 235.5t369.5 85.5zM811 336q107 0 197.5 50.5t146.5 139.5
h-688q58 -89 148.5 -139.5t195.5 -50.5z" />
    <glyph glyph-name="florin" unicode="&#x192;" horiz-adv-x="897" 
d="M-6 -461h-146l58 328h112q42 0 75.5 25t39.5 61l123 692h-145l53 299h143l41 227q27 155 166 261q140 104 322 104h147l-59 -328h-111q-42 0 -75.5 -25t-39.5 -61l-32 -178h211l-54 -299h-209l-131 -741q-27 -153 -170 -260q-138 -105 -319 -105z" />
    <glyph glyph-name="uni01DD" unicode="&#x1dd;" horiz-adv-x="1206" 
d="M45 659h739q-59 140 -215 140q-97 0 -163 -78l-347 65q70 138 209 221t310 83q252 0 423 -160q168 -158 168 -398q0 -234 -163 -397q-165 -160 -408 -160q-240 0 -405 160q-162 162 -162 397q0 72 14 127zM784 401h-391q30 -62 82.5 -98.5t114.5 -36.5q61 0 112.5 36.5
t81.5 98.5z" />
    <glyph glyph-name="Aringacute" unicode="&#x1fa;" horiz-adv-x="1511" 
d="M483 213l-86 -213h-391l594 1430q-102 76 -102 206q0 108 75 183t183 75q69 0 127 -34l364 233l148 -256l-383 -162q0 -92 -20 -143.5t-81 -99.5l594 -1432h-391l-84 213h-547zM758 899l-144 -356h285zM713 1591q17 -17 43 -17t43 17q19 19 19 45t-19 43q-17 17 -43 17
t-43 -17t-17 -43t17 -45z" />
    <glyph glyph-name="aringacute" unicode="&#x1fb;" 
d="M526 -25q-208 0 -350 160q-139 160 -139 397q0 238 139 398q142 160 350 160q143 0 265 -84v59h358v-1065h-358v59q-122 -84 -265 -84zM365 1432q0 107 75 182q76 76 183 76q67 0 131 -37l358 229l148 -256l-381 -160q2 -8 2 -34q0 -105 -78 -183q-75 -75 -180 -75
q-107 0 -183 73q-75 75 -75 185zM786 535q0 86 -54.5 144t-133.5 58q-78 0 -132 -58t-54 -144t54 -146.5t132 -60.5t133 60t55 147zM578 1475q-17 -17 -17 -43.5t17 -45.5q19 -17 45 -17t43 17q19 21 17 46.5t-19 40t-40 19t-46 -16.5z" />
    <glyph glyph-name="AEacute" unicode="&#x1fc;" horiz-adv-x="2093" 
d="M424 0h-418l832 1434h1194v-344h-648v-195h525v-344h-525v-207h658v-344h-1032v213h-467zM1532 1735l-488 -205l-106 176l446 285zM727 543h283v504z" />
    <glyph glyph-name="aeacute" unicode="&#x1fd;" horiz-adv-x="1959" 
d="M520 -25q-205 0 -344 160t-139 397q0 238 139 398t344 160q152 0 271 -93v68h358v-55q124 77 268 77q218 0 365 -159t147 -396q0 -74 -14 -126h-739q24 -64 79.5 -102t128.5 -38q104 0 170 78l347 -65q-64 -139 -188.5 -221.5t-280.5 -82.5q-158 0 -283 82v-57h-358v68
q-119 -93 -271 -93zM786 535q0 86 -54.5 144t-133.5 58q-78 0 -132 -58t-54 -144t54 -146.5t132 -60.5t133 60t55 147zM1341 1386l-487 -204l-106 176l446 284zM1176 664h391q-23 62 -76.5 98.5t-120.5 36.5q-65 0 -117 -36.5t-77 -98.5z" />
    <glyph glyph-name="Oslashacute" unicode="&#x1fe;" horiz-adv-x="1622" 
d="M260 68l57 82q-125 100 -194.5 248t-69.5 319q0 317 217 528q219 213 541 213q187 0 360 -84l60 84l133 -94l-57 -80q124 -104 193 -251t69 -316q0 -318 -217 -529q-219 -213 -541 -213q-192 0 -358 84l-60 -84zM1090 973l-424 -608q73 -29 145 -29q158 0 262 110
q107 110 107 273q0 144 -90 254zM537 461l421 608q-70 31 -147 31q-154 0 -262 -111q-105 -108 -105 -270q0 -151 93 -258zM702 1530l-106 176l446 285l148 -256z" />
    <glyph glyph-name="oslashacute" unicode="&#x1ff;" horiz-adv-x="1222" 
d="M610 1090q149 0 267 -62l43 62l106 -76l-39 -58q199 -163 199 -424q0 -234 -166 -397q-165 -160 -410 -160q-148 0 -266 62l-41 -62l-108 78l38 56q-196 159 -196 423q0 237 164 396q162 162 409 162zM774 651l-221 -315q21 -8 57 -8q84 0 142.5 59.5t58.5 144.5
q0 70 -37 119zM446 414l222 315q-21 8 -58 8q-82 0 -140 -60t-58 -145q0 -66 34 -118zM502 1182l-107 176l447 284l147 -256z" />
    <glyph glyph-name="uni0218" unicode="&#x218;" horiz-adv-x="1218" 
d="M1106 1108l-371 -74q-8 53 -79 75.5t-137.5 2t-61.5 -73.5q0 -24 14.5 -39t48.5 -36q59 -26 103 -37l137 -41q85 -26 144.5 -54.5t125.5 -76.5q141 -103 141 -312q0 -215 -149 -340q-151 -127 -391 -127q-221 0 -383 107t-209 278l381 78q12 -54 72 -89.5t141 -35.5
q70 0 117 26t47 67q0 40 -64 73q-78 40 -184 68q-154 49 -256 106q-100 59 -151 142.5t-58 212.5q0 200 137 325t359 125q199 0 342 -98q146 -99 184 -252zM825 -264q0 -157 -213 -299l-77 80q96 75 96 110q-50 11 -83.5 53t-33.5 97q0 60 42.5 101.5t105.5 41.5
q71 0 117 -54t46 -130z" />
    <glyph glyph-name="uni0219" unicode="&#x219;" horiz-adv-x="991" 
d="M942 793l-324 -52q-21 74 -131 74q-94 0 -94 -45q0 -34 74 -55l162 -49q179 -55 254 -132.5t75 -203.5q0 -171 -119.5 -263t-336.5 -92q-208 0 -327.5 84.5t-143.5 241.5l323 45q24 -88 154 -88q108 0 108 53q0 40 -96 64l-170 43q-162 38 -232.5 113.5t-70.5 205.5
q0 178 119 265.5t330 87.5q197 0 312 -77.5t134 -219.5zM702 -264q0 -157 -213 -299l-79 80q98 73 98 110q-50 11 -83.5 53t-33.5 97q0 60 42.5 101.5t105.5 41.5q71 0 117 -54t46 -130z" />
    <glyph glyph-name="uni021A" unicode="&#x21a;" horiz-adv-x="1263" 
d="M444 0v1090h-407v344h1190v-344h-408v-1090h-375zM606 -373q-50 11 -83.5 53t-33.5 97q0 61 42.5 102t105.5 41q71 0 117.5 -54t46.5 -130q0 -50 -22 -99t-51 -82t-63.5 -62t-52.5 -40.5t-26 -15.5l-78 80q98 73 98 110z" />
    <glyph glyph-name="uni021B" unicode="&#x21b;" horiz-adv-x="768" 
d="M14 754v311h140v203h358v-203h217v-311h-217v-330q0 -41 29 -68.5t73 -27.5h117v-328h-194q-163 0 -273 98t-110 244v412h-140zM602 -264q0 -50 -22 -99t-50.5 -82t-62.5 -62t-52 -40.5t-26 -15.5l-78 80q96 75 99 110q-51 11 -85 53t-34 97q0 60 42 101.5t105 41.5
q71 0 117.5 -52.5t46.5 -131.5z" />
    <glyph glyph-name="uni0237" unicode="&#x237;" horiz-adv-x="493" 
d="M74 1065h358v-1157q0 -155 -125 -262t-307 -107h-102v342h73q45 0 74 21.5t29 56.5v1106z" />
    <glyph glyph-name="uni0259" unicode="&#x259;" horiz-adv-x="1206" 
d="M45 659h739q-59 140 -215 140q-97 0 -163 -78l-347 65q70 138 209 221t310 83q252 0 423 -160q168 -158 168 -398q0 -234 -163 -397q-165 -160 -408 -160q-240 0 -405 160q-162 162 -162 397q0 72 14 127zM784 401h-391q30 -62 82.5 -98.5t114.5 -36.5q61 0 112.5 36.5
t81.5 98.5z" />
    <glyph glyph-name="circumflex" unicode="&#x2c6;" horiz-adv-x="933" 
d="M467 1589l-285 -164l-114 174l393 285h14l391 -285l-112 -172z" />
    <glyph glyph-name="caron" unicode="&#x2c7;" horiz-adv-x="933" 
d="M467 1722l287 162l112 -172l-391 -285h-14l-393 285l114 174z" />
    <glyph glyph-name="breve" unicode="&#x2d8;" horiz-adv-x="827" 
d="M68 1776h229q0 -57 34 -95.5t85 -38.5q50 0 82 38t32 96h230q0 -146 -98 -244t-248 -98t-248 98t-98 244z" />
    <glyph glyph-name="dotaccent" unicode="&#x2d9;" horiz-adv-x="512" 
d="M121 1487q-53 53 -53 135t53 135t135 53t135 -53t53 -135t-53 -135t-135 -53t-135 53z" />
    <glyph glyph-name="ring" unicode="&#x2da;" horiz-adv-x="651" 
d="M68 1690q0 107 75 182q76 76 183 76q106 0 182 -76t76 -182q0 -107 -76 -183q-75 -75 -182 -75q-109 0 -185 73q-73 76 -73 185zM283 1733q-17 -17 -17 -43t17 -43t43 -17t43 17q28 25 16 59t-43 42.5t-59 -15.5z" />
    <glyph glyph-name="ogonek" unicode="&#x2db;" horiz-adv-x="638" 
d="M154 -35l28 35h242l-35 -31q-24 -24 -55 -71q-33 -50 -33 -93q0 -71 82 -71q25 0 52 10t40 23l14 10l82 -113l-39 -35q-15 -15 -96 -53q-75 -35 -143 -35q-97 0 -161 58.5t-64 148.5q0 53 26.5 115.5t59.5 101.5z" />
    <glyph glyph-name="tilde" unicode="&#x2dc;" horiz-adv-x="888" 
d="M281 1479h-213q0 112 77 198t185 86q69 0 131 -45q64 -43 84 -43q25 0 44 22.5t19 53.5h213q0 -121 -76 -203t-182 -82q-69 0 -133 43q-62 45 -84 45q-27 0 -46 -21.5t-19 -53.5z" />
    <glyph glyph-name="hungarumlaut" unicode="&#x2dd;" horiz-adv-x="1099" 
d="M229 1427l-161 132l292 380l228 -190zM676 1427l-162 132l293 380l225 -190z" />
    <glyph glyph-name="uni0394" unicode="&#x394;" horiz-adv-x="1499" 
d="M1493 0h-1487l588 1434h311zM973 330l-223 567l-224 -567h447z" />
    <glyph glyph-name="uni03A9" unicode="&#x3a9;" horiz-adv-x="1622" 
d="M53 760q0 298 217 497q219 201 543 201q321 0 539 -203q217 -199 217 -497q0 -225 -139 -408h139v-350h-611v350q99 48 160.5 145.5t61.5 213.5q0 163 -107 276q-109 115 -262 115q-155 0 -262 -113q-105 -114 -105 -278q0 -119 63.5 -216.5t164.5 -142.5v-350h-611v350
h134q-142 186 -142 410z" />
    <glyph glyph-name="uni0400" unicode="&#x400;" 
d="M74 0v1434h1083v-344h-708v-195h587v-344h-587v-207h718v-344h-1093zM821 1706l-106 -176l-488 205l148 256z" />
    <glyph glyph-name="uni0401" unicode="&#x401;" 
d="M1167 0h-1093v1434h1083v-344h-708v-195h587v-344h-587v-207h718v-344zM391 1522q-72 0 -121 49.5t-49 122.5t49 122.5t121 49.5q75 0 123.5 -49t48.5 -123t-48.5 -123t-123.5 -49zM827 1866q73 0 122.5 -49t49.5 -123t-49.5 -123t-122.5 -49q-72 0 -121 49.5t-49 122.5
t49 122.5t121 49.5z" />
    <glyph glyph-name="uni0402" unicode="&#x402;" horiz-adv-x="1697" 
d="M444 0v1090h-407v344h1188v-344h-406v-172q120 24 228 24q267 0 422 -129t155 -356q0 -238 -166 -361q-168 -121 -436 -121v344q227 0 227 138q0 141 -221 141q-98 0 -209 -27v-571h-375z" />
    <glyph glyph-name="uni0403" unicode="&#x403;" horiz-adv-x="1087" 
d="M449 1090v-1090h-375v1434h977v-344h-602zM926 1735l-488 -205l-106 176l446 285z" />
    <glyph glyph-name="uni0404" unicode="&#x404;" horiz-adv-x="1542" 
d="M811 1458q231 0 420 -115q186 -113 272 -307l-362 -133q-44 91 -132.5 144t-197.5 53q-112 0 -201.5 -58.5t-132.5 -158.5h498v-318h-504q42 -105 133 -167t207 -62q110 0 198 52t132 144l362 -135q-89 -194 -274 -307q-186 -115 -418 -115q-324 0 -541 211t-217 531
q0 317 217 528q219 213 541 213z" />
    <glyph glyph-name="uni0405" unicode="&#x405;" horiz-adv-x="1218" 
d="M1106 1108l-371 -74q-8 53 -79 75.5t-137.5 2t-61.5 -73.5q0 -24 14.5 -39t48.5 -36q59 -26 103 -37l137 -41q85 -26 144.5 -54.5t125.5 -76.5q141 -103 141 -312q0 -215 -149 -340q-151 -127 -391 -127q-221 0 -383 107t-209 278l381 78q12 -54 72 -89.5t141 -35.5
q70 0 117 26t47 67q0 40 -64 73q-78 40 -184 68q-154 49 -256 106q-100 59 -151 142.5t-58 212.5q0 200 137 325t359 125q199 0 342 -98q146 -99 184 -252z" />
    <glyph glyph-name="uni0406" unicode="&#x406;" horiz-adv-x="522" 
d="M449 0h-375v1434h375v-1434z" />
    <glyph glyph-name="uni0407" unicode="&#x407;" horiz-adv-x="522" 
d="M449 0h-375v1434h375v-1434zM43 1866q75 0 123.5 -49t48.5 -123t-48.5 -123t-123.5 -49q-72 0 -122 49.5t-50 122.5t50 122.5t122 49.5zM479 1866q73 0 122.5 -49t49.5 -123t-49.5 -123t-122.5 -49q-72 0 -121 49.5t-49 122.5t49 122.5t121 49.5z" />
    <glyph glyph-name="uni0408" unicode="&#x408;" horiz-adv-x="1189" 
d="M1122 1434v-891q0 -243 -172 -406q-171 -162 -432 -162q-160 0 -294.5 69t-213.5 189l309 203q65 -117 207 -117q100 0 168 65.5t68 162.5v887h360z" />
    <glyph glyph-name="uni0409" unicode="&#x409;" horiz-adv-x="2215" 
d="M76 0h-70v344h70q84 0 125 80q43 82 43 315v695h1097v-453h289q229 0 379 -141q154 -139 154 -351q0 -208 -154 -350q-151 -139 -379 -139h-661v1090h-351v-351q0 -368 -142.5 -553.5t-399.5 -185.5zM1341 637v-293h289q61 0 102.5 41.5t41.5 103.5q0 63 -41.5 105.5
t-102.5 42.5h-289z" />
    <glyph glyph-name="uni040A" unicode="&#x40a;" horiz-adv-x="2236" 
d="M449 0h-375v1434h375v-494h538v494h375v-494h289q229 0 379 -135q153 -135 153 -336t-153 -336q-151 -133 -379 -133h-664v596h-538v-596zM1651 596h-289v-252h289q62 0 102.5 35.5t40.5 89.5t-41 90.5t-102 36.5z" />
    <glyph glyph-name="uni040B" unicode="&#x40b;" horiz-adv-x="1697" 
d="M444 0v1090h-407v344h1188v-344h-406v-170q113 22 219 22q273 0 429.5 -129.5t156.5 -361.5v-451h-375v451q0 147 -225 147q-87 0 -205 -23v-575h-375z" />
    <glyph glyph-name="uni040C" unicode="&#x40c;" horiz-adv-x="1376" 
d="M449 0h-375v1434h375v-519l407 519h473l-549 -699l590 -735h-473l-448 559v-559zM1047 1735l-488 -205l-106 176l446 285z" />
    <glyph glyph-name="uni040D" unicode="&#x40d;" horiz-adv-x="1452" 
d="M1004 803l-580 -803h-350v1434h375v-809l579 809h350v-1434h-374v803zM831 1530l-487 205l148 256l446 -285z" />
    <glyph glyph-name="uni040E" unicode="&#x40e;" horiz-adv-x="1470" 
d="M553 428l-547 1006h412l342 -646l305 646h399l-440 -924q-127 -269 -281 -389.5t-370 -120.5h-129v344h98q124 0 211 84zM352 1905h244q0 -62 41 -103t104 -41q60 0 101 41.5t41 102.5h243q0 -160 -110 -273q-110 -110 -277 -110q-166 0 -276 110q-111 114 -111 273z" />
    <glyph glyph-name="uni040F" unicode="&#x40f;" horiz-adv-x="1435" 
d="M74 0v1434h375v-1090h538v1090h375v-1434h-457v-348h-375v348h-456z" />
    <glyph glyph-name="uni0410" unicode="&#x410;" horiz-adv-x="1511" 
d="M397 0h-391l596 1434h309l594 -1434h-391l-84 213h-547zM758 899l-144 -356h285z" />
    <glyph glyph-name="uni0411" unicode="&#x411;" horiz-adv-x="1325" 
d="M74 1434h1067v-344h-692v-152h288q229 0 379 -135q152 -134 152 -334q0 -199 -152 -336q-151 -133 -379 -133h-663v1434zM449 594v-250h288q60 0 101 35.5t41 89.5t-41 89.5t-101 35.5h-288z" />
    <glyph glyph-name="uni0412" unicode="&#x412;" horiz-adv-x="1376" 
d="M825 0h-751v1434h710q204 0 342 -117t138 -293q0 -165 -123 -279q174 -119 174 -325q0 -181 -141 -301q-137 -119 -349 -119zM819 569h-370v-225h370q44 0 75.5 33t31.5 80t-31.5 79.5t-75.5 32.5zM778 1090h-329v-205h329q35 0 61.5 22.5t32.5 59.5q2 4 2 20
q0 44 -27.5 73.5t-68.5 29.5z" />
    <glyph glyph-name="uni0413" unicode="&#x413;" horiz-adv-x="1087" 
d="M449 1090v-1090h-375v1434h977v-344h-602z" />
    <glyph glyph-name="uni0414" unicode="&#x414;" horiz-adv-x="1658" 
d="M406 0v-348h-375v692h170q104 52 104 387v703h1114v-1090h209v-692h-375v348h-847zM616 344h428v746h-364v-347q0 -237 -64 -399z" />
    <glyph glyph-name="uni0415" unicode="&#x415;" 
d="M74 1434h1083v-344h-708v-195h587v-344h-587v-207h718v-344h-1093v1434z" />
    <glyph glyph-name="uni0416" unicode="&#x416;" horiz-adv-x="2127" 
d="M467 0h-461l539 735l-498 699h461l373 -523v523h374v-514l367 514h459l-496 -699l537 -735h-459l-408 557v-557h-374v565z" />
    <glyph glyph-name="uni0417" unicode="&#x417;" horiz-adv-x="1339" 
d="M678 -25q-223 0 -385 96t-242 265l367 135q58 -135 256 -135q97 0 155 34.5t58 90.5q0 47 -38.5 80.5t-92.5 33.5h-264v302h258q49 0 80.5 29.5t31.5 72.5q0 54 -50 86.5t-136 32.5q-186 0 -244 -135l-364 135q75 168 234.5 264t377.5 96q245 0 410 -121
q161 -118 161 -303q0 -184 -155 -303q180 -125 180 -323q0 -187 -170 -310t-428 -123z" />
    <glyph glyph-name="uni0418" unicode="&#x418;" horiz-adv-x="1452" 
d="M424 0h-350v1434h375v-809l579 809h350v-1434h-374v803z" />
    <glyph glyph-name="uni0419" unicode="&#x419;" horiz-adv-x="1452" 
d="M424 0h-350v1434h375v-809l579 809h350v-1434h-374v803zM352 1905h242q0 -61 41.5 -102.5t103.5 -41.5q60 0 102 41.5t42 102.5h241q0 -163 -110 -273t-275 -110q-166 0 -276 110q-111 114 -111 273z" />
    <glyph glyph-name="uni041A" unicode="&#x41a;" horiz-adv-x="1376" 
d="M74 0v1434h375v-519l407 519h473l-549 -699l590 -735h-473l-448 559v-559h-375z" />
    <glyph glyph-name="uni041B" unicode="&#x41b;" horiz-adv-x="1415" 
d="M76 0h-70v344h70q84 0 125 80q43 82 43 315v695h1099v-1434h-374v1090h-351v-351q0 -368 -142.5 -553.5t-399.5 -185.5z" />
    <glyph glyph-name="uni041C" unicode="&#x41c;" horiz-adv-x="1779" 
d="M440 0h-366v1434h366l451 -797l448 797h367v-1434h-367v743l-325 -600h-248l-326 598v-741z" />
    <glyph glyph-name="uni041D" unicode="&#x41d;" horiz-adv-x="1435" 
d="M449 0h-375v1434h375v-539h538v539h375v-1434h-375v551h-538v-551z" />
    <glyph glyph-name="uni041E" unicode="&#x41e;" horiz-adv-x="1622" 
d="M811 1458q322 0 541 -213q217 -211 217 -528q0 -318 -217 -529q-219 -213 -541 -213t-541 213q-217 211 -217 529q0 317 217 528q219 213 541 213zM444 719q0 -164 105 -275q108 -108 262 -108q158 0 262 110q107 110 107 273t-107 270q-108 111 -262 111t-262 -111
q-105 -108 -105 -270z" />
    <glyph glyph-name="uni041F" unicode="&#x41f;" horiz-adv-x="1435" 
d="M449 1090v-1090h-375v1434h1288v-1434h-375v1090h-538z" />
    <glyph glyph-name="uni0420" unicode="&#x420;" horiz-adv-x="1312" 
d="M449 434v-434h-375v1434h659q232 0 385 -144q154 -142 154 -354q0 -214 -156 -358q-153 -144 -383 -144h-284zM733 1090h-284v-312h284q63 0 106.5 45.5t43.5 112.5q0 66 -43.5 110t-106.5 44z" />
    <glyph glyph-name="uni0421" unicode="&#x421;" horiz-adv-x="1542" 
d="M811 1458q231 0 420 -115q185 -113 274 -307l-364 -133q-44 91 -132 144t-198 53q-154 0 -262 -111q-105 -108 -105 -270q0 -164 105 -275q108 -108 262 -108q110 0 198 52.5t132 143.5l364 -135q-89 -194 -274 -307q-186 -115 -420 -115q-322 0 -541 213
q-217 211 -217 529q0 317 217 528q219 213 541 213z" />
    <glyph glyph-name="uni0422" unicode="&#x422;" horiz-adv-x="1263" 
d="M444 1090h-407v344h1190v-344h-408v-1090h-375v1090z" />
    <glyph glyph-name="uni0423" unicode="&#x423;" horiz-adv-x="1470" 
d="M551 430l-545 1004h412l342 -646l305 646h399l-440 -924q-127 -269 -281 -389.5t-370 -120.5h-129v344h98q126 0 209 86z" />
    <glyph glyph-name="uni0424" unicode="&#x424;" horiz-adv-x="1789" 
d="M709 1323v135h374v-135q273 -3 463 -178q191 -176 191 -428t-191 -428q-190 -175 -463 -178v-136h-374v136q-272 3 -465 178q-191 176 -191 428t191 428q193 175 465 178zM709 469v496q-107 0 -187 -74q-78 -72 -78 -174q0 -99 78 -174q80 -74 187 -74zM1083 965v-496
q110 3 187 74q78 75 78 174q0 102 -78 174q-77 71 -187 74z" />
    <glyph glyph-name="uni0425" unicode="&#x425;" horiz-adv-x="1482" 
d="M520 731l-493 703h446l268 -385l271 385h444l-491 -703l512 -731h-445l-291 414l-288 -414h-447z" />
    <glyph glyph-name="uni0426" unicode="&#x426;" horiz-adv-x="1603" 
d="M74 0v1434h375v-1090h538v1090h375v-1090h211v-692h-375v348h-1124z" />
    <glyph glyph-name="uni0427" unicode="&#x427;" horiz-adv-x="1339" 
d="M645 492q-283 0 -444.5 129.5t-161.5 361.5v451h373v-451q0 -147 239 -147q100 0 240 28v570h375v-1434h-375v518q-116 -26 -246 -26z" />
    <glyph glyph-name="uni0428" unicode="&#x428;" horiz-adv-x="2062" 
d="M74 0v1434h375v-1090h380v1090h375v-1090h410v1090h375v-1434h-1915z" />
    <glyph glyph-name="uni0429" unicode="&#x429;" horiz-adv-x="2230" 
d="M74 1434h375v-1090h380v1090h375v-1090h410v1090h375v-1090h211v-692h-375v348h-1751v1434z" />
    <glyph glyph-name="uni042A" unicode="&#x42a;" horiz-adv-x="1681" 
d="M37 1434h770v-453h291q229 0 379 -141q151 -139 151 -351q0 -208 -151 -350q-151 -139 -379 -139h-664v1090h-397v344zM807 637v-293h291q60 0 100.5 41.5t40.5 103.5q0 63 -40.5 105.5t-100.5 42.5h-291z" />
    <glyph glyph-name="uni042B" unicode="&#x42b;" horiz-adv-x="1802" 
d="M737 0h-663v1434h375v-453h288q229 0 379 -141q152 -140 152 -351q0 -207 -152 -350q-151 -139 -379 -139zM1729 0h-375v1434h375v-1434zM449 637v-293h288q60 0 101 42t41 103q0 57 -35.5 99.5t-89.5 48.5h-17h-288z" />
    <glyph glyph-name="uni042C" unicode="&#x42c;" horiz-adv-x="1320" 
d="M74 0v1434h375v-453h288q229 0 379 -141q152 -140 152 -351q0 -207 -152 -350q-151 -139 -379 -139h-663zM449 637v-293h288q55 0 95.5 36.5t46.5 92.5q0 72 -37.5 118t-104.5 46h-288z" />
    <glyph glyph-name="uni042D" unicode="&#x42d;" horiz-adv-x="1542" 
d="M39 397l362 135q44 -92 132 -144t198 -52q116 0 207 62t133 167h-457v318h451q-43 100 -132.5 158.5t-201.5 58.5q-109 0 -197.5 -53t-132.5 -144l-362 133q89 194 272 307q189 115 420 115q322 0 541 -213q217 -211 217 -528q0 -320 -217 -531t-541 -211
q-231 0 -420 115q-183 113 -272 307z" />
    <glyph glyph-name="uni042E" unicode="&#x42e;" horiz-adv-x="2148" 
d="M74 0v1434h375v-539h151q58 247 260 405q205 158 477 158q322 0 541 -213q217 -211 217 -528q0 -320 -217 -531t-541 -211q-276 0 -483 160q-203 160 -256 416h-149v-551h-375zM1073 989q-104 -107 -104 -272q0 -166 104 -273q108 -108 264 -108q157 0 262 108t105 273
q0 164 -105 272q-105 111 -262 111q-156 0 -264 -111z" />
    <glyph glyph-name="uni042F" unicode="&#x42f;" horiz-adv-x="1376" 
d="M741 459l-264 -459h-416l299 520q-122 62 -192 175t-70 249q0 212 150 350q152 140 377 140h678v-1434h-375v459h-187zM487 944q0 -61 39 -101t99 -40h303v287h-303q-60 0 -99 -41.5t-39 -104.5z" />
    <glyph glyph-name="uni0430" unicode="&#x430;" 
d="M526 1090q143 0 265 -84v59h358v-1065h-358v59q-122 -84 -265 -84q-208 0 -350 160q-139 160 -139 397q0 238 139 398q142 160 350 160zM786 535q0 86 -54.5 144t-133.5 58q-78 0 -132 -58t-54 -144t54 -146.5t132 -60.5t133 60t55 147z" />
    <glyph glyph-name="uni0431" unicode="&#x431;" horiz-adv-x="1286" 
d="M61 768q0 356 172 547t543 227l176 19q39 4 74.5 7.5t60.5 6t29 2.5v-348l-332 -33q-372 -41 -387 -235q114 129 312 129q218 0 374 -164q158 -166 158 -398q0 -240 -162 -395q-161 -158 -401 -158q-260 0 -440 201q-177 201 -177 592zM678 319q85 0 144 61.5t59 151.5
t-59 151.5t-144 61.5q-87 0 -146 -61.5t-59 -151.5t59 -151.5t146 -61.5z" />
    <glyph glyph-name="uni0432" unicode="&#x432;" horiz-adv-x="1122" 
d="M70 1065h600q157 0 266 -86q108 -85 108 -213q0 -121 -92 -207q142 -89 142 -229q0 -142 -111 -236q-107 -94 -272 -94h-641v1065zM414 424v-123h264q27 0 44 17.5t17 46.5q0 26 -17.5 42.5t-43.5 16.5h-264zM653 762h-239v-111h239q23 0 39 14t17 37q0 60 -56 60z" />
    <glyph glyph-name="uni0433" unicode="&#x433;" horiz-adv-x="788" 
d="M414 737v-737h-344v1065h706v-328h-362z" />
    <glyph glyph-name="uni0434" unicode="&#x434;" horiz-adv-x="1382" 
d="M360 -307h-344v637h179q36 85 36 346v389h951v-735h184v-637h-344v307h-662v-307zM535 330h303v407h-263v-94q0 -183 -40 -313z" />
    <glyph glyph-name="uni0435" unicode="&#x435;" horiz-adv-x="1206" 
d="M1161 406h-739q25 -64 80 -102t127 -38q106 0 172 78l344 -63q-70 -141 -208.5 -223.5t-313.5 -82.5q-249 0 -420 160q-166 163 -166 397q0 237 164 396q162 162 405 162q244 0 406 -162q164 -159 164 -396q0 -68 -15 -126zM422 664h389q-23 62 -76.5 98.5t-120.5 36.5
q-63 0 -116 -37t-76 -98z" />
    <glyph glyph-name="uni0436" unicode="&#x436;" horiz-adv-x="1693" 
d="M414 0h-408l371 551l-320 514h400l219 -348v348h344v-344l217 344h399l-317 -514l367 -551h-406l-260 391v-391h-344v393z" />
    <glyph glyph-name="uni0437" unicode="&#x437;" horiz-adv-x="1089" 
d="M23 307l350 88q11 -41 57 -65.5t115 -24.5q68 0 114 20.5t46 51.5q0 21 -17.5 35t-46.5 14h-201v227h191q23 0 39 12t16 31q0 26 -41 45t-98 19q-68 0 -113 -23.5t-55 -64.5l-350 86q41 149 186 239q152 93 350 93q203 0 342 -95q137 -94 137 -235q0 -134 -118 -215
q137 -85 137 -232q0 -146 -145 -241q-148 -97 -363 -97q-202 0 -350 91q-145 92 -182 241z" />
    <glyph glyph-name="uni0438" unicode="&#x438;" horiz-adv-x="1173" 
d="M760 481l-406 -481h-284v1065h344v-490l405 490h285v-1065h-344v481z" />
    <glyph glyph-name="uni0439" unicode="&#x439;" horiz-adv-x="1173" 
d="M70 0v1065h344v-490l405 490h285v-1065h-344v481l-406 -481h-284zM217 1513h246q0 -60 35.5 -99.5t89.5 -39.5q51 0 86 39.5t35 99.5h247q0 -164 -106 -270q-103 -106 -262 -106q-158 0 -264 106q-107 107 -107 270z" />
    <glyph glyph-name="uni043A" unicode="&#x43a;" horiz-adv-x="1161" 
d="M414 440v-440h-344v1065h344v-401l282 401h414l-358 -514l403 -551h-420z" />
    <glyph glyph-name="uni043B" unicode="&#x43b;" horiz-adv-x="1198" 
d="M111 0h-101v330h72q36 -2 56.5 19.5t34 97.5t15.5 221v397h940v-1065h-344v737h-252v-147q0 -300 -109.5 -445t-311.5 -145z" />
    <glyph glyph-name="uni043C" unicode="&#x43c;" horiz-adv-x="1396" 
d="M414 426v-426h-344v1065h344l284 -487l285 487h344v-1065h-344v426l-178 -303h-213z" />
    <glyph glyph-name="uni043D" unicode="&#x43d;" horiz-adv-x="1177" 
d="M414 377v-377h-344v1065h344v-358h350v358h344v-1065h-344v377h-350z" />
    <glyph glyph-name="uni043E" unicode="&#x43e;" horiz-adv-x="1222" 
d="M201 135q-164 164 -164 397q0 237 164 396q162 162 409 162q248 0 410 -162q166 -159 166 -396q0 -234 -166 -397q-165 -160 -410 -160q-244 0 -409 160zM610 328q84 0 142.5 59.5t58.5 144.5t-58.5 145t-142.5 60q-82 0 -140 -60t-58 -145t58 -144.5t140 -59.5z" />
    <glyph glyph-name="uni043F" unicode="&#x43f;" horiz-adv-x="1153" 
d="M414 737v-737h-344v1065h1013v-1065h-344v737h-325z" />
    <glyph glyph-name="uni0440" unicode="&#x440;" 
d="M422 -461h-359v1526h359v-59q122 84 264 84q209 0 348 -160q142 -160 142 -398q0 -237 -142 -397q-139 -160 -348 -160q-142 0 -264 84v-520zM426 530q0 -85 55 -143.5t133 -58.5t133.5 59t55.5 143q0 88 -54.5 147.5t-134.5 59.5t-134 -59.5t-54 -147.5z" />
    <glyph glyph-name="uni0441" unicode="&#x441;" horiz-adv-x="1177" 
d="M1161 707l-360 -107q-24 63 -74.5 100t-116.5 37q-85 0 -141.5 -57.5t-56.5 -142.5q0 -88 57 -148.5t141 -60.5q66 0 116.5 37t74.5 100l360 -107q-57 -169 -209 -278q-147 -105 -342 -105q-244 0 -409 160q-164 159 -164 397q0 239 164 398q165 160 409 160
q196 0 342 -107q151 -106 209 -276z" />
    <glyph glyph-name="uni0442" unicode="&#x442;" horiz-adv-x="978" 
d="M319 0v737h-305v328h953v-328h-303v-737h-345z" />
    <glyph glyph-name="uni0443" unicode="&#x443;" horiz-adv-x="1144" 
d="M401 -6l-395 1071h369l194 -590l201 590h369l-426 -1149q-78 -198 -211 -287.5t-348 -89.5h-33v342h33q186 0 247 113z" />
    <glyph glyph-name="uni0444" unicode="&#x444;" horiz-adv-x="1662" 
d="M1036 -41h-22h-10v-420h-345v420h-10h-22q-246 0 -410 164t-164 409q0 246 164 410t410 164h22h10v430h345v-430h10h22q244 0 408 -164t164 -410q0 -245 -164 -409t-408 -164zM623 762q-88 0 -148.5 -66.5t-60.5 -163.5t60.5 -163t148.5 -66q4 0 36 4v453q-8 2 -36 2z
M1040 762q-30 0 -36 -2v-453q28 -4 36 -4q88 0 148.5 66t60.5 163t-60.5 163.5t-148.5 66.5z" />
    <glyph glyph-name="uni0445" unicode="&#x445;" horiz-adv-x="1198" 
d="M774 0l-176 276l-174 -276h-418l377 549l-352 516h418l149 -240l152 240h417l-352 -516l377 -549h-418z" />
    <glyph glyph-name="uni0446" unicode="&#x446;" horiz-adv-x="1273" 
d="M70 0v1065h344v-735h315v735h344v-735h182v-637h-344v307h-841z" />
    <glyph glyph-name="uni0447" unicode="&#x447;" horiz-adv-x="1112" 
d="M696 680v385h344v-1065h-344v350q-129 -14 -196 -14q-208 0 -332 106q-125 107 -125 277v346h360v-317q0 -82 117 -82q53 0 176 14z" />
    <glyph glyph-name="uni0448" unicode="&#x448;" horiz-adv-x="1685" 
d="M70 0v1065h344v-735h256v735h344v-735h258v735h344v-1065h-1546z" />
    <glyph glyph-name="uni0449" unicode="&#x449;" horiz-adv-x="1816" 
d="M70 1065h344v-735h256v735h344v-735h258v735h344v-735h182v-637h-344v307h-1384v1065z" />
    <glyph glyph-name="uni044A" unicode="&#x44a;" horiz-adv-x="1339" 
d="M332 0v737h-326v328h670v-285h239q174 0 287 -110q115 -112 115 -279q0 -165 -115 -280q-114 -111 -287 -111h-583zM907 453h-231v-123h231q24 0 37.5 19t13.5 42.5t-13.5 42.5t-37.5 19z" />
    <glyph glyph-name="uni044B" unicode="&#x44b;" horiz-adv-x="1521" 
d="M70 0v1065h344v-285h239q176 0 289 -110q115 -112 115 -279q0 -165 -115 -280q-114 -111 -289 -111h-583zM1450 0h-344v1065h344v-1065zM653 453h-6h-233v-123h233q23 0 37 17t14 44q0 56 -45 62z" />
    <glyph glyph-name="uni044C" unicode="&#x44c;" horiz-adv-x="1079" 
d="M653 0h-583v1065h344v-285h239q176 0 289 -110q115 -112 115 -279q0 -165 -115 -280q-114 -111 -289 -111zM414 453v-123h233q23 0 37 17t14 44q0 56 -45 62h-6h-233z" />
    <glyph glyph-name="uni044D" unicode="&#x44d;" horiz-adv-x="1193" 
d="M23 342l348 104q23 -57 78 -92t122 -35q121 0 183 103h-277v229h273q-64 94 -179 94q-67 0 -122 -34t-78 -90l-348 102q57 163 206 266q149 101 342 101q245 0 410 -160q164 -156 164 -398q0 -240 -164 -399q-166 -158 -410 -158q-193 0 -342 101q-149 103 -206 266z" />
    <glyph glyph-name="uni044E" unicode="&#x44e;" horiz-adv-x="1691" 
d="M70 0v1065h344v-358h143q51 168 199 276q143 104 338 104q240 0 399 -159q162 -155 162 -396t-162 -399q-161 -158 -399 -158q-199 0 -349 111q-148 112 -194 291h-137v-377h-344zM1094 319q85 0 143.5 61.5t58.5 151.5q0 91 -58 151t-144 60q-87 0 -146 -60.5
t-59 -150.5t59 -151.5t146 -61.5z" />
    <glyph glyph-name="uni044F" unicode="&#x44f;" horiz-adv-x="1153" 
d="M631 281l-201 -281h-403l237 334q-92 49 -144 139.5t-52 200.5q0 167 114 278q116 113 291 113h608v-1065h-344v281h-106zM479 610h258v127h-258q-33 0 -46.5 -31.5t0 -63.5t46.5 -32z" />
    <glyph glyph-name="uni0450" unicode="&#x450;" horiz-adv-x="1206" 
d="M1161 406h-739q25 -64 80 -102t127 -38q106 0 172 78l344 -63q-70 -141 -208.5 -223.5t-313.5 -82.5q-249 0 -420 160q-166 163 -166 397q0 237 164 396q162 162 405 162q244 0 406 -162q164 -159 164 -396q0 -68 -15 -126zM422 664h389q-23 62 -76.5 98.5t-120.5 36.5
q-63 0 -116 -37t-76 -98zM717 1182l-488 204l148 256l446 -284z" />
    <glyph glyph-name="uni0451" unicode="&#x451;" horiz-adv-x="1206" 
d="M1161 406h-739q25 -64 80 -102t127 -38q106 0 172 78l344 -63q-70 -141 -208.5 -223.5t-313.5 -82.5q-249 0 -420 160q-166 163 -166 397q0 237 164 396q162 162 405 162q244 0 406 -162q164 -159 164 -396q0 -68 -15 -126zM422 664h389q-23 62 -76.5 98.5t-120.5 36.5
q-63 0 -116 -37t-76 -98zM393 1518q75 0 123.5 -49t48.5 -123t-48.5 -123t-123.5 -49q-72 0 -121 49.5t-49 122.5t49 122.5t121 49.5zM829 1518q73 0 122.5 -49t49.5 -123t-49.5 -123t-122.5 -49q-72 0 -121 49.5t-49 122.5t49 122.5t121 49.5z" />
    <glyph glyph-name="uni0452" unicode="&#x452;" horiz-adv-x="1177" 
d="M451 1536v-147h290v-226h-290v-184q108 111 266 111q166 0 280 -117q117 -117 117 -287v-778q0 -155 -125 -262t-307 -107h-102v342h71q44 0 74.5 23t30.5 55v639q0 69 -43 115.5t-109 46.5t-109.5 -46.5t-43.5 -115.5v-598h-359v1163h-82v226h82v147h359z" />
    <glyph glyph-name="uni0453" unicode="&#x453;" horiz-adv-x="788" 
d="M414 737v-737h-344v1065h706v-328h-362zM803 1386l-488 -204l-106 176l446 284z" />
    <glyph glyph-name="uni0454" unicode="&#x454;" horiz-adv-x="1193" 
d="M625 -25q-244 0 -410 158q-164 159 -164 399q0 242 164 398q165 160 410 160q194 0 340 -101q149 -103 206 -266l-346 -102q-23 56 -78 90t-122 34q-118 0 -179 -94h285v-229h-291q62 -103 185 -103q67 0 122 35t78 92l346 -104q-59 -165 -208 -266q-146 -101 -338 -101z
" />
    <glyph glyph-name="uni0455" unicode="&#x455;" horiz-adv-x="991" 
d="M942 793l-324 -52q-21 74 -131 74q-94 0 -94 -45q0 -34 74 -55l162 -49q179 -55 254 -132.5t75 -203.5q0 -171 -119.5 -263t-336.5 -92q-208 0 -327.5 84.5t-143.5 241.5l323 45q24 -88 154 -88q108 0 108 53q0 40 -96 64l-170 43q-162 38 -232.5 113.5t-70.5 205.5
q0 178 119 265.5t330 87.5q197 0 312 -77.5t134 -219.5z" />
    <glyph glyph-name="uni0456" unicode="&#x456;" horiz-adv-x="485" 
d="M422 0h-359v1065h359v-1065zM242 1552q93 0 155 -62t62 -155q0 -92 -61.5 -153.5t-155.5 -61.5q-91 0 -153 61.5t-62 153.5t62 154.5t153 62.5z" />
    <glyph glyph-name="uni0457" unicode="&#x457;" horiz-adv-x="514" 
d="M436 0h-358v1065h358v-1065zM78 1511q67 0 113.5 -48t46.5 -117q0 -72 -45.5 -118t-114.5 -46q-66 0 -111 47.5t-45 116.5t45 117t111 48zM322 1229q-44 47 -44 116.5t44 116.5q44 50 112.5 50t112.5 -50q44 -47 44 -116.5t-44 -116.5t-112.5 -47t-112.5 47z" />
    <glyph glyph-name="uni0458" unicode="&#x458;" horiz-adv-x="493" 
d="M74 1065h358v-1157q0 -155 -125 -262t-307 -107h-102v342h73q45 0 74 21.5t29 56.5v1106zM98 1182q-61 61 -61 153q0 93 61 154q63 63 156 63q94 0 154 -63q61 -61 61 -154q0 -92 -61 -153q-62 -62 -154 -62q-91 0 -156 62z" />
    <glyph glyph-name="uni0459" unicode="&#x459;" horiz-adv-x="1794" 
d="M111 0h-101v330h72q36 -2 56.5 19.5t34 97.5t15.5 221v397h940v-285h240q174 0 287 -110q114 -111 114 -279q0 -166 -114 -280q-114 -111 -287 -111h-584v737h-252v-147q0 -300 -109.5 -445t-311.5 -145zM1360 453h-232v-123h232q24 0 37.5 19t13.5 42.5t-13.5 42.5
t-37.5 19z" />
    <glyph glyph-name="uni045A" unicode="&#x45a;" horiz-adv-x="1771" 
d="M70 0v1065h344v-350h350v350h344v-293h240q173 0 286 -110q115 -109 115 -275t-115 -278q-115 -109 -286 -109h-584v385h-350v-385h-344zM1108 444v-114h231q32 0 45.5 28.5t0 57t-45.5 28.5h-231z" />
    <glyph glyph-name="uni045B" unicode="&#x45b;" horiz-adv-x="1177" 
d="M451 1536v-147h290v-226h-290v-184q108 111 266 111q166 0 280 -117q117 -117 117 -287v-686h-358v598q0 69 -43 115.5t-109 46.5t-109.5 -46.5t-43.5 -115.5v-598h-359v1163h-82v226h82v147h359z" />
    <glyph glyph-name="uni045C" unicode="&#x45c;" horiz-adv-x="1161" 
d="M414 440v-440h-344v1065h344v-401l282 401h414l-358 -514l403 -551h-420zM930 1386l-488 -204l-106 176l446 284z" />
    <glyph glyph-name="uni045D" unicode="&#x45d;" horiz-adv-x="1173" 
d="M760 481l-406 -481h-284v1065h344v-490l405 490h285v-1065h-344v481zM799 1358l-107 -176l-487 204l147 256z" />
    <glyph glyph-name="uni045E" unicode="&#x45e;" horiz-adv-x="1144" 
d="M401 -6l-395 1071h369l194 -590l201 590h369l-426 -1149q-78 -198 -211 -287.5t-348 -89.5h-33v342h33q186 0 247 113zM203 1513h248q0 -60 34 -99.5t88 -39.5q51 0 86 39.5t35 99.5h248q0 -164 -106 -270q-103 -106 -263 -106q-158 0 -264 106t-106 270z" />
    <glyph glyph-name="uni045F" unicode="&#x45f;" horiz-adv-x="1142" 
d="M70 0v1065h344v-735h315v735h344v-1065h-332v-307h-344v307h-327z" />
    <glyph glyph-name="uni0490" unicode="&#x490;" horiz-adv-x="1046" 
d="M449 1090v-1090h-375v1434h561v290h375v-634h-561z" />
    <glyph glyph-name="uni0491" unicode="&#x491;" horiz-adv-x="821" 
d="M414 737v-737h-344v1065h393v217h344v-545h-393z" />
    <glyph glyph-name="uni04D8" unicode="&#x4d8;" horiz-adv-x="1622" 
d="M811 1458q322 0 541 -213q217 -211 217 -528q0 -320 -217 -531t-541 -211q-322 0 -541 213q-217 211 -217 531q0 68 13 151h393h-6h710q-50 106 -143.5 168t-208.5 62q-157 0 -264 -101l-375 138q100 150 269.5 235.5t369.5 85.5zM811 336q107 0 197.5 50.5t146.5 139.5
h-688q58 -89 148.5 -139.5t195.5 -50.5z" />
    <glyph glyph-name="uni04D9" unicode="&#x4d9;" horiz-adv-x="1206" 
d="M45 659h739q-59 140 -215 140q-97 0 -163 -78l-347 65q70 138 209 221t310 83q252 0 423 -160q168 -158 168 -398q0 -234 -163 -397q-165 -160 -408 -160q-240 0 -405 160q-162 162 -162 397q0 72 14 127zM784 401h-391q30 -62 82.5 -98.5t114.5 -36.5q61 0 112.5 36.5
t81.5 98.5z" />
    <glyph glyph-name="Wgrave" unicode="&#x1e80;" horiz-adv-x="2045" 
d="M793 0h-312l-475 1434h383l244 -824l235 824h310l239 -824l240 824h383l-475 -1434h-310l-231 776zM786 1991l447 -285l-107 -176l-485 205z" />
    <glyph glyph-name="wgrave" unicode="&#x1e81;" horiz-adv-x="1587" 
d="M332 0l-326 1065h361l129 -504l131 504h334l131 -504l129 504h360l-326 -1065h-329l-131 477l-133 -477h-330zM559 1642l447 -284l-107 -176l-487 204z" />
    <glyph glyph-name="Wacute" unicode="&#x1e82;" horiz-adv-x="2045" 
d="M793 0h-312l-475 1434h383l244 -824l235 824h310l239 -824l240 824h383l-475 -1434h-310l-231 776zM1401 1735l-488 -205l-106 176l446 285z" />
    <glyph glyph-name="wacute" unicode="&#x1e83;" horiz-adv-x="1587" 
d="M662 0h-330l-326 1065h361l129 -504l131 504h334l131 -504l129 504h360l-326 -1065h-329l-131 477zM1174 1386l-488 -204l-106 176l446 284z" />
    <glyph glyph-name="Wdieresis" unicode="&#x1e84;" horiz-adv-x="2045" 
d="M793 0h-312l-475 1434h383l244 -824l235 824h310l239 -824l240 824h383l-475 -1434h-310l-231 776zM682 1817q50 49 123 49t123 -49t50 -123t-50 -123t-123 -49t-123 49t-50 123t50 123zM1069 1710q8 68 55.5 112t116.5 44q73 0 122.5 -49t49.5 -123t-49.5 -123
t-122.5 -49q-81 0 -126.5 51t-45.5 137z" />
    <glyph glyph-name="wdieresis" unicode="&#x1e85;" horiz-adv-x="1587" 
d="M332 0l-326 1065h361l129 -504l131 504h334l131 -504l129 504h360l-326 -1065h-329l-131 477l-133 -477h-330zM575 1518q75 0 124 -49t49 -123t-49 -123t-124 -49q-72 0 -120.5 49.5t-48.5 122.5t48.5 122.5t120.5 49.5zM1012 1518q74 0 123 -49t49 -123t-49 -123
t-123 -49q-72 0 -121 49.5t-49 122.5t49 122.5t121 49.5z" />
    <glyph glyph-name="Germandbls" unicode="&#x1e9e;" horiz-adv-x="1341" 
d="M434 868v-868h-360v874q0 242 168 400q171 160 420 160h585v-244l-162 -301q94 -34 158 -148q64 -110 64 -239q0 -226 -195 -377q-194 -150 -481 -150l-2 361q122 0 203 48t81 120q0 75 -90 125q-86 51 -223 51l229 410h-135q-110 0 -185 -64t-75 -158z" />
    <glyph glyph-name="Ygrave" unicode="&#x1ef2;" horiz-adv-x="1454" 
d="M535 0v592l-529 842h430l285 -488l299 488h428l-539 -830v-604h-374zM938 1706l-107 -176l-487 205l148 256z" />
    <glyph glyph-name="ygrave" unicode="&#x1ef3;" horiz-adv-x="1144" 
d="M401 -6l-395 1071h369l194 -590l201 590h369l-426 -1149q-78 -198 -211 -287.5t-348 -89.5h-33v342h33q186 0 247 113zM676 1182l-486 204l146 256l446 -284z" />
    <glyph glyph-name="figuredash" unicode="&#x2012;" horiz-adv-x="1228" 
d="M102 561v313h1024v-313h-1024z" />
    <glyph glyph-name="endash" unicode="&#x2013;" horiz-adv-x="1228" 
d="M102 377v313h1024v-313h-1024z" />
    <glyph glyph-name="emdash" unicode="&#x2014;" horiz-adv-x="2048" 
d="M102 377v313h1844v-313h-1844z" />
    <glyph glyph-name="quoteleft" unicode="&#x2018;" horiz-adv-x="485" 
d="M51 1188q0 71 33 140.5t86 121.5q92 89 139 115l4 2l97 -101q-118 -100 -121 -149q62 -11 103.5 -63t41.5 -121q0 -75 -52 -126t-130 -51q-87 0 -144 66.5t-57 165.5z" />
    <glyph glyph-name="quoteright" unicode="&#x2019;" horiz-adv-x="485" 
d="M434 1327q0 -203 -262 -379l-96 101q118 100 121 149q-62 12 -104 64.5t-42 119.5q0 75 52.5 127t127.5 52q89 0 146 -67t57 -167z" />
    <glyph glyph-name="quotesinglbase" unicode="&#x201a;" horiz-adv-x="485" 
d="M434 111q0 -203 -262 -379l-96 100q118 100 121 150q-62 11 -104 63t-42 121q0 73 52.5 124.5t127.5 51.5q87 0 145 -67t58 -164z" />
    <glyph glyph-name="quotereversed" unicode="&#x201b;" horiz-adv-x="485" 
d="M51 1331q0 98 57 164t144 66q78 0 130 -52t52 -127q0 -67 -41.5 -119.5t-103.5 -64.5q0 -19 29 -54.5t63 -62.5l29 -24l-97 -101q-8 4 -30.5 19t-64.5 51t-77.5 77.5t-62.5 103t-27 124.5z" />
    <glyph glyph-name="quotedblleft" unicode="&#x201c;" horiz-adv-x="909" 
d="M475 1188q0 71 33 140.5t86 121.5q92 89 139 115l4 2l97 -101q-118 -100 -121 -149q63 -10 104 -62.5t41 -121.5q0 -75 -51 -126t-129 -51q-90 0 -146.5 66t-56.5 166zM51 1188q0 71 33 140.5t86 121.5q92 89 139 115l4 2l97 -101q-118 -100 -121 -149q62 -11 103.5 -63
t41.5 -121q0 -75 -52 -126t-130 -51q-87 0 -144 66.5t-57 165.5z" />
    <glyph glyph-name="quotedblright" unicode="&#x201d;" horiz-adv-x="909" 
d="M434 1327q0 -203 -262 -379l-96 101q118 100 121 149q-62 12 -104 64.5t-42 119.5q0 75 52.5 127t127.5 52q89 0 146 -67t57 -167zM858 1327q0 -71 -33 -140.5t-86 -121.5q-92 -89 -139 -115l-4 -2l-96 101q118 100 121 149q-62 12 -104 64.5t-42 119.5q0 75 52 127
t130 52q87 0 144 -67.5t57 -166.5z" />
    <glyph glyph-name="quotedblbase" unicode="&#x201e;" horiz-adv-x="909" 
d="M434 111q0 -203 -262 -379l-96 100q118 100 121 150q-62 11 -104 63t-42 121q0 73 52.5 124.5t127.5 51.5q87 0 145 -67t58 -164zM858 111q0 -71 -33 -141t-86 -122q-90 -87 -139 -114l-4 -2l-96 100q118 100 121 150q-62 11 -104 63t-42 121q0 74 52 125t130 51
q87 0 144 -66.5t57 -164.5z" />
    <glyph glyph-name="uni201F" unicode="&#x201f;" horiz-adv-x="909" 
d="M475 1331q0 97 58 163.5t145 66.5q75 0 127.5 -52t52.5 -127q0 -69 -41 -120.5t-104 -63.5q0 -19 28.5 -54t61.5 -63l31 -24l-97 -101q-8 4 -30.5 19t-64.5 51t-77.5 77.5t-62.5 103t-27 124.5zM51 1331q0 98 57 164t144 66q78 0 130 -52t52 -127q0 -67 -41.5 -119.5
t-103.5 -64.5q0 -19 29 -54.5t63 -62.5l29 -24l-97 -101q-8 4 -30.5 19t-64.5 51t-77.5 77.5t-62.5 103t-27 124.5z" />
    <glyph glyph-name="dagger" unicode="&#x2020;" horiz-adv-x="942" 
d="M27 819v244h313v371h262v-371h313v-244h-313v-1024h-262v1024h-313z" />
    <glyph glyph-name="daggerdbl" unicode="&#x2021;" horiz-adv-x="942" 
d="M340 166h-313v244h313v409h-313v244h313v371h262v-371h313v-244h-313v-409h313v-244h-313v-371h-262v371z" />
    <glyph glyph-name="bullet" unicode="&#x2022;" horiz-adv-x="784" 
d="M739 532q0 -151 -100 -251q-99 -99 -248 -99t-250 101q-98 101 -98 249q0 149 98 250q101 101 250 101q150 0 248 -101q100 -100 100 -250z" />
    <glyph glyph-name="ellipsis" unicode="&#x2026;" horiz-adv-x="1388" 
d="M43 166q0 80 54.5 134t133.5 54q81 0 135 -54t54 -134q0 -82 -53.5 -136.5t-135.5 -54.5q-80 0 -134 54.5t-54 136.5zM506 166q0 80 54 134t134 54q81 0 135 -54t54 -134q0 -82 -53.5 -136.5t-135.5 -54.5q-80 0 -134 54.5t-54 136.5zM969 166q0 80 54.5 134t133.5 54
q81 0 135 -54t54 -134q0 -82 -53.5 -136.5t-135.5 -54.5q-80 0 -134 54.5t-54 136.5z" />
    <glyph glyph-name="perthousand" unicode="&#x2030;" horiz-adv-x="2666" 
d="M485 0l-192 158l1079 1276l193 -158zM434 1458q169 0 275 -112q110 -113 110 -281q0 -170 -110 -283q-107 -110 -275 -110q-164 0 -276 112q-111 114 -111 281t111 281q112 112 276 112zM319 1065q0 -49 32.5 -82t82.5 -33q48 0 81.5 33t33.5 82q0 47 -34 81t-81 34
q-49 0 -82 -33.5t-33 -81.5zM1407 762q166 0 276 -113q111 -114 111 -280q0 -167 -111 -281q-110 -113 -276 -113q-164 0 -274 113q-111 114 -111 281q0 166 111 280q110 113 274 113zM1292 369q0 -47 34 -81t81 -34q49 0 82 33.5t33 81.5q0 49 -32.5 81.5t-82.5 32.5
q-48 0 -81.5 -32.5t-33.5 -81.5zM2234 762q168 0 275 -113q110 -113 110 -280q0 -170 -110 -283q-108 -111 -275 -111q-163 0 -276 113q-111 114 -111 281q0 166 111 280q113 113 276 113zM2120 369q0 -48 32.5 -81.5t81.5 -33.5q47 0 81 34t34 81q0 49 -33.5 81.5
t-81.5 32.5q-50 0 -82 -32.5t-32 -81.5z" />
    <glyph glyph-name="guilsinglleft" unicode="&#x2039;" horiz-adv-x="712" 
d="M461 115l-420 417l420 418l198 -196l-221 -222l221 -219z" />
    <glyph glyph-name="guilsinglright" unicode="&#x203a;" horiz-adv-x="712" 
d="M250 950l420 -418l-420 -417l-197 198l219 219l-219 222z" />
    <glyph glyph-name="fraction" unicode="&#x2044;" horiz-adv-x="1294" 
d="M287 0h-287l1008 1434h286z" />
    <glyph glyph-name="Euro" unicode="&#x20ac;" horiz-adv-x="1644" 
d="M158 764h-131v219h176q83 216 272 344q189 131 438 131q232 0 418 -115q189 -115 277 -307l-365 -133q-48 92 -135 144.5t-195 52.5q-160 0 -268 -117h336v-219h-432q-1 -13 -1 -44.5t1 -45.5h432v-221h-336q108 -117 268 -117q109 0 195.5 52t134.5 144l365 -135
q-88 -192 -277 -307q-186 -115 -418 -115q-248 0 -440 131q-190 132 -270 347h-176v221h131q-2 10 -2 43q0 37 2 47z" />
    <glyph glyph-name="uni20B4" unicode="&#x20b4;" horiz-adv-x="1298" 
d="M471 770h-414v219h721q31 28 31 55q0 32 -36.5 55t-90.5 23q-55 0 -97 -25.5t-53 -62.5l-372 74q41 153 184 252q146 98 346 98q212 0 350 -106q144 -108 144 -254q0 -48 -23 -109h78v-219h-297q-93 -63 -117 -78h414v-219h-713q-49 -46 -49 -74q0 -36 49 -61t117 -25
q81 0 140 35.5t71 89.5l381 -78q-47 -171 -209 -278t-383 -107q-231 0 -387 111q-154 112 -154 268q0 54 27 119h-72v219h297q17 13 117 78z" />
    <glyph glyph-name="uni2113" unicode="&#x2113;" horiz-adv-x="1034" 
d="M213 362l-145 -61v309q62 24 145 68v475q0 178 98 291q99 117 252 117q152 0 254 -117q103 -118 103 -291q0 -338 -418 -627v-190q0 -64 65 -64q43 0 92 31.5t80 69.5l27 35l180 -181q-21 -36 -67 -88q-58 -67 -142 -113.5t-184 -50.5q-144 0 -242 107t-98 266v14z
M502 1153v-270q129 129 129 262q0 51 -18.5 85t-47.5 34t-46 -30.5t-17 -80.5z" />
    <glyph glyph-name="uni2116" unicode="&#x2116;" horiz-adv-x="2312" 
d="M434 791v-791h-360v1434h334l610 -793v793h360v-1434h-334zM1860 672q-165 0 -277 112q-110 113 -110 281t110 281q112 112 277 112q168 0 274 -112q111 -114 111 -281q0 -169 -111 -283q-107 -110 -274 -110zM2210 313h-703v279h703v-279zM1743 1065q0 -49 33.5 -82
t83.5 -33q48 0 81 33t33 82q0 47 -33.5 81t-80.5 34q-49 0 -83 -33.5t-34 -81.5z" />
    <glyph glyph-name="uni2117" unicode="&#x2117;" horiz-adv-x="1581" 
d="M791 1452q304 0 518 -217q217 -214 217 -518q0 -305 -215 -520t-520 -215q-306 0 -521 215t-215 520t215 520t521 215zM362 289q178 -178 429 -178q250 0 428 178t178 428t-178 428t-428 178q-251 0 -429 -178t-178 -428t178 -428zM731 311h-217v811h373q133 0 221 -82
t88 -204q0 -119 -90 -203q-88 -82 -219 -82h-156v-240zM887 922h-156v-170h156q35 0 58.5 24.5t23.5 59.5q0 38 -23 62t-59 24z" />
    <glyph glyph-name="trademark" unicode="&#x2122;" horiz-adv-x="1513" 
d="M852 717h-186v717h186l223 -396l223 396h185v-717h-185v370l-161 -299h-125l-160 297v-368zM215 717v543h-203v174h594v-174h-203v-543h-188z" />
    <glyph glyph-name="estimated" unicode="&#x212e;" horiz-adv-x="1570" 
d="M1516 717h-1135v-508q179 -141 403 -141q182 0 335.5 93t240.5 255h90q-89 -197 -270 -314q-180 -116 -396 -116q-300 0 -516 213q-215 215 -215 518t213 516q215 215 518 215q304 0 516 -215q216 -213 216 -516zM381 1225v-426h807v426q-179 141 -404 141
q-224 0 -403 -141z" />
    <glyph glyph-name="uni2150" unicode="&#x2150;" horiz-adv-x="1767" 
d="M442 0h-288l1005 1434h291zM1163 788h588v-202l-283 -586h-235l289 598h-359v190zM219 1198l-119 -53l-75 176l251 113h152v-789h-209v553z" />
    <glyph glyph-name="uni2151" unicode="&#x2151;" horiz-adv-x="1720" 
d="M1073 152l184 86q29 -45 107 -45q54 0 86.5 20.5t32.5 52.5v49q-35 -47 -117 -47q-117 0 -201 78t-84 191q0 112 87 187t218 75q134 0 222 -76q88 -73 88 -186v-267q0 -118 -94 -200q-92 -80 -232 -80q-100 0 -181 44t-116 118zM442 0h-288l1005 1434h291zM100 1145
l-75 176l251 113h152v-789h-209v553zM1386 598q-37 0 -61.5 -18.5t-24.5 -44.5q0 -42 55.5 -59t96.5 11q41 32 17 71.5t-83 39.5z" />
    <glyph glyph-name="uni2152" unicode="&#x2152;" horiz-adv-x="2281" 
d="M1626 279v231q0 121 90 205t226 84q135 0 225 -84t90 -205v-231q0 -123 -90 -207q-88 -82 -225 -82q-138 0 -226 82q-90 84 -90 207zM442 0h-288l1005 1434h291zM100 1145l-75 176l251 113h152v-789h-209v553zM1192 500l-74 176l250 112h152v-788h-209v553zM1839 514
v-240q-6 -50 48.5 -70.5t109 0t49.5 70.5v240q0 35 -30 59.5t-74 24.5t-73.5 -24.5t-29.5 -59.5z" />
    <glyph glyph-name="onethird" unicode="&#x2153;" horiz-adv-x="1734" 
d="M1450 1434l-1008 -1434h-288l1005 1434h291zM1399 -10q-114 0 -198.5 57.5t-115.5 151.5l197 67q1 -32 32.5 -52.5t76.5 -20.5q43 0 70.5 18t27.5 47q0 30 -27 49t-69 19h-62v153h39q42 0 69 16.5t27 45.5q0 25 -24 41t-62 16q-80 0 -100 -51l-186 61q36 86 117 138.5
t184 52.5q125 0 208 -73t83 -183q0 -84 -72 -131q94 -52 94 -158q0 -112 -88 -188t-221 -76zM100 1145l-75 176l251 113h152v-789h-209v553z" />
    <glyph glyph-name="twothirds" unicode="&#x2154;" horiz-adv-x="1878" 
d="M395 1188q0 23 -21.5 39t-51.5 16q-77 0 -115 -92l-195 94q43 93 125.5 146t184.5 53q123 0 206 -74q86 -74 86 -176q0 -126 -176 -279l-78 -69h258v-201h-579v156l274 252q82 73 82 135zM586 0h-289l1006 1434h290zM1610 541q0 25 -23.5 41t-64.5 16q-79 0 -99 -51
l-186 61q36 86 117 138.5t184 52.5q125 0 208 -73t83 -183q0 -84 -72 -131q94 -52 94 -158q0 -112 -88 -188t-221 -76q-114 0 -198.5 57.5t-114.5 151.5l196 67q1 -32 32.5 -52.5t74.5 -20.5q44 0 72 18t28 47q0 30 -27 49t-69 19h-61v153h38q42 0 69.5 16.5t27.5 45.5z" />
    <glyph glyph-name="uni2155" unicode="&#x2155;" horiz-adv-x="1742" 
d="M1450 1434l-1008 -1434h-288l1005 1434h291zM1085 225l213 56q24 -88 109 -88q38 0 64 21t26 52q0 35 -34 58.5t-85 23.5h-229l43 440h453v-190h-281l-6 -59h80q117 0 198 -78q80 -77 80 -193q0 -119 -88 -198q-89 -80 -221 -80q-117 0 -205 64.5t-117 170.5zM100 1145
l-75 176l251 113h152v-789h-209v553z" />
    <glyph glyph-name="uni2156" unicode="&#x2156;" horiz-adv-x="1886" 
d="M395 1188q0 23 -21.5 39t-51.5 16q-77 0 -115 -92l-195 94q43 93 125.5 146t184.5 53q123 0 206 -74q86 -74 86 -176q0 -126 -176 -279l-78 -69h258v-201h-579v156l274 252q82 73 82 135zM586 0h-289l1006 1434h290zM1860 268q0 -119 -88 -198q-89 -80 -222 -80
q-118 0 -205 64.5t-116 170.5l211 56q27 -88 108 -88q38 0 65 21t27 52q0 35 -33.5 58.5t-84.5 23.5h-232l45 440h453v-190h-281l-8 -59h82q118 0 199 -78q80 -77 80 -193z" />
    <glyph glyph-name="uni2157" unicode="&#x2157;" horiz-adv-x="1935" 
d="M397 1186q0 25 -23.5 41t-64.5 16q-77 0 -100 -51l-186 61q37 86 118.5 138.5t184.5 52.5q123 0 206 -74q84 -72 84 -182q0 -84 -71 -131q94 -52 94 -158q0 -112 -88 -188t-221 -76q-114 0 -199 57.5t-115 151.5l197 67q-3 -46 51.5 -64.5t108 -1t47.5 57.5q0 30 -27 49
t-69 19h-62v153h37q42 0 70 16.5t28 45.5zM635 0h-289l1006 1434h290zM1909 268q0 -119 -88 -198q-89 -80 -222 -80q-118 0 -205 64.5t-116 170.5l211 56q27 -88 108 -88q38 0 65.5 21t27.5 52q0 35 -34 58.5t-85 23.5h-232l45 440h453v-190h-281l-8 -59h82q118 0 199 -78
q80 -77 80 -193z" />
    <glyph glyph-name="uni2158" unicode="&#x2158;" horiz-adv-x="1941" 
d="M641 0h-289l1006 1434h291zM1284 225l211 56q27 -88 109 -88q38 0 65 21t27 52q0 35 -34 58.5t-85 23.5h-231l45 440h452v-190h-280l-9 -59h82q118 0 199 -78q80 -77 80 -193q0 -119 -88 -198q-89 -80 -221 -80q-118 0 -205.5 64.5t-116.5 170.5zM25 780v201l381 453h200
v-453h80v-201h-80v-135h-211v135h-370zM395 1126l-121 -145h121v145z" />
    <glyph glyph-name="uni2159" unicode="&#x2159;" horiz-adv-x="1716" 
d="M1079 252v268q0 118 90 199q89 80 224 80q102 0 179 -45.5t114 -124.5l-189 -90q-27 59 -100 59q-47 0 -77 -21.5t-30 -54.5v-51q43 43 121 43q117 0 201 -78q86 -77 86 -184q0 -113 -88 -189q-88 -73 -221 -73q-134 0 -222 73q-88 76 -88 189zM1450 1434l-1008 -1434
h-288l1005 1434h291zM219 1198l-119 -53l-75 176l251 113h152v-789h-209v553zM1389 193q88 0 88 59q0 40 -55 56.5t-99 -13.5q-41 -28 -17 -65t83 -37z" />
    <glyph glyph-name="uni215A" unicode="&#x215a;" horiz-adv-x="1857" 
d="M1221 252v268q0 118 90 199q89 80 223 80q100 0 179 -46t114 -124l-189 -90q-27 59 -100 59q-47 0 -77.5 -22t-30.5 -54v-51q43 43 122 43q117 0 201 -78t84 -184q0 -113 -88 -189q-88 -73 -219 -73q-133 0 -221 73q-88 76 -88 189zM1589 1434l-1005 -1434h-291
l1007 1434h289zM338 635q-118 0 -205.5 64.5t-116.5 170.5l211 56q27 -88 109 -88q38 0 65 21t27 52q0 35 -34 58.5t-85 23.5h-231l45 441h450v-191h-278l-8 -59h82q117 0 198 -78q80 -77 80 -193q0 -119 -88 -198q-89 -80 -221 -80zM1593 295q-25 19 -64 19t-65 -19
q-25 -17 -25 -43t25 -43q26 -17 65 -17t64 17t25 43t-25 43z" />
    <glyph glyph-name="oneeighth" unicode="&#x215b;" horiz-adv-x="1724" 
d="M1389 -10q-137 0 -224 69q-88 70 -88 174q0 106 92 177q-75 63 -75 157q0 98 84 164q83 68 211 68q127 0 210 -68q84 -66 84 -166q0 -94 -75 -157q92 -71 92 -179q0 -100 -90 -172q-88 -67 -221 -67zM442 0h-288l1005 1434h291zM219 1198l-119 -53l-75 176l251 113h152
v-789h-209v553zM1389 309q-41 0 -67 -16t-26 -41q0 -22 19 -37.5t46 -19t54.5 0t46.5 18t19 36.5q0 25 -27 42t-65 17zM1313 551q0 -23 23.5 -36.5t52 -13.5t52 13.5t23.5 36.5q0 22 -23.5 34t-52 12t-52 -12t-23.5 -34z" />
    <glyph glyph-name="threeeighths" unicode="&#x215c;" horiz-adv-x="1916" 
d="M1362 410q-76 64 -76 157q0 98 84 164q83 68 209 68q128 0 211 -68q86 -65 86 -166q0 -93 -76 -157q92 -71 92 -179q0 -100 -90 -172q-88 -67 -223 -67q-134 0 -221 69q-88 70 -88 174q0 106 92 177zM1642 1434l-1007 -1434h-289l1006 1434h290zM330 635
q-114 0 -199 57.5t-115 151.5l197 67q-3 -46 51.5 -64.5t108 -1t47.5 57.5q0 30 -27 49t-69 19h-62v153h37q42 0 70 16.5t28 45.5q0 25 -23.5 41t-64.5 16q-77 0 -100 -51l-186 61q37 86 118.5 138.5t184.5 52.5q123 0 206 -74q84 -72 84 -182q0 -84 -71 -131
q94 -52 94 -158q0 -112 -88 -188t-221 -76zM1579 309q-38 0 -64 -16t-26 -41q0 -26 25.5 -42.5t64.5 -16.5q42 0 68 15.5t26 41.5q0 25 -26.5 42t-67.5 17zM1505 551q0 -23 20.5 -36t53.5 -13q36 0 57 13t21 36q0 20 -21.5 33.5t-56.5 13.5q-32 0 -53 -13.5t-21 -33.5z" />
    <glyph glyph-name="fiveeighths" unicode="&#x215d;" horiz-adv-x="1865" 
d="M1311 410q-76 64 -76 157q0 98 84 164q83 68 209 68q128 0 211 -68q86 -65 86 -166q0 -93 -76 -157q92 -71 92 -179q0 -100 -90 -172q-88 -67 -223 -67q-134 0 -221 69q-88 70 -88 174q0 106 92 177zM584 0h-291l1007 1434h289zM16 870l211 56q27 -88 109 -88q38 0 65 21
t27 52q0 35 -34 58.5t-85 23.5h-231l45 441h450v-191h-278l-8 -59h82q117 0 198 -78q80 -77 80 -193q0 -119 -88 -198q-89 -80 -221 -80q-118 0 -205.5 64.5t-116.5 170.5zM1528 309q-38 0 -64 -16t-26 -41q0 -26 25.5 -42.5t64.5 -16.5q42 0 67 15.5t25 41.5q0 25 -25.5 42
t-66.5 17zM1454 551q0 -23 20.5 -36t53.5 -13q34 0 56.5 15.5t21.5 33.5t-23 33q-27 15 -56 15t-51 -14t-22 -34z" />
    <glyph glyph-name="seveneighths" unicode="&#x215e;" horiz-adv-x="1792" 
d="M1380 551q0 -31 38 -44t76 0t38 44q0 22 -24 34t-52 12t-52 -12t-24 -34zM1364 252q0 -22 19 -37.5t46 -19t54 0t46 18t19 36.5q0 25 -27 42t-65 17q-41 0 -66.5 -16t-25.5 -41zM1161 567q0 98 84 164q83 68 211 68t211 -68q84 -66 84 -166q0 -93 -76 -157
q92 -71 92 -179q0 -100 -90 -172q-88 -67 -221 -67q-135 0 -223 69t-88 174q0 106 92 177q-76 64 -76 157zM86 645l291 598h-361v191h588v-203l-282 -586h-236zM1518 1434l-1008 -1434h-289l1006 1434h291z" />
    <glyph glyph-name="uni215F" unicode="&#x215f;" horiz-adv-x="1449" 
d="M1450 1434l-1008 -1434h-288l1005 1434h291zM219 1198l-119 -53l-75 176l251 113h152v-789h-209v553z" />
    <glyph glyph-name="arrowleft" unicode="&#x2190;" horiz-adv-x="1507" 
d="M717 102l-615 615l615 614l205 -205l-240 -254h723v-313h-721l238 -252z" />
    <glyph glyph-name="arrowup" unicode="&#x2191;" horiz-adv-x="1507" 
d="M139 754l615 614l614 -614l-205 -205l-254 239v-722h-313v720l-252 -237z" />
    <glyph glyph-name="arrowright" unicode="&#x2192;" horiz-adv-x="1507" 
d="M791 1331l614 -614l-614 -615l-205 205l239 254h-723v313h723l-239 252z" />
    <glyph glyph-name="arrowdown" unicode="&#x2193;" horiz-adv-x="1507" 
d="M1368 680l-614 -614l-615 614l205 205l252 -238v721h313v-723l254 240z" />
    <glyph glyph-name="uni2196" unicode="&#x2196;" horiz-adv-x="1507" 
d="M295 309v869h868v-291l-350 -8l512 -512l-223 -222l-510 510l-8 -346h-289z" />
    <glyph glyph-name="uni2197" unicode="&#x2197;" horiz-adv-x="1507" 
d="M457 1178h868v-869h-291l-8 346l-510 -510l-221 222l510 512l-348 8v291z" />
    <glyph glyph-name="uni2198" unicode="&#x2198;" horiz-adv-x="1507" 
d="M1325 1014v-869h-868v289l348 10l-510 510l221 224l510 -510l8 346h291z" />
    <glyph glyph-name="uni2199" unicode="&#x2199;" horiz-adv-x="1507" 
d="M1163 145h-868v869h289l8 -346l510 510l223 -224l-512 -510l350 -10v-289z" />
    <glyph glyph-name="emptyset" unicode="&#x2205;" horiz-adv-x="1589" 
d="M795 1458q165 0 327 -78l54 78h278l-147 -209q227 -217 227 -532q0 -307 -217 -524q-218 -218 -522 -218q-175 0 -328 78l-51 -78h-279l144 207q-228 220 -228 535q0 305 217 522q219 219 525 219zM436 401l533 760q-78 35 -174 35q-199 0 -340 -141q-140 -140 -140 -338
q0 -183 121 -316zM795 238q199 0 338 139q141 141 141 340q0 178 -119 315l-534 -762q74 -32 174 -32z" />
    <glyph glyph-name="product" unicode="&#x220f;" horiz-adv-x="1302" 
d="M432 1096v-1454h-358v1792h1155v-1792h-359v1454h-438z" />
    <glyph glyph-name="summation" unicode="&#x2211;" horiz-adv-x="1050" 
d="M989 -20v-338h-928v282l347 613l-347 614v283h928v-338h-512l326 -559l-326 -557h512z" />
    <glyph glyph-name="minus" unicode="&#x2212;" horiz-adv-x="1228" 
d="M102 561v313h1024v-313h-1024z" />
    <glyph glyph-name="integral" unicode="&#x222b;" horiz-adv-x="727" 
d="M20 -358v327h64q42 0 71 25t29 61v1116q0 155 121 261q122 104 303 104h99v-328h-64q-42 0 -71 -25t-29 -61v-1116q0 -155 -123 -260q-119 -104 -301 -104h-99z" />
    <glyph glyph-name="approxequal" unicode="&#x2248;" horiz-adv-x="1228" 
d="M782 735q-60 0 -125.5 30.5t-114 60.5t-69.5 30q-35 0 -59.5 -30t-24.5 -74h-287q0 165 99 276q102 111 245 111q59 0 125 -30.5t115.5 -60.5t69.5 -30q35 0 59.5 30t24.5 74h286q-3 -167 -100 -276q-99 -111 -244 -111zM782 297q-60 0 -125.5 30.5t-114 60.5t-69.5 30
q-35 0 -59.5 -30t-24.5 -73h-287q0 164 99 275q100 112 245 112q59 0 125 -30.5t115.5 -61t69.5 -30.5q35 0 59.5 30t24.5 74h286q-3 -167 -100 -276q-99 -111 -244 -111z" />
    <glyph glyph-name="notequal" unicode="&#x2260;" horiz-adv-x="1228" 
d="M799 797l-74 -158h401v-315h-548l-101 -218h-289l101 218h-187v315h334l74 158h-408v313h553l103 219h289l-103 -219h182v-313h-327z" />
    <glyph glyph-name="lessequal" unicode="&#x2264;" horiz-adv-x="1228" 
d="M1126 375l-1024 377v286l1024 381v-321l-553 -203l553 -199v-321zM102 18v301h1024v-301h-1024z" />
    <glyph glyph-name="greaterequal" unicode="&#x2265;" horiz-adv-x="1228" 
d="M1126 1038v-286l-1024 -377v321l553 199l-553 203v321zM102 319h1024v-301h-1024v301z" />
    <glyph glyph-name="uni23F4" unicode="&#x23f4;" horiz-adv-x="790" 
d="M606 272l-504 445l504 444v-889z" />
    <glyph glyph-name="uni23F5" unicode="&#x23f5;" horiz-adv-x="790" 
d="M184 1161l504 -444l-504 -445v889z" />
    <glyph glyph-name="uni23F6" unicode="&#x23f6;" horiz-adv-x="929" 
d="M20 465l445 504l444 -504h-889z" />
    <glyph glyph-name="uni23F7" unicode="&#x23f7;" horiz-adv-x="929" 
d="M909 969l-444 -504l-445 504h889z" />
    <glyph glyph-name="filledbox" unicode="&#x25a0;" horiz-adv-x="1581" 
d="M1507 0h-1433v1434h1433v-1434z" />
    <glyph glyph-name="H22073" unicode="&#x25a1;" horiz-adv-x="1581" 
d="M1507 0h-1433v1434h1433v-1434zM1247 260v914h-913v-914h913z" />
    <glyph glyph-name="uni25A2" unicode="&#x25a2;" horiz-adv-x="1581" 
d="M1507 0h-1433v1434h1433v-1434zM1247 260v914h-913v-914h913z" />
    <glyph glyph-name="triagup" unicode="&#x25b2;" horiz-adv-x="1826" 
d="M61 0l852 1475l852 -1475h-1704z" />
    <glyph glyph-name="uni25B3" unicode="&#x25b3;" horiz-adv-x="1826" 
d="M913 1475l852 -1475h-1704zM514 260h799l-400 692z" />
    <glyph glyph-name="triagdn" unicode="&#x25bc;" horiz-adv-x="1826" 
d="M1765 1434l-852 -1446l-852 1446h1704z" />
    <glyph glyph-name="uni25BD" unicode="&#x25bd;" horiz-adv-x="1826" 
d="M61 1434h1704l-852 -1475zM913 481l400 693h-799z" />
    <glyph glyph-name="uni25C6" unicode="&#x25c6;" horiz-adv-x="1638" 
d="M819 -41l-758 758l758 758l758 -758z" />
    <glyph glyph-name="uni25C7" unicode="&#x25c7;" horiz-adv-x="1638" 
d="M819 -41l-758 758l758 758l758 -758zM819 328l389 389l-389 389l-389 -389z" />
    <glyph glyph-name="lozenge" unicode="&#x25ca;" horiz-adv-x="1122" 
d="M61 717l414 717h172l414 -717l-414 -717h-172zM561 375l197 342l-197 344l-199 -344z" />
    <glyph glyph-name="circle" unicode="&#x25cb;" horiz-adv-x="1589" 
d="M53 717q0 305 217 522q219 219 525 219q303 0 522 -219q217 -217 217 -522q0 -307 -217 -524q-218 -218 -522 -218q-307 0 -525 218q-217 217 -217 524zM455 1055q-140 -140 -140 -338q0 -197 140 -340q142 -139 340 -139q199 0 338 139q141 141 141 340q0 200 -141 338
q-138 141 -338 141q-199 0 -340 -141z" />
    <glyph glyph-name="H18533" unicode="&#x25cf;" horiz-adv-x="1589" 
d="M53 717q0 305 217 522q219 219 525 219q303 0 522 -219q217 -217 217 -522q0 -307 -217 -524q-218 -218 -522 -218q-307 0 -525 218q-217 217 -217 524z" />
    <glyph glyph-name="uni25D0" unicode="&#x25d0;" horiz-adv-x="1589" 
d="M53 717q0 305 217 522q219 219 525 219q303 0 522 -219q217 -217 217 -522q0 -307 -217 -524q-218 -218 -522 -218q-307 0 -525 218q-217 217 -217 524zM795 1196v-958q199 0 338 139q141 141 141 340q0 200 -141 338q-138 141 -338 141z" />
    <glyph glyph-name="uni25D1" unicode="&#x25d1;" horiz-adv-x="1589" 
d="M795 -25q-307 0 -525 218q-217 217 -217 524q0 305 217 522q219 219 525 219q308 0 522 -217q217 -217 217 -524t-217 -524q-215 -218 -522 -218zM795 238v958q-199 0 -340 -141q-140 -140 -140 -338q0 -197 140 -340q142 -139 340 -139z" />
    <glyph glyph-name="uni25D2" unicode="&#x25d2;" horiz-adv-x="1589" 
d="M795 -25q-307 0 -525 218q-217 217 -217 524q0 305 217 522q219 219 525 219q308 0 522 -217q217 -217 217 -524t-217 -524q-215 -218 -522 -218zM315 717h959q0 200 -141 338q-138 141 -338 141q-199 0 -340 -141q-140 -140 -140 -338z" />
    <glyph glyph-name="uni25D3" unicode="&#x25d3;" horiz-adv-x="1589" 
d="M795 1458q308 0 522 -217q217 -217 217 -524t-217 -524q-215 -218 -522 -218t-525 218q-217 217 -217 524t217 524t525 217zM1274 717h-959q0 -197 140 -340q142 -139 340 -139q199 0 338 139q141 141 141 340z" />
    <glyph glyph-name="uni25D4" unicode="&#x25d4;" horiz-adv-x="1589" 
d="M53 717q0 305 217 522q219 219 525 219q303 0 522 -219q217 -217 217 -522q0 -307 -217 -524q-218 -218 -522 -218q-307 0 -525 218q-217 217 -217 524zM1274 717h-479v479q-199 0 -340 -141q-140 -140 -140 -338q0 -197 140 -340q142 -139 340 -139q199 0 338 139
q141 141 141 340z" />
    <glyph glyph-name="uni25D5" unicode="&#x25d5;" horiz-adv-x="1589" 
d="M53 717q0 305 217 522q219 219 525 219q303 0 522 -219q217 -217 217 -522q0 -307 -217 -524q-218 -218 -522 -218q-307 0 -525 218q-217 217 -217 524zM315 717h480v479q-199 0 -340 -141q-140 -140 -140 -338z" />
    <glyph glyph-name="uni25D6" unicode="&#x25d6;" horiz-adv-x="868" 
d="M53 717q0 305 217 522q219 219 525 219v-1483q-307 0 -525 218q-217 217 -217 524z" />
    <glyph glyph-name="uni25D7" unicode="&#x25d7;" horiz-adv-x="868" 
d="M815 717q0 -307 -217 -524q-218 -218 -524 -218v1483q305 0 524 -219q217 -217 217 -522z" />
    <glyph glyph-name="uni25EF" unicode="&#x25ef;" horiz-adv-x="1589" 
d="M53 717q0 305 217 522q219 219 525 219q303 0 522 -219q217 -217 217 -522q0 -307 -217 -524q-218 -218 -522 -218q-307 0 -525 218q-217 217 -217 524zM455 1055q-140 -140 -140 -338q0 -197 140 -340q142 -139 340 -139q199 0 338 139q141 141 141 340q0 200 -141 338
q-138 141 -338 141q-199 0 -340 -141z" />
    <glyph glyph-name="uni2639" unicode="&#x2639;" horiz-adv-x="1617" 
d="M424 938q0 54 36.5 90.5t90.5 36.5q55 0 92 -36.5t37 -90.5q0 -56 -37 -92.5t-92 -36.5q-54 0 -90.5 37t-36.5 92zM942 938q0 54 36.5 90.5t90.5 36.5q55 0 92 -36.5t37 -90.5q0 -56 -37 -92.5t-92 -36.5q-54 0 -90.5 37t-36.5 92zM475 293h-82q0 161 119 268
q121 109 297 109q174 0 295 -109t121 -268h-82q0 125 -96 209t-238 84t-238 -84t-96 -209zM295 203q-213 213 -213 514t213 514t514 213t514 -213t213 -514t-213 -514t-514 -213t-514 213zM350 1176q-190 -190 -190 -459t190 -459t459 -190t459 190t190 459t-190 459
t-459 190t-459 -190z" />
    <glyph glyph-name="smileface" unicode="&#x263a;" horiz-adv-x="1617" 
d="M424 938q0 54 36.5 90.5t90.5 36.5q55 0 92 -36.5t37 -90.5q0 -56 -37 -92.5t-92 -36.5q-54 0 -90.5 37t-36.5 92zM942 938q0 54 36.5 90.5t90.5 36.5q55 0 92 -36.5t37 -90.5q0 -56 -37 -92.5t-92 -36.5q-54 0 -90.5 37t-36.5 92zM393 608h82q0 -125 96 -209t238 -84
t238 84t96 209h82q0 -161 -121 -270q-119 -107 -295 -107q-178 0 -297 107t-119 270zM295 203q-213 213 -213 514t213 514t514 213t514 -213t213 -514t-213 -514t-514 -213t-514 213zM350 1176q-190 -190 -190 -459t190 -459t459 -190t459 190t190 459t-190 459t-459 190
t-459 -190z" />
    <glyph glyph-name="invsmileface" unicode="&#x263b;" horiz-adv-x="1617" 
d="M424 938q0 -55 36.5 -92t90.5 -37q55 0 92 36.5t37 92.5q0 54 -37 90.5t-92 36.5q-54 0 -90.5 -36.5t-36.5 -90.5zM942 938q0 -55 36.5 -92t90.5 -37q55 0 92 36.5t37 92.5q0 54 -37 90.5t-92 36.5q-54 0 -90.5 -36.5t-36.5 -90.5zM475 608h-82q0 -163 119 -270t297 -107
q176 0 295 107q121 109 121 270h-82q0 -125 -96 -209t-238 -84t-238 84t-96 209zM295 203q-213 213 -213 514t213 514t514 213t514 -213t213 -514t-213 -514t-514 -213t-514 213z" />
    <glyph glyph-name="commaaccent" horiz-adv-x="458" 
d="M385 -264q0 -50 -22 -99t-50.5 -82t-62.5 -62t-52 -40.5t-26 -15.5l-78 80q96 75 99 110q-51 11 -85 53t-34 97q0 60 42 101.5t105 41.5q71 0 117.5 -52.5t46.5 -131.5z" />
    <glyph glyph-name="zero.fitted" horiz-adv-x="1228" 
d="M45 500v436q0 224 162 373t407 149q244 0 406 -149q164 -150 164 -373v-436q0 -225 -164 -375t-406 -150q-244 0 -407 150q-162 149 -162 375zM614 1114q-88 0 -148 -50.5t-60 -123.5v-446q0 -74 60 -124.5t148 -50.5q90 0 150.5 50.5t60.5 124.5v446q0 74 -60.5 124
t-150.5 50z" />
    <glyph glyph-name="one.fitted" horiz-adv-x="1228" 
d="M522 1022l-231 -104l-135 305l465 211h260v-1090h293v-344h-945v344h293v678z" />
    <glyph glyph-name="two.fitted" horiz-adv-x="1228" 
d="M758 995q0 49 -45.5 84t-108.5 35q-71 0 -128.5 -46.5t-90.5 -127.5l-334 160q79 167 225 262.5t328 95.5q221 0 375 -133t154 -317q0 -230 -318 -510l-168 -154h494v-344h-1045v266l504 469q158 149 158 260z" />
    <glyph glyph-name="three.fitted" horiz-adv-x="1228" 
d="M750 995q0 52 -50 85.5t-131 33.5q-146 0 -192 -100l-322 123q65 143 209 231q146 90 328 90q230 0 379 -131q153 -129 153 -326q0 -159 -131 -253q170 -108 170 -302q0 -203 -162 -337q-161 -134 -399 -134q-209 0 -358 101q-150 102 -203 266l338 117q11 -62 69 -101
t142 -39q86 0 142 39t56 99q0 59 -55.5 97t-138.5 38h-109v280h70q81 0 138 35t57 88z" />
    <glyph glyph-name="four.fitted" horiz-adv-x="1228" 
d="M705 0v252h-662v344l678 838h344v-840h156v-342h-156v-252h-360zM705 893l-240 -299h240v299z" />
    <glyph glyph-name="five.fitted" horiz-adv-x="1228" 
d="M1176 479q0 -215 -160 -360q-159 -144 -400 -144q-207 0 -364 115q-154 113 -213 301l360 96q26 -79 82.5 -123.5t130.5 -44.5q81 0 136 46t55 112q0 73 -67 121.5t-167 48.5h-415l77 787h813v-328h-518l-14 -131h135q227 0 377 -144q152 -146 152 -352z" />
    <glyph glyph-name="six.fitted" horiz-adv-x="1228" 
d="M1159 1155l-325 -154q-61 113 -199 113q-91 0 -151 -47t-60 -115v-80q89 62 227 62q219 0 373 -139q156 -138 156 -342q0 -203 -160 -342q-160 -136 -397 -136t-400 138q-160 139 -160 340v493q0 222 162 365q164 147 408 147q178 0 318 -81.5t208 -221.5zM623 590
q-79 0 -132 -39t-53 -96t53 -96.5t132 -39.5q78 0 130 38.5t52 95.5q0 60 -52 98.5t-130 38.5z" />
    <glyph glyph-name="seven.fitted" horiz-adv-x="1228" 
d="M229 0l523 1106h-664v328h1055v-349l-514 -1085h-400z" />
    <glyph glyph-name="eight.fitted" horiz-adv-x="1228" 
d="M616 -25q-241 0 -401 127t-160 316q0 197 174 325q-145 124 -145 295q0 177 152 299q154 121 380 121q229 0 379 -123q152 -122 152 -299q0 -174 -146 -293q175 -132 175 -329q0 -187 -160 -314q-158 -125 -400 -125zM430 451q0 -56 52.5 -94t133.5 -38q47 -3 87.5 11.5
t63 40t31.5 55.5t-3.5 60t-44.5 51q-50 36 -134 36q-82 0 -134 -34t-52 -88zM459 1010q0 -45 45 -76t112 -31t112.5 31t45.5 76q0 43 -45.5 73.5t-112.5 30.5t-112 -30.5t-45 -73.5z" />
    <glyph glyph-name="nine.fitted" horiz-adv-x="1228" 
d="M49 274l322 150q59 -105 207 -105q102 0 166.5 46t64.5 116v68q-78 -60 -219 -60q-216 0 -371 140q-151 142 -151 348q0 207 155 344t393 137q239 0 396 -139q159 -138 159 -344v-490q0 -219 -167 -364q-172 -146 -418 -146q-183 0 -326 82q-148 85 -211 217zM618 834
q76 0 127.5 39.5t51.5 99.5q0 61 -51.5 101t-129.5 40q-76 0 -126 -39t-50 -100q0 -62 50 -101.5t128 -39.5z" />
    <glyph glyph-name="zero.sup" horiz-adv-x="677" 
d="M25 1026v231q0 121 90 205t225 84t225 -84t90 -205v-231q0 -123 -90 -207q-88 -82 -225 -82t-225 82q-90 84 -90 207zM236 1262v-240q-5 -50 49.5 -70.5t109 0t49.5 70.5v240q0 35 -30 59.5t-74 24.5t-74 -24.5t-30 -59.5z" />
    <glyph glyph-name="one.sup" horiz-adv-x="509" 
d="M219 1300l-119 -53l-75 176l251 113h152v-788h-209v552z" />
    <glyph glyph-name="two.sup" horiz-adv-x="653" 
d="M395 1290q0 23 -22 39.5t-51 16.5q-77 0 -115 -93l-195 95q43 92 125.5 145t184.5 53q124 0 206 -73q86 -74 86 -177q0 -125 -176 -278l-78 -70h258v-200h-579v155l274 252q82 73 82 135z" />
    <glyph glyph-name="three.sup" horiz-adv-x="665" 
d="M397 1288q0 25 -24 41.5t-64 16.5q-76 0 -100 -52l-186 62q37 86 118.5 138t184.5 52q124 0 206 -73q84 -72 84 -183q0 -84 -71 -131q94 -52 94 -158q0 -112 -88 -188t-221 -76q-114 0 -199 57.5t-115 151.5l197 68q-3 -46 51.5 -64.5t108 -1t47.5 57.5q0 30 -27 48.5
t-69 18.5h-62v154h37q43 0 70.5 16.5t27.5 44.5z" />
    <glyph glyph-name="four.sup" horiz-adv-x="706" 
d="M395 748v135h-370v200l381 453h200v-453h80v-200h-80v-135h-211zM395 1229l-121 -146h121v146z" />
    <glyph glyph-name="five.sup" horiz-adv-x="673" 
d="M647 1016q0 -120 -88 -199q-89 -80 -221 -80q-118 0 -205.5 64.5t-116.5 171.5l211 55q27 -88 109 -88q38 0 65 21.5t27 52.5q0 35 -34 58.5t-85 23.5h-231l45 440h450v-190h-278l-8 -60h82q117 0 198 -78q80 -77 80 -192z" />
    <glyph glyph-name="six.sup" horiz-adv-x="665" 
d="M635 1376l-189 -90q-28 60 -102 60q-44 0 -75 -22t-31 -54v-51q43 43 122 43q117 0 201 -78t84 -185q0 -112 -88 -188q-89 -74 -221 -74t-221 74q-88 76 -88 188v269q0 117 90 198q92 80 225 80q100 0 179 -46t114 -124zM336 940q56 -4 79 28t-0.5 64t-78.5 29
q-54 3 -76.5 -29t0 -64t76.5 -28z" />
    <glyph glyph-name="seven.sup" horiz-adv-x="620" 
d="M86 748l291 598h-361v190h588v-203l-282 -585h-236z" />
    <glyph glyph-name="eight.sup" horiz-adv-x="673" 
d="M27 981q0 101 90 176q-76 64 -76 158q0 98 84 164q85 67 211 67q129 0 211 -67q84 -66 84 -166q0 -94 -76 -158q92 -71 92 -178q0 -100 -90 -172q-89 -68 -221 -68q-133 0 -221 70t-88 174zM246 999q-6 -37 42 -52t96.5 -0.5t43.5 50.5q5 36 -43.5 51.5t-96.5 1
t-42 -50.5zM412 1298q0 22 -24 34t-52 12t-52 -12t-24 -34t24 -34.5t52 -13.5t52 12t24 36z" />
    <glyph glyph-name="nine.sup" horiz-adv-x="667" 
d="M23 899l184 86q26 -45 104 -45q54 0 87.5 21t33.5 53v49q-38 -47 -119 -47q-114 0 -198 78t-84 190t86 186q88 76 219 76t219 -76q88 -73 88 -186v-266q0 -119 -94 -201q-92 -80 -230 -80q-100 0 -180.5 44t-115.5 118zM272 1235q25 -17 63.5 -17t63.5 17q25 19 25 47
t-25 45q-25 19 -63.5 19t-63.5 -19q-23 -17 -23 -45t23 -47z" />
    <glyph glyph-name="zero.sub" horiz-adv-x="677" 
d="M25 74v231q0 121 90 205t225 84t225 -84t90 -205v-231q0 -121 -90 -205t-225 -84t-225 84t-90 205zM236 309v-239q0 -35 30 -59.5t74 -24.5t74 24.5t30 59.5v239q0 35 -30 59.5t-74 24.5t-74 -24.5t-30 -59.5z" />
    <glyph glyph-name="one.sub" horiz-adv-x="509" 
d="M219 348l-119 -53l-75 176l251 113h152v-789h-209v553z" />
    <glyph glyph-name="two.sub" horiz-adv-x="653" 
d="M395 338q0 23 -21.5 39t-51.5 16q-77 0 -115 -92l-195 94q43 93 125.5 146t184.5 53q123 0 206 -74q86 -74 86 -176q0 -125 -176 -278l-78 -70h258v-201h-579v156l274 252q82 73 82 135z" />
    <glyph glyph-name="three.sub" horiz-adv-x="665" 
d="M397 336q0 25 -23.5 41t-64.5 16q-77 0 -100 -51l-186 61q37 86 118.5 138.5t184.5 52.5q123 0 206 -74q84 -72 84 -182q0 -84 -71 -131q94 -52 94 -158q0 -112 -88 -188t-221 -76q-114 0 -199 57.5t-115 151.5l197 67q4 -35 32.5 -55t73.5 -20q43 0 72 19t29 48
q0 30 -27 49t-69 19h-62v153h37q42 0 70 16.5t28 45.5z" />
    <glyph glyph-name="four.sub" horiz-adv-x="706" 
d="M395 -205v135h-370v201l381 453h200v-453h80v-201h-80v-135h-211zM395 276l-121 -145h121v145z" />
    <glyph glyph-name="five.sub" horiz-adv-x="673" 
d="M647 63q0 -122 -88 -198q-89 -80 -221 -80q-118 0 -205.5 64.5t-116.5 170.5l211 56q27 -90 109 -90q38 0 65 22t27 53q0 35 -34 58.5t-85 23.5h-231l45 441h450v-191h-278l-8 -59h82q117 0 198 -78q80 -77 80 -193z" />
    <glyph glyph-name="six.sub" horiz-adv-x="665" 
d="M635 424l-189 -90q-27 59 -102 59q-44 0 -75 -22t-31 -54v-51q43 43 122 43q117 0 201 -78t84 -184q0 -113 -88 -186q-88 -76 -221 -76t-221 76q-88 73 -88 186v268q0 118 90 199q92 80 225 80q100 0 179 -46t114 -124zM336 -14q56 -3 79 29t-0.5 64.5t-78.5 29.5
q-41 0 -64 -19t-23 -42.5t23 -42.5t64 -19z" />
    <glyph glyph-name="seven.sub" horiz-adv-x="620" 
d="M86 -205l291 598h-361v191h588v-203l-282 -586h-236z" />
    <glyph glyph-name="eight.sub" horiz-adv-x="673" 
d="M27 29q0 101 90 176q-76 64 -76 157q0 98 84 164q86 68 211 68q128 0 211 -68q84 -66 84 -166q0 -93 -76 -157q92 -71 92 -178q0 -101 -90 -170q-88 -70 -221 -70t-221 70t-88 174zM246 47q-6 -38 42 -53.5t96.5 -0.5t43.5 52q5 36 -43.5 51.5t-96.5 1t-42 -50.5z
M412 346q0 22 -24 34t-52 12t-52 -12t-24 -34t24 -34.5t52 -13.5t52 12t24 36z" />
    <glyph glyph-name="nine.sub" horiz-adv-x="667" 
d="M23 -53l184 86q27 -47 104 -47q54 0 87.5 21t33.5 54v50q-39 -48 -119 -48q-114 0 -198 78t-84 191q0 112 86 186q88 76 219 76t219 -76q88 -73 88 -186v-266q0 -120 -94 -199q-91 -82 -230 -82q-100 0 -180.5 44t-115.5 118zM272 283q25 -17 63.5 -17t63.5 17
q25 19 25 47t-25 45q-25 19 -63.5 19t-63.5 -19q-23 -17 -23 -45t23 -47z" />
    <glyph glyph-name="exclamdown.case" horiz-adv-x="522" 
d="M72 1270q0 80 54 134t134 54q81 0 135 -54t54 -134q0 -82 -53.5 -136.5t-135.5 -54.5q-80 0 -134 54.5t-54 136.5zM74 0l43 969h289l43 -969h-375z" />
    <glyph glyph-name="questiondown.case" horiz-adv-x="1249" 
d="M440 442q0 -60 58 -99.5t145 -39.5q75 0 131.5 34.5t75.5 90.5l360 -98q-53 -168 -204 -269q-150 -102 -357 -102q-243 0 -407 135q-162 137 -162 346q0 94 38.5 175t96.5 126q116 87 211 111l39 8l16 76h297l39 -270q-37 -4 -131 -33q-54 -15 -115 -41
q-54 -25 -92.5 -66.5t-38.5 -83.5zM838 1255q0 -88 -58.5 -147t-146.5 -59t-146.5 59t-58.5 147q0 86 58.5 144.5t146.5 58.5t146.5 -58.5t58.5 -144.5z" />
    <glyph glyph-name="dagger.case" horiz-adv-x="942" 
d="M27 819v244h313v371h262v-371h313v-244h-313v-819h-262v819h-313z" />
    <glyph glyph-name="daggerdbl.case" horiz-adv-x="942" 
d="M340 344h-313v244h313v258h-313v244h313v344h262v-344h313v-244h-313v-258h313v-244h-313v-344h-262v344z" />
    <glyph glyph-name="slash.case" horiz-adv-x="1148" 
d="M289 -205h-289l860 1843h289z" />
    <glyph glyph-name="backslash.case" horiz-adv-x="1148" 
d="M289 1638l860 -1843h-289l-860 1843h289z" />
    <glyph glyph-name="parenleft.case" horiz-adv-x="677" 
d="M305 1602l29 36h323l-30 -43q-22 -33 -68 -118q-52 -99 -87 -199t-64 -246q-62 -313 -2 -629q19 -104 48 -196.5t66 -169.5t56.5 -112t52.5 -89l28 -41h-323q-15 15 -31 39q-15 20 -67 113q-52 95 -87.5 193.5t-64.5 246.5q-63 327 -2 657q26 150 70 261q88 218 153 297z
" />
    <glyph glyph-name="parenright.case" horiz-adv-x="677" 
d="M49 1597l-29 41h324q15 -15 31 -39q21 -27 65 -112q53 -93 88.5 -192.5t63.5 -250.5q63 -325 2 -655q-58 -313 -221 -557l-29 -37h-324l31 43q23 35 66 119q53 97 88 197t63 247q62 313 2 629q-19 104 -48 197t-65 168.5t-56 112.5t-52 89z" />
    <glyph glyph-name="bracketleft.case" horiz-adv-x="727" 
d="M412 98h295v-303h-619v1843h619v-303h-295v-1237z" />
    <glyph glyph-name="bracketright.case" horiz-adv-x="727" 
d="M639 -205h-619v303h295v1237h-295v303h619v-1843z" />
    <glyph glyph-name="braceleft.case" horiz-adv-x="765" 
d="M604 1638h141v-297h-106q-50 0 -81.5 -31.5t-31.5 -80.5v-203q0 -124 -62 -203.5t-175 -105.5q113 -26 175 -105.5t62 -203.5v-203q0 -47 33 -80t80 -33h106v-297h-141q-169 0 -287 115q-114 114 -114 283v208q0 47 -43 90.5t-94 65.5l-46 16v287q5 1 64 27
q119 65 119 145v209q0 169 114 283t287 114z" />
    <glyph glyph-name="braceright.case" horiz-adv-x="765" 
d="M20 1341v297h142q173 0 287 -114q116 -113 116 -283v-209q0 -47 42 -90t93 -65l45 -17v-287q-23 -5 -63 -26q-117 -64 -117 -144v-210q0 -170 -116 -283q-115 -115 -287 -115h-142v297h109q47 0 80 33t33 80v203q0 126 61.5 205t175.5 104q-113 26 -175 105.5t-62 203.5
v203q0 47 -33 79.5t-80 32.5h-109z" />
    <glyph glyph-name="guillemotleft.case" horiz-adv-x="1204" 
d="M461 299l-420 418l420 418l198 -197l-221 -221l221 -219zM954 299l-419 418l419 418l199 -197l-221 -221l221 -219z" />
    <glyph glyph-name="guillemotright.case" horiz-adv-x="1204" 
d="M743 1135l420 -418l-420 -418l-198 199l221 219l-221 221zM250 1135l420 -418l-420 -418l-197 199l219 219l-219 221z" />
    <glyph glyph-name="guilsinglleft.case" horiz-adv-x="712" 
d="M461 299l-420 418l420 418l198 -197l-221 -221l221 -219z" />
    <glyph glyph-name="guilsinglright.case" horiz-adv-x="712" 
d="M250 1135l420 -418l-420 -418l-197 199l219 219l-219 221z" />
    <glyph glyph-name="hyphen.case" horiz-adv-x="819" 
d="M102 561v313h615v-313h-615z" />
    <glyph glyph-name="endash.case" horiz-adv-x="1228" 
d="M102 561v313h1024v-313h-1024z" />
    <glyph glyph-name="emdash.case" horiz-adv-x="2048" 
d="M102 561v313h1844v-313h-1844z" />
    <glyph glyph-name="bar.case" horiz-adv-x="438" 
d="M350 -205h-262v1843h262v-1843z" />
    <glyph glyph-name="brokenbar.case" horiz-adv-x="438" 
d="M350 1638v-753h-262v753h262zM88 -205v756h262v-756h-262z" />
    <glyph glyph-name="zero.dnom" horiz-adv-x="677" 
d="M25 279v231q0 121 90 205t225 84t225 -84t90 -205v-231q0 -123 -90 -207q-88 -82 -225 -82t-225 82q-90 84 -90 207zM236 514v-240q-5 -50 49.5 -70.5t109 0t49.5 70.5v240q0 35 -30 59.5t-74 24.5t-74 -24.5t-30 -59.5z" />
    <glyph glyph-name="one.dnom" horiz-adv-x="509" 
d="M219 553l-119 -53l-75 176l251 112h152v-788h-209v553z" />
    <glyph glyph-name="two.dnom" horiz-adv-x="653" 
d="M395 543q0 23 -21.5 39t-51.5 16q-77 0 -115 -92l-195 94q43 93 125.5 146t184.5 53q123 0 206 -74q86 -74 86 -176q0 -126 -176 -279l-78 -69h258v-201h-579v156l274 252q82 73 82 135z" />
    <glyph glyph-name="three.dnom" horiz-adv-x="665" 
d="M397 541q0 25 -23.5 41t-64.5 16q-77 0 -100 -51l-186 61q37 86 118.5 138.5t184.5 52.5q123 0 206 -74q84 -72 84 -182q0 -84 -71 -131q94 -52 94 -158q0 -112 -88 -188t-221 -76q-114 0 -199 57.5t-115 151.5l197 67q-3 -46 51.5 -64.5t108 -1t47.5 57.5q0 30 -27 49
t-69 19h-62v153h37q42 0 70 16.5t28 45.5z" />
    <glyph glyph-name="four.dnom" horiz-adv-x="706" 
d="M395 0v135h-370v201l381 452h200v-452h80v-201h-80v-135h-211zM395 481l-121 -145h121v145z" />
    <glyph glyph-name="five.dnom" horiz-adv-x="673" 
d="M647 268q0 -119 -88 -198q-89 -80 -221 -80q-118 0 -205.5 64.5t-116.5 170.5l211 56q27 -88 109 -88q38 0 65 21t27 52q0 35 -34 58.5t-85 23.5h-231l45 440h450v-190h-278l-8 -59h82q117 0 198 -78q80 -77 80 -193z" />
    <glyph glyph-name="six.dnom" horiz-adv-x="665" 
d="M635 629l-189 -90q-27 59 -102 59q-44 0 -75 -22t-31 -54v-51q43 43 122 43q117 0 201 -78t84 -184q0 -113 -88 -189q-88 -73 -221 -73t-221 73q-88 76 -88 189v268q0 118 90 199q92 80 225 80q100 0 179 -46t114 -124zM336 193q56 -4 79 27.5t-0.5 63.5t-78.5 29
q-54 3 -76.5 -29t0 -63.5t76.5 -27.5z" />
    <glyph glyph-name="seven.dnom" horiz-adv-x="620" 
d="M86 0l291 598h-361v190h588v-202l-282 -586h-236z" />
    <glyph glyph-name="eight.dnom" horiz-adv-x="673" 
d="M27 233q0 102 90 177q-76 64 -76 157q0 98 84 164q86 68 211 68q128 0 211 -68q84 -66 84 -166q0 -93 -76 -157q92 -71 92 -179q0 -100 -90 -172q-88 -67 -221 -67q-134 0 -221 69q-88 70 -88 174zM246 252q-6 -37 42 -52t96.5 -0.5t43.5 50.5q5 36 -43.5 51.5t-96.5 1
t-42 -50.5zM412 551q0 22 -24 34t-52 12t-52 -12t-24 -34t24 -34.5t52 -13.5t52 12t24 36z" />
    <glyph glyph-name="nine.dnom" horiz-adv-x="667" 
d="M23 152l184 86q26 -45 104 -45q54 0 87.5 20.5t33.5 52.5v49q-38 -47 -119 -47q-114 0 -198 78t-84 191q0 112 86 186q88 76 219 76t219 -76q88 -73 88 -186v-267q0 -118 -94 -200q-92 -80 -230 -80q-100 0 -180.5 44t-115.5 118zM272 487q25 -17 63.5 -17t63.5 17
q25 19 25 47.5t-25 45.5q-25 19 -63.5 19t-63.5 -19q-23 -17 -23 -45.5t23 -47.5z" />
    <glyph glyph-name="logo" horiz-adv-x="880" 
d="M41 1061v209h47q145 0 248 -103q102 -102 102 -247q0 -146 -102 -248q-103 -103 -248 -103h-47v211q186 0 186 140q0 141 -186 141zM442 1061v209h47q145 0 248 -103t103 -247q0 -145 -103 -248t-248 -103h-47v211q189 0 189 140q0 141 -189 141zM109 442h-56v41h152v-41
h-55v-237h-41v237zM285 328l-74 155h47l47 -102l49 102h47l-73 -155v-123h-43v123zM467 205h-41v278h78q37 0 63.5 -25.5t26.5 -62.5t-26.5 -62.5t-63.5 -25.5h-37v-102zM504 442h-37v-94h37q20 0 33.5 13.5t13.5 33.5q0 19 -13.5 33t-33.5 14zM743 205h-122v278h122v-41
h-79v-98h63v-41h-63v-57h79v-41z" />
    <glyph glyph-name="bullet.case" horiz-adv-x="784" 
d="M739 717q0 -152 -100 -252q-98 -98 -248 -98t-250 100q-98 101 -98 250t98 250q100 100 250 100q151 0 248 -100q100 -100 100 -250z" />
    <glyph glyph-name="zero.num" horiz-adv-x="677" 
d="M25 924v231q0 121 90 205t225 84t225 -84t90 -205v-231q0 -123 -90 -207q-88 -82 -225 -82t-225 82q-90 84 -90 207zM236 1159v-239q-5 -50 49.5 -70.5t109 0t49.5 70.5v239q0 35 -30 59.5t-74 24.5t-74 -24.5t-30 -59.5z" />
    <glyph glyph-name="one.num" horiz-adv-x="509" 
d="M219 1198l-119 -53l-75 176l251 113h152v-789h-209v553z" />
    <glyph glyph-name="two.num" horiz-adv-x="653" 
d="M395 1188q0 23 -21.5 39t-51.5 16q-77 0 -115 -92l-195 94q43 93 125.5 146t184.5 53q123 0 206 -74q86 -74 86 -176q0 -126 -176 -279l-78 -69h258v-201h-579v156l274 252q82 73 82 135z" />
    <glyph glyph-name="three.num" horiz-adv-x="665" 
d="M397 1186q0 25 -23.5 41t-64.5 16q-77 0 -100 -51l-186 61q37 86 118.5 138.5t184.5 52.5q123 0 206 -74q84 -72 84 -182q0 -84 -71 -131q94 -52 94 -158q0 -112 -88 -188t-221 -76q-114 0 -199 57.5t-115 151.5l197 67q-3 -46 51.5 -64.5t108 -1t47.5 57.5q0 30 -27 49
t-69 19h-62v153h37q42 0 70 16.5t28 45.5z" />
    <glyph glyph-name="four.num" horiz-adv-x="706" 
d="M395 645v135h-370v201l381 453h200v-453h80v-201h-80v-135h-211zM395 1126l-121 -145h121v145z" />
    <glyph glyph-name="five.num" horiz-adv-x="673" 
d="M647 913q0 -119 -88 -198q-89 -80 -221 -80q-118 0 -205.5 64.5t-116.5 170.5l211 56q27 -88 109 -88q38 0 65 21t27 52q0 35 -34 58.5t-85 23.5h-231l45 441h450v-191h-278l-8 -59h82q117 0 198 -78q80 -77 80 -193z" />
    <glyph glyph-name="six.num" horiz-adv-x="665" 
d="M635 1274l-189 -90q-27 59 -102 59q-44 0 -75 -22t-31 -54v-51q43 43 122 43q117 0 201 -78t84 -184q0 -112 -88 -188q-89 -74 -221 -74t-221 74q-88 76 -88 188v268q0 118 90 199q92 80 225 80q100 0 179 -46t114 -124zM336 838q56 -4 79 27.5t-0.5 63.5t-78.5 29
q-54 3 -76.5 -29t0 -63.5t76.5 -27.5z" />
    <glyph glyph-name="seven.num" horiz-adv-x="620" 
d="M86 645l291 598h-361v191h588v-203l-282 -586h-236z" />
    <glyph glyph-name="eight.num" horiz-adv-x="673" 
d="M27 879q0 101 90 176q-76 64 -76 157q0 98 84 164q86 68 211 68q128 0 211 -68q84 -66 84 -166q0 -93 -76 -157q92 -71 92 -179q0 -100 -90 -172q-88 -67 -221 -67t-221 70t-88 174zM246 897q-6 -37 42 -52t96.5 -0.5t43.5 50.5q5 36 -43.5 51.5t-96.5 1t-42 -50.5z
M412 1196q0 22 -24 34t-52 12t-52 -12t-24 -34t24 -34.5t52 -13.5t52 12t24 36z" />
    <glyph glyph-name="nine.num" horiz-adv-x="667" 
d="M23 797l184 86q26 -45 104 -45q54 0 87.5 20.5t33.5 52.5v50q-39 -48 -119 -48q-114 0 -198 78t-84 191q0 112 86 186q88 76 219 76t219 -76q88 -73 88 -186v-267q0 -118 -94 -200q-92 -80 -230 -80q-100 0 -180.5 44t-115.5 118zM272 1133q25 -17 63.5 -17t63.5 17
q25 19 25 47t-25 45q-25 19 -63.5 19t-63.5 -19q-23 -17 -23 -45t23 -47z" />
    <glyph glyph-name="afii10021.1" horiz-adv-x="1658" 
d="M1628 0h-1597v344h170q104 52 104 387v703h1114v-1090h209v-344zM616 344h428v746h-364v-347q0 -237 -64 -399z" />
    <glyph glyph-name="afii10040.1" horiz-adv-x="1603" 
d="M74 1434h375v-1090h538v1090h375v-1090h211v-344h-1499v1434z" />
    <glyph glyph-name="afii10043.1" horiz-adv-x="2230" 
d="M74 0v1434h375v-1090h380v1090h375v-1090h410v1090h375v-1090h211v-344h-2126z" />
    <glyph glyph-name="germandbls.1" horiz-adv-x="1236" 
d="M422 739v-739h-359v1182q0 157 130 266q132 108 325 108h82v-331h-53q-54 0 -89.5 -24.5t-35.5 -59.5v-76h704v-236l-182 -311q122 -72 190 -193t68 -268q0 -236 -186 -391t-471 -155v333q130 0 212.5 60t82.5 153t-82.5 153t-212.5 60v234l137 235h-260z" />
    <glyph glyph-name="R.1" horiz-adv-x="1363" 
d="M449 0h-375v1434h680q230 0 385 -134q153 -132 153 -329q0 -224 -188 -359q140 -125 170 -307l51 -305h-362l-48 281q-12 78 -73.5 130t-141.5 52h-251v-463zM754 1090h-305v-299h305q63 0 106 43t43 106q0 64 -42 107t-107 43z" />
    <glyph glyph-name="Racute.1" horiz-adv-x="1372" 
d="M449 0h-375v1434h680q230 0 385 -134q153 -132 153 -329q0 -224 -188 -359q140 -125 170 -307l51 -305h-362l-48 281q-12 78 -73.5 130t-141.5 52h-251v-463zM473 1530l-106 176l446 285l148 -256zM754 1090h-305v-299h305q63 0 106 43t43 106q0 64 -42 107t-107 43z" />
    <glyph glyph-name="Rcaron.1" horiz-adv-x="1372" 
d="M449 0h-375v1434h680q230 0 385 -134q153 -132 153 -329q0 -224 -188 -359q140 -125 170 -307l51 -305h-362l-48 281q-12 78 -73.5 130t-141.5 52h-251v-463zM555 1516l-393 286l114 172l285 -164l287 162l113 -172l-392 -284h-14zM754 1090h-305v-299h305q63 0 106 43
t43 106q0 64 -42 107t-107 43z" />
    <glyph glyph-name="Rcommaaccent.1" horiz-adv-x="1372" 
d="M74 1434h680q230 0 385 -134q153 -132 153 -329q0 -224 -188 -359q140 -125 170 -307l51 -305h-362l-48 281q-12 78 -73.5 130t-141.5 52h-251v-463h-375v1434zM754 1090h-305v-299h305q63 0 106 43t43 106q0 64 -42 107t-107 43zM551 -223q0 60 42 101.5t105 41.5
q72 0 119 -53t47 -131q0 -50 -22 -99t-51 -82t-63.5 -62t-52.5 -40.5t-26 -15.5l-78 80q96 75 99 110q-51 11 -85 53t-34 97z" />
    <glyph glyph-name="u.1" horiz-adv-x="1155" 
d="M63 461v604h359v-553q0 -78 45.5 -131t112.5 -53q66 0 110.5 53t44.5 131v553h357v-604q0 -204 -148 -346q-149 -140 -366 -140q-218 0 -367 140q-148 142 -148 346z" />
    <glyph glyph-name="uacute.1" horiz-adv-x="1155" 
d="M63 461v604h359v-553q0 -78 45.5 -131t112.5 -53q66 0 110.5 53t44.5 131v553h357v-604q0 -204 -148 -346q-149 -140 -366 -140q-218 0 -367 140q-148 142 -148 346zM469 1182l-107 176l447 284l147 -256z" />
    <glyph glyph-name="ubreve.1" horiz-adv-x="1155" 
d="M63 461v604h359v-553q0 -78 45.5 -131t112.5 -53q66 0 110.5 53t44.5 131v553h357v-604q0 -204 -148 -346q-149 -140 -366 -140q-218 0 -367 140q-148 142 -148 346zM225 1516h230q0 -57 33.5 -95.5t84.5 -38.5t83 38t32 96h230q0 -145 -99 -244q-98 -98 -248 -98
q-149 0 -247 98q-99 99 -99 244z" />
    <glyph glyph-name="ucircumflex.1" horiz-adv-x="1155" 
d="M63 461v604h359v-553q0 -78 45.5 -131t112.5 -53q66 0 110.5 53t44.5 131v553h357v-604q0 -204 -148 -346q-149 -140 -366 -140q-218 0 -367 140q-148 142 -148 346zM578 1329l-285 -164l-115 174l393 285h15l391 -285l-113 -172z" />
    <glyph glyph-name="udieresis.1" horiz-adv-x="1155" 
d="M63 461v604h359v-553q0 -78 45.5 -131t112.5 -53q66 0 110.5 53t44.5 131v553h357v-604q0 -204 -148 -346q-149 -140 -366 -140q-218 0 -367 140q-148 142 -148 346zM238 1223q-50 49 -50 122t50 123t123 50t122 -50t49 -123t-49 -122t-122 -49t-123 49zM795 1518
q74 0 124 -49.5t50 -122.5t-50 -122.5t-124 -49.5q-72 0 -121 49.5t-49 122.5t49 122.5t121 49.5z" />
    <glyph glyph-name="ugrave.1" horiz-adv-x="1155" 
d="M63 461v604h359v-553q0 -78 45.5 -131t112.5 -53q66 0 110.5 53t44.5 131v553h357v-604q0 -204 -148 -346q-149 -140 -366 -140q-218 0 -367 140q-148 142 -148 346zM682 1182l-487 204l147 256l446 -284z" />
    <glyph glyph-name="uhungarumlaut.1" horiz-adv-x="1155" 
d="M63 461v604h359v-553q0 -78 45.5 -131t112.5 -53q66 0 110.5 53t44.5 131v553h357v-604q0 -204 -148 -346q-149 -140 -366 -140q-218 0 -367 140q-148 142 -148 346zM367 1167l-162 129l293 381l225 -190zM811 1167l-160 129l293 381l225 -190z" />
    <glyph glyph-name="umacron.1" horiz-adv-x="1155" 
d="M63 461v604h359v-553q0 -78 45.5 -131t112.5 -53q66 0 110.5 53t44.5 131v553h357v-604q0 -204 -148 -346q-149 -140 -366 -140q-218 0 -367 140q-148 142 -148 346zM899 1233h-645v248h645v-248z" />
    <glyph glyph-name="uogonek.1" horiz-adv-x="1155" 
d="M63 461v604h359v-553q0 -78 45.5 -131t112.5 -53q66 0 110.5 53t44.5 131v553h357v-604q0 -176 -115 -309q-114 -132 -293 -166q-106 -106 -106 -181q0 -34 22.5 -52.5t58.5 -18.5q28 0 55 10t40 23l14 10l82 -113l-39 -35q-15 -15 -96 -53q-75 -35 -144 -35
q-97 0 -161 58.5t-64 148.5q0 113 105 242q-175 41 -281 168q-107 131 -107 303z" />
    <glyph glyph-name="uring.1" horiz-adv-x="1155" 
d="M63 461v604h359v-553q0 -78 45.5 -131t112.5 -53q66 0 110.5 53t44.5 131v553h357v-604q0 -204 -148 -346q-149 -140 -366 -140q-218 0 -367 140q-148 142 -148 346zM319 1432q0 106 76 182t183 76q106 0 182 -76t76 -182q0 -107 -76 -183q-75 -75 -182 -75t-183 73
q-76 76 -76 185zM535 1475q-17 -17 -17 -43.5t17 -45.5q17 -17 43 -17t43 17t19 37t-8.5 35t-26 25.5t-35.5 8.5t-35 -17z" />
    <glyph glyph-name="utilde.1" horiz-adv-x="1155" 
d="M63 461v604h359v-553q0 -78 45.5 -131t112.5 -53q66 0 110.5 53t44.5 131v553h357v-604q0 -204 -148 -346q-149 -140 -366 -140q-218 0 -367 140q-148 142 -148 346zM414 1219h-213q0 114 75 198q77 86 187 86q69 0 131 -45q64 -43 84 -43q25 0 44 22.5t19 53.5h213
q0 -122 -75 -203q-76 -82 -183 -82q-69 0 -133 43q-62 45 -84 45q-27 0 -46 -21.5t-19 -53.5z" />
    <glyph glyph-name="y.1" horiz-adv-x="1144" 
d="M242 -461l157 459l-393 1067h369l192 -584l203 584h369l-566 -1526h-331z" />
    <glyph glyph-name="yacute.1" horiz-adv-x="1144" 
d="M242 -461l157 459l-393 1067h369l192 -584l203 584h369l-566 -1526h-331zM950 1386l-487 -204l-107 176l447 284z" />
    <glyph glyph-name="ycircumflex.1" horiz-adv-x="1144" 
d="M242 -461l157 459l-393 1067h369l192 -584l203 584h369l-566 -1526h-331zM858 1167l-285 162l-286 -164l-113 174l391 285h15l393 -285z" />
    <glyph glyph-name="ydieresis.1" horiz-adv-x="1144" 
d="M242 -461l157 459l-393 1067h369l192 -584l203 584h369l-566 -1526h-331zM231 1223q-49 49 -49 122t49 123t123 50t123 -50t49 -123t-49 -122t-123 -49t-123 49zM668 1223q-50 49 -50 122t50 123t123 50t122 -50t49 -123t-49 -122t-122 -49t-123 49z" />
    <glyph glyph-name="ygrave.1" horiz-adv-x="1144" 
d="M242 -461l157 459l-393 1067h369l192 -584l203 584h369l-566 -1526h-331zM782 1358l-106 -176l-486 204l146 256z" />
    <glyph glyph-name="afii10085.1" horiz-adv-x="1144" 
d="M242 -461l157 459l-393 1067h369l192 -584l203 584h369l-566 -1526h-331z" />
    <glyph glyph-name="afii10110.1" horiz-adv-x="1144" 
d="M242 -461l157 459l-393 1067h369l192 -584l203 584h369l-566 -1526h-331zM203 1513h248q0 -60 34 -99.5t88 -39.5q51 0 86 39.5t35 99.5h248q0 -164 -106 -270q-103 -106 -263 -106q-158 0 -264 106t-106 270z" />
    <glyph glyph-name="g.1" 
d="M526 -25q-208 0 -350 160q-139 160 -139 397q0 238 139 398q142 160 350 160q143 0 265 -84v59h358v-1049q0 -210 -158 -356q-157 -145 -389 -145q-99 0 -205 34l117 308q41 -13 82 -13q82 0 138.5 47.5t56.5 118.5v49q-122 -84 -265 -84zM598 737q-78 0 -132 -59.5
t-54 -147.5q0 -85 54 -143.5t132 -58.5t133 58.5t55 143.5q0 88 -54 147.5t-134 59.5z" />
    <glyph glyph-name="gbreve.1" 
d="M526 1090q143 0 265 -84v59h358v-1049q0 -210 -158 -356q-157 -145 -389 -145q-99 0 -205 34l117 308q41 -13 82 -13q82 0 138.5 47.5t56.5 118.5v49q-122 -84 -265 -84q-208 0 -350 160q-139 160 -139 397q0 238 139 398q142 160 350 160zM256 1516h229q0 -57 33 -95.5
t84 -38.5t83 38t32 96h229q0 -146 -98 -244t-248 -98q-148 0 -246 98t-98 244zM598 737q-78 0 -132 -59.5t-54 -147.5q0 -85 54 -143.5t132 -58.5t133 58.5t55 143.5q0 88 -54 147.5t-134 59.5z" />
    <glyph glyph-name="gcircumflex.1" 
d="M526 -25q-208 0 -350 160q-139 160 -139 397q0 238 139 398q142 160 350 160q143 0 265 -84v59h358v-1049q0 -210 -158 -356q-157 -145 -389 -145q-99 0 -205 34l117 308q41 -13 82 -13q82 0 138.5 47.5t56.5 118.5v49q-122 -84 -265 -84zM324 1165l-115 174l393 285h12
l394 -285l-113 -172l-287 162zM598 737q-78 0 -132 -59.5t-54 -147.5q0 -85 54 -143.5t132 -58.5t133 58.5t55 143.5q0 88 -54 147.5t-134 59.5z" />
    <glyph glyph-name="gcommaaccent.1" 
d="M526 1090q143 0 265 -84v59h358v-1049q0 -210 -158 -356q-157 -145 -389 -145q-99 0 -205 34l117 308q41 -13 82 -13q82 0 138.5 47.5t56.5 118.5v49q-122 -84 -265 -84q-208 0 -350 160q-139 160 -139 397q0 238 139 398q142 160 350 160zM412 530q0 -85 54 -143.5
t132 -58.5t133 58.5t55 143.5q0 88 -54 147.5t-134 59.5q-78 0 -132 -59.5t-54 -147.5zM432 1360q0 50 22 99t50.5 82t62.5 62t52 40.5t26 15.5l80 -80q-97 -72 -100 -111q52 -11 85 -51.5t33 -95.5q0 -62 -42 -103.5t-105 -41.5q-71 0 -117.5 52.5t-46.5 131.5z" />
    <glyph glyph-name="gdotaccent.1" 
d="M526 -25q-208 0 -350 160q-139 160 -139 397q0 238 139 398q142 160 350 160q143 0 265 -84v59h358v-1049q0 -210 -158 -356q-157 -145 -389 -145q-99 0 -205 34l117 308q41 -13 82 -13q82 0 138.5 47.5t56.5 118.5v49q-122 -84 -265 -84zM412 530q0 -85 54 -143.5
t132 -58.5t133 58.5t55 143.5q0 88 -54 147.5t-134 59.5q-78 0 -132 -59.5t-54 -147.5zM606 1174q-79 0 -132.5 54t-53.5 134q0 82 53 136t133 54q82 0 135.5 -54t53.5 -136q0 -80 -54 -134t-135 -54z" />
    <glyph glyph-name="t.1" horiz-adv-x="768" 
d="M14 754v200l297 314h201v-203h217v-311h-217v-330q0 -41 29 -68.5t73 -27.5h117v-328h-194q-163 0 -273 98t-110 244v412h-140z" />
    <glyph glyph-name="tbar.1" horiz-adv-x="768" 
d="M154 754h-140v200l297 314h201v-203h217v-311h-217v-103h156v-198h-156v-29q0 -41 29 -68.5t73 -27.5h117v-328h-194q-163 0 -273 98t-110 244v111h-97v198h97v103z" />
    <glyph glyph-name="tcaron.1" horiz-adv-x="894" 
d="M14 754v200l297 314h201v-203h217v-311h-217v-330q0 -41 29 -68.5t73 -27.5h117v-328h-194q-163 0 -273 98t-110 244v412h-140zM874 1397q0 -50 -21.5 -99t-50 -82t-62.5 -62t-52.5 -40.5t-25.5 -15.5l-80 80q98 73 98 110q-50 11 -83.5 52t-33.5 96q0 62 42.5 103.5
t105.5 41.5q71 0 117 -54t46 -130z" />
    <glyph glyph-name="tcommaaccent.1" horiz-adv-x="768" 
d="M14 754v200l297 314h201v-203h217v-311h-217v-330q0 -41 29 -68.5t73 -27.5h117v-328h-194q-163 0 -273 98t-110 244v412h-140zM602 -264q0 -50 -22 -99t-50.5 -82t-62.5 -62t-52 -40.5t-26 -15.5l-78 80q96 75 99 110q-51 11 -85 53t-34 97q0 60 42 101.5t105 41.5
q71 0 117.5 -52.5t46.5 -131.5z" />
    <glyph glyph-name="uni021B.1" horiz-adv-x="768" 
d="M14 754v200l297 314h201v-203h217v-311h-217v-330q0 -41 29 -68.5t73 -27.5h117v-328h-194q-163 0 -273 98t-110 244v412h-140zM602 -264q0 -50 -22 -99t-50.5 -82t-62.5 -62t-52 -40.5t-26 -15.5l-78 80q96 75 99 110q-51 11 -85 53t-34 97q0 60 42 101.5t105 41.5
q71 0 117.5 -52.5t46.5 -131.5z" />
    </font>
</defs>
</svg>
