<?xml version="1.0" standalone="no"?>
<!DOCTYPE svg PUBLIC "-//W3C//DTD SVG 1.1//EN" "http://www.w3.org/Graphics/SVG/1.1/DTD/svg11.dtd" >
<svg xmlns="http://www.w3.org/2000/svg" xmlns:xlink="http://www.w3.org/1999/xlink" version="1.1">
<metadata>
Created by FontForge 20170731 at Fri Nov  6 18:23:29 2020
 By Aleksey,,,
Copyright (c) 2019 by Oleh Lishchuk. All rights reserved. |DCNT
</metadata>
<defs>
<font id="MazzardH-Medium" horiz-adv-x="1228" >
  <font-face 
    font-family="Mazzard H Medium"
    font-weight="500"
    font-stretch="semi-condensed"
    units-per-em="2048"
    panose-1="0 0 0 0 0 0 0 0 0 0"
    ascent="1546"
    descent="-502"
    x-height="1065"
    cap-height="1434"
    bbox="-229 -520 2410 2044"
    underline-thickness="102"
    underline-position="-358"
    unicode-range="U+000D-FB04"
  />
<missing-glyph horiz-adv-x="681" 
 />
    <glyph glyph-name="f_f" unicode="ff" horiz-adv-x="1351" 
d="M197 879h-170v186h170v145q0 141 98 232q98 94 242 94h143v-205h-127q-61 0 -102 -43t-41 -106v-117h432v145q0 141 98 232q98 94 242 94h143v-205h-127q-61 0 -102 -43t-41 -106v-117h270v-186h-270v-879h-213v879h-432v-879h-213v879z" />
    <glyph glyph-name="fi" unicode="fi" horiz-adv-x="1173" 
d="M410 1182v-117h270v-186h-270v-879h-213v879h-170v186h170v145q0 141 98 232q98 94 242 94h143v-205h-127q-61 0 -102 -43t-41 -106zM1047 0h-213v1065h213v-1065zM840 1223q-38 41 -38 100t38 100q41 41 100 41t100 -41t41 -100t-41 -100t-100 -41t-100 41z" />
    <glyph glyph-name="fl" unicode="fl" horiz-adv-x="1173" 
d="M410 1182v-117h270v-186h-270v-879h-213v879h-170v186h170v145q0 141 98 232q98 94 242 94h143v-205h-127q-61 0 -102 -43t-41 -106zM1047 0h-213v1536h213v-1536z" />
    <glyph glyph-name="f_f_i" unicode="ffi" horiz-adv-x="1818" 
d="M197 0v879h-170v186h170v145q0 141 98 232q98 94 242 94h143v-205h-127q-61 0 -102 -43t-41 -106v-117h432v145q0 141 98 232q98 94 242 94h143v-205h-127q-61 0 -102 -43t-41 -106v-117h637v-1065h-213v879h-424v-879h-213v879h-432v-879h-213zM1585 1464
q61 0 101 -40.5t40 -100.5t-40 -100.5t-101 -40.5q-60 0 -99.5 40.5t-39.5 100.5t39.5 100.5t99.5 40.5z" />
    <glyph glyph-name="f_f_l" unicode="ffl" horiz-adv-x="1818" 
d="M197 0v879h-170v186h170v145q0 141 98 232q98 94 242 94h143v-205h-127q-61 0 -102 -43t-41 -106v-117h432v145q0 141 98 232q98 94 242 94h143v-205h-127q-61 0 -102 -43t-41 -106v-117h270v-186h-270v-879h-213v879h-432v-879h-213zM1692 1536v-1536h-213v1536h213z
" />
    <glyph glyph-name="afii10104_afii10104" unicode="&#x457;&#x457;" horiz-adv-x="935" 
d="M340 0h-213v1065h213v-1065zM45 1475q56 0 94.5 -38.5t38.5 -95.5t-38.5 -95t-94.5 -38q-59 0 -97 38t-38 95q0 58 38 96t97 38zM809 0h-213v1065h213v-1065zM373 1245q-38 38 -38 96t38 95q38 38 96 38t96 -38q38 -37 38 -95t-38 -96q-38 -37 -96 -37t-96 37zM795 1245
q-37 38 -37 96t37 95q38 38 96 38t96 -38q38 -37 38 -95t-38 -96q-38 -37 -96 -37t-96 37z" />
    <glyph glyph-name=".notdef" horiz-adv-x="681" 
 />
    <glyph glyph-name="uni0000" horiz-adv-x="0" 
 />
    <glyph glyph-name="uni0000" horiz-adv-x="0" 
 />
    <glyph glyph-name="uni000D" unicode="&#xd;" horiz-adv-x="512" 
 />
    <glyph glyph-name="space" unicode=" " horiz-adv-x="544" 
 />
    <glyph glyph-name="exclam" unicode="!" horiz-adv-x="507" 
d="M252 258q62 0 102.5 -41t40.5 -102t-40.5 -101.5t-102.5 -40.5q-60 0 -100.5 40.5t-40.5 101.5t40.5 102t100.5 41zM346 440h-184l-23 994h230z" />
    <glyph glyph-name="quotedbl" unicode="&#x22;" horiz-adv-x="778" 
d="M303 944h-170l-18 490h204zM645 944h-168l-18 490h205z" />
    <glyph glyph-name="numbersign" unicode="#" horiz-adv-x="1439" 
d="M326 373h-281v178h313l58 332h-285l2 178h316l65 373h180l-65 -373h303l65 373h183l-66 -373h283v-178h-314l-59 -332h285v-178h-316l-65 -373h-183l66 373h-303l-66 -373h-182zM598 883l-59 -332h303l59 332h-303z" />
    <glyph glyph-name="dollar" unicode="$" horiz-adv-x="1259" 
d="M549 -262v242q-175 20 -297.5 111.5t-159.5 223.5l227 72q19 -82 108 -137t214 -55q126 0 210.5 56.5t84.5 145.5q0 59 -47 103q-40 40 -83 59t-130 43q-260 75 -344 119q-201 109 -201 317q0 170 113 283q114 114 299 135v240h162v-242q156 -20 265.5 -105t145.5 -208
l-227 -68q-19 71 -94.5 118.5t-176.5 47.5q-111 0 -184.5 -52.5t-73.5 -131.5q-12 -68 105 -140q20 -13 80 -32q11 -4 43 -15t45 -14l108 -31q94 -25 149.5 -46.5t125.5 -63.5q151 -91 151 -297q0 -180 -127 -301q-126 -120 -329 -138v-239h-162z" />
    <glyph glyph-name="percent" unicode="%" horiz-adv-x="1677" 
d="M334 0l-109 90l1121 1344l110 -95zM170 852q-102 102 -102 254q0 150 102 252t254 102q150 0 252 -102t102 -252q0 -152 -102 -254q-100 -100 -252 -100q-154 0 -254 100zM424 1272q-71 0 -118.5 -48t-47.5 -118q0 -69 48.5 -116.5t117.5 -47.5t116.5 47.5t47.5 116.5
t-47.5 117.5t-116.5 48.5zM1255 682q150 0 252 -102q103 -103 103 -252q0 -151 -103 -254q-101 -101 -252 -101q-153 0 -254 101q-100 100 -100 254q0 149 103 252q102 102 251 102zM1255 162q69 0 116.5 48.5t47.5 117.5t-47.5 117.5t-116.5 48.5t-117 -48.5t-48 -117.5
q0 -70 47 -118t118 -48z" />
    <glyph glyph-name="ampersand" unicode="&#x26;" horiz-adv-x="1439" 
d="M584 -27q-211 0 -353 127q-139 130 -139 316q0 225 254 383q-115 165 -115 313q0 150 103 250q104 98 262 98q159 0 266 -98q109 -95 109 -240q0 -114 -70 -198.5t-219 -178.5l283 -286q57 123 57 282h215q0 -246 -115 -444l291 -297h-311l-121 125q-172 -152 -397 -152z
M829 276l-292 302q-49 49 -54 55q-168 -107 -168 -225q0 -93 78 -157.5t195 -64.5q131 0 241 90zM539 907q119 65 169 110.5t50 102.5q0 54 -45 90.5t-111 36.5q-67 0 -108 -37.5t-41 -99.5q0 -82 86 -203z" />
    <glyph glyph-name="quotesingle" unicode="'" horiz-adv-x="436" 
d="M303 944h-170l-18 490h204z" />
    <glyph glyph-name="parenleft" unicode="(" horiz-adv-x="622" 
d="M369 1602l30 36h197l-35 -43q-21 -27 -74 -127q-57 -104 -95.5 -212t-72.5 -271q-66 -341 -2 -688q38 -182 78 -281q42 -108 89 -197.5t81 -133.5l31 -43h-197l-2 2q-162 186 -245 510q-60 234 -60 487q0 182 31 356t78 291q91 226 168 314z" />
    <glyph glyph-name="parenright" unicode=")" horiz-adv-x="622" 
d="M57 1597l-30 41h198l33 -39q22 -25 74 -116q56 -97 94 -199q39 -102 74 -278q32 -163 32 -365q0 -170 -28.5 -338.5t-69.5 -282.5q-40 -113 -88 -196q-52 -90 -76 -125q-19 -31 -43 -55l-2 -2h-198l32 45q27 35 76 127q48 86 92 204q39 103 74 277q70 338 2 688
q-30 167 -76 281q-84 219 -170 333z" />
    <glyph glyph-name="asterisk" unicode="*" horiz-adv-x="993" 
d="M438 950l-221 -176l-102 176l264 103l-264 102l102 176l221 -178l-43 281h203l-43 -281l221 178l103 -176l-265 -102l265 -103l-103 -176l-221 176l43 -278h-203z" />
    <glyph glyph-name="plus" unicode="+" 
d="M516 629h-387v194h387v387h197v-387h387v-194h-387v-387h-197v387z" />
    <glyph glyph-name="comma" unicode="," horiz-adv-x="462" 
d="M383 59q0 -28 -5 -55.5t-12.5 -50t-20.5 -45.5t-24.5 -40.5t-28 -36t-28 -30.5t-29 -26t-25.5 -20.5t-22 -17t-16 -11.5l-8 -5l-70 72l31 33q24 28 47 70q31 48 31 77q-51 8 -85 49.5t-34 96.5q0 60 39.5 98.5t101.5 38.5q69 0 113.5 -55t44.5 -142z" />
    <glyph glyph-name="hyphen" unicode="-" horiz-adv-x="819" 
d="M129 434v197h561v-197h-561z" />
    <glyph glyph-name="period" unicode="." horiz-adv-x="450" 
d="M123 12q-38 41 -38 102.5t38 102.5q41 41 102.5 41t102.5 -41t41 -102.5t-41 -102.5q-41 -38 -102.5 -38t-102.5 38z" />
    <glyph glyph-name="slash" unicode="/" horiz-adv-x="1126" 
d="M197 -358h-197l930 1994h196z" />
    <glyph glyph-name="zero" unicode="0" horiz-adv-x="1304" 
d="M104 483v467q0 221 156 365q157 145 393 145q233 0 389 -147q158 -146 158 -363v-467q0 -215 -158 -364q-158 -146 -389 -146q-235 0 -393 146q-156 144 -156 364zM326 954v-473q0 -126 94 -211q96 -84 233 -84q139 0 232 84q94 85 94 211v473q0 127 -94 209
q-93 84 -232 84q-137 0 -233 -84q-94 -82 -94 -209z" />
    <glyph glyph-name="one" unicode="1" horiz-adv-x="917" 
d="M461 1157l-268 -137l-97 197l428 217h158v-1434h-221v1157z" />
    <glyph glyph-name="two" unicode="2" horiz-adv-x="1189" 
d="M844 1020q0 94 -78 160q-76 67 -186 67q-101 0 -180 -59.5t-121 -163.5l-207 98q68 156 203.5 247t304.5 91q206 0 350 -129q145 -127 145 -305q0 -113 -72.5 -228.5t-232.5 -267.5l-332 -317h652v-213h-994v166l533 514q215 209 215 340z" />
    <glyph glyph-name="three" unicode="3" horiz-adv-x="1202" 
d="M846 1044q0 87 -79 145t-200 58q-98 0 -172.5 -39t-107.5 -106l-201 98q62 122 189 191t292 69q220 0 363 -119q145 -118 145 -288q0 -195 -178 -312q100 -56 157.5 -146.5t57.5 -195.5q0 -179 -154 -303q-153 -123 -380 -123q-181 0 -318.5 82.5t-193.5 220.5l215 76
q30 -76 109.5 -121t187.5 -45q131 0 217 64t86 162q0 93 -85 156t-210 63h-109v205h76q126 0 209 59q84 60 84 149z" />
    <glyph glyph-name="four" unicode="4" horiz-adv-x="1329" 
d="M846 0v285h-768v213l778 936h211v-936h195v-213h-195v-285h-221zM846 1102l-502 -604h502v604z" />
    <glyph glyph-name="five" unicode="5" horiz-adv-x="1234" 
d="M604 -27q-182 0 -322 92.5t-200 249.5l221 62q39 -88 119 -139.5t182 -51.5q131 0 219 76q90 78 90 191q0 118 -96 196t-237 78h-392l72 707h764v-205h-580l-28 -297h172q239 0 397 -137q160 -139 160 -342q0 -204 -156 -342q-153 -138 -385 -138z" />
    <glyph glyph-name="six" unicode="6" horiz-adv-x="1247" 
d="M1137 1196l-207 -100q-38 69 -113.5 110t-167.5 41q-135 0 -231 -84q-92 -83 -92 -209v-135q132 99 311 99q227 0 377 -138q153 -135 153 -338q0 -198 -153 -333q-151 -136 -377 -136q-227 0 -381 136q-152 140 -152 337v504q0 221 156 365q157 145 393 145
q158 0 286 -70.5t198 -193.5zM637 705q-129 0 -215 -74t-86 -182q0 -112 86 -189q86 -74 215 -74q126 0 213 72q88 73 88 182q0 113 -88 189q-85 76 -213 76z" />
    <glyph glyph-name="seven" unicode="7" horiz-adv-x="1085" 
d="M264 0l520 1229h-739v205h975v-215l-514 -1219h-242z" />
    <glyph glyph-name="eight" unicode="8" horiz-adv-x="1243" 
d="M92 395q0 110 59.5 203t165.5 150q-192 116 -192 317q0 167 141 281q144 114 357 114q211 0 352 -114q143 -113 143 -283q0 -96 -50.5 -178.5t-141.5 -136.5q106 -57 166.5 -150t60.5 -203q0 -179 -152 -301q-151 -121 -378 -121q-228 0 -379 121q-152 122 -152 301z
M322 416q0 -99 85.5 -164.5t215.5 -65.5q129 0 214 65t85 163q0 96 -86 161q-84 66 -213 66q-128 0 -215 -66q-86 -65 -86 -159zM356 1049q0 -88 76 -145.5t191 -57.5t190.5 57.5t75.5 145.5q0 81 -78 141q-75 57 -188 57q-115 0 -191 -56.5t-76 -141.5z" />
    <glyph glyph-name="nine" unicode="9" horiz-adv-x="1249" 
d="M96 248l205 100q42 -75 120 -118.5t175 -43.5q144 0 238 82q96 84 96 209v119q-125 -107 -305 -107q-223 0 -375 140q-152 143 -152 348q0 204 152 344q151 139 375 139q223 0 374 -139q152 -140 152 -342v-500q0 -217 -160 -362q-156 -144 -395 -144q-165 0 -298 73.5
t-202 201.5zM625 702q124 0 211 78q86 80 86 195q0 117 -86 194q-84 78 -211 78q-126 0 -213 -78q-84 -78 -84 -190q0 -118 84 -199q87 -78 213 -78z" />
    <glyph glyph-name="colon" unicode=":" horiz-adv-x="450" 
d="M123 12q-38 41 -38 102.5t38 102.5q41 41 102.5 41t102.5 -41t41 -102.5t-41 -102.5q-41 -38 -102.5 -38t-102.5 38zM123 848q-38 41 -38 103t38 100q41 41 102.5 41t102.5 -41q41 -38 41 -100t-41 -103t-102.5 -41t-102.5 41z" />
    <glyph glyph-name="semicolon" unicode=";" horiz-adv-x="450" 
d="M123 848q-38 41 -38 103t38 100q41 41 102.5 41t102.5 -41q41 -38 41 -100t-41 -103t-102.5 -41t-102.5 41zM383 59q0 -28 -5 -55.5t-12.5 -50t-20.5 -45.5t-24.5 -40.5t-28 -36t-28 -30.5t-29 -26t-25.5 -20.5t-22 -17t-16 -11.5l-8 -5l-70 72l31 33q24 28 47 70
q31 48 31 77q-51 8 -85 49.5t-34 96.5q0 60 39.5 98.5t101.5 38.5q69 0 113.5 -55t44.5 -142z" />
    <glyph glyph-name="less" unicode="&#x3c;" 
d="M1079 178l-970 451v176l970 455v-216l-698 -327l698 -326v-213z" />
    <glyph glyph-name="equal" unicode="=" 
d="M129 856v197h971v-197h-971zM129 381v197h971v-197h-971z" />
    <glyph glyph-name="greater" unicode="&#x3e;" 
d="M1120 805v-176l-970 -451v213l700 326l-700 327v216z" />
    <glyph glyph-name="question" unicode="?" horiz-adv-x="1155" 
d="M838 1026q0 93 -83.5 157t-205.5 64q-103 0 -180 -47t-103 -125l-221 62q47 144 182 233q137 90 318 90q220 0 366 -125q150 -126 150 -311q0 -74 -27.5 -140t-66 -109.5t-90.5 -81.5t-89 -57t-75 -34l-41 -14l-10 -148h-185l-24 271q55 14 133 49q71 31 116 63
q56 35 96 91t40 112zM465 12q-41 41 -41 102.5t41 102.5t103 41t100 -41q41 -41 41 -102.5t-41 -102.5q-38 -38 -100 -38t-103 38z" />
    <glyph glyph-name="at" unicode="@" horiz-adv-x="2019" 
d="M1010 1460q391 0 659 -256q270 -255 270 -614q0 -226 -106 -367q-107 -143 -272 -143q-87 0 -158.5 41.5t-110.5 111.5q-126 -153 -323 -153q-181 0 -301 129q-121 133 -121 323q0 192 121 322q119 131 301 131q167 0 286 -113v91h172v-586q0 -57 40.5 -96t97.5 -39
q91 0 147.5 94t56.5 242q0 292 -221 501q-217 211 -540 211q-324 0 -541 -217t-217 -541q0 -323 217 -540t537 -217q196 0 333 82l56 -154q-177 -98 -398 -98q-390 0 -653 266q-262 265 -262 661q0 399 266 662q266 266 664 266zM989 252q114 0 191 80q75 81 75 200
q0 121 -75 199q-76 82 -191 82q-112 0 -188 -82q-76 -79 -76 -199q0 -118 76 -200q77 -80 188 -80z" />
    <glyph glyph-name="A" unicode="A" horiz-adv-x="1482" 
d="M268 0h-241l620 1434h187l622 -1434h-242l-127 295h-692zM997 508l-256 600l-256 -600h512z" />
    <glyph glyph-name="B" unicode="B" horiz-adv-x="1406" 
d="M866 0h-727v1434h686q182 0 305 -111q123 -108 123 -272q0 -180 -151 -295q101 -55 158 -146.5t57 -203.5q0 -174 -129 -291q-130 -115 -322 -115zM866 635h-497v-422h497q91 0 152 60t61 151t-61 151t-152 60zM825 1221h-456v-373h456q82 0 135.5 53t53.5 133t-54 133.5
t-135 53.5z" />
    <glyph glyph-name="C" unicode="C" horiz-adv-x="1576" 
d="M836 1460q215 0 390 -104t269 -285l-223 -82q-67 117 -181.5 183.5t-254.5 66.5q-218 0 -361 -149q-145 -151 -145 -373t145 -373q143 -149 361 -149q140 0 254.5 66.5t181.5 182.5l223 -82q-94 -181 -269 -285t-390 -104q-318 0 -531 213t-213 531q0 317 213 530
t531 213z" />
    <glyph glyph-name="D" unicode="D" horiz-adv-x="1548" 
d="M713 0h-574v1434h574q317 0 530 -207q215 -206 215 -510t-215 -510q-213 -207 -530 -207zM713 1221h-344v-1008h344q215 0 360 145q146 146 146 359q0 212 -146 358t-360 146z" />
    <glyph glyph-name="E" unicode="E" horiz-adv-x="1269" 
d="M139 1434h1045v-213h-815v-390h706v-213h-706v-405h825v-213h-1055v1434z" />
    <glyph glyph-name="F" unicode="F" horiz-adv-x="1251" 
d="M139 1434h1045v-213h-815v-385h706v-213h-706v-623h-230v1434z" />
    <glyph glyph-name="G" unicode="G" horiz-adv-x="1660" 
d="M848 1460q220 0 397 -104t271 -285l-224 -82q-66 116 -184 183t-260 67q-222 0 -371 -149q-147 -150 -147 -373q0 -224 143 -373t352 -149q173 0 308 102q133 100 174 266h-508v213h768q4 -54 4 -65q-3 -315 -215 -527q-211 -211 -525 -211q-315 0 -528 213
q-211 211 -211 531q0 318 215 530q219 213 541 213z" />
    <glyph glyph-name="H" unicode="H" horiz-adv-x="1515" 
d="M369 0h-230v1434h230v-603h776v603h231v-1434h-231v618h-776v-618z" />
    <glyph glyph-name="I" unicode="I" horiz-adv-x="507" 
d="M369 0h-230v1434h230v-1434z" />
    <glyph glyph-name="J" unicode="J" horiz-adv-x="1204" 
d="M1081 1434v-916q0 -235 -161 -389q-159 -156 -402 -156q-153 0 -278 66t-199 182l190 123q43 -74 120.5 -116t170.5 -42q145 0 240 95q98 94 98 237v916h221z" />
    <glyph glyph-name="K" unicode="K" horiz-adv-x="1329" 
d="M139 0v1434h230v-686l600 686h293l-613 -701l654 -733h-293l-641 719v-719h-230z" />
    <glyph glyph-name="L" unicode="L" horiz-adv-x="1173" 
d="M139 1434h230v-1221h749v-213h-979v1434z" />
    <glyph glyph-name="M" unicode="M" horiz-adv-x="1826" 
d="M369 0h-230v1434h230l544 -957l543 957h232v-1434h-232v997l-467 -827h-151l-469 827v-997z" />
    <glyph glyph-name="N" unicode="N" horiz-adv-x="1523" 
d="M360 0h-221v1434h203l821 -1039v1039h221v-1434h-202l-822 1038v-1038z" />
    <glyph glyph-name="O" unicode="O" horiz-adv-x="1671" 
d="M305 186q-213 213 -213 531q0 317 213 530t531 213q317 0 530 -213q215 -212 215 -530q0 -319 -215 -531q-213 -213 -530 -213q-318 0 -531 213zM836 195q217 0 360 149q145 151 145 373t-145 373q-143 149 -360 149q-218 0 -361 -149q-145 -151 -145 -373t145 -373
q143 -149 361 -149z" />
    <glyph glyph-name="P" unicode="P" horiz-adv-x="1341" 
d="M369 528v-528h-230v1434h635q204 0 342 -129q139 -130 139 -324t-139 -324q-138 -129 -342 -129h-405zM774 1221h-405v-480h405q103 0 172.5 68.5t69.5 171.5t-69.5 171.5t-172.5 68.5z" />
    <glyph glyph-name="Q" unicode="Q" horiz-adv-x="1671" 
d="M836 -27q-318 0 -531 213t-213 531q0 317 213 530t531 213q317 0 530 -213q215 -212 215 -530q0 -285 -172 -484l180 -180l-155 -155l-191 190q-180 -115 -407 -115zM836 1239q-218 0 -361 -149q-145 -151 -145 -373t145 -373q143 -149 361 -149q132 0 241 59l-231 231
l155 156l242 -242q98 137 98 318q0 222 -145 373q-143 149 -360 149z" />
    <glyph glyph-name="R" unicode="R" horiz-adv-x="1386" 
d="M139 1434h656q204 0 342 -129q139 -130 139 -324q0 -140 -77.5 -252.5t-207.5 -163.5l340 -565h-258l-319 528h-385v-528h-230v1434zM795 1221h-426v-480h426q103 0 172 68.5t69 171.5t-69 171.5t-172 68.5z" />
    <glyph glyph-name="S" unicode="S" horiz-adv-x="1259" 
d="M1116 1141l-227 -68q-19 71 -94.5 118.5t-176.5 47.5q-111 0 -184.5 -52.5t-73.5 -131.5q-12 -68 105 -140q20 -13 80 -32q11 -4 43 -15t45 -14l108 -31q94 -25 149.5 -46.5t125.5 -63.5q151 -91 151 -297q0 -199 -147 -322q-148 -121 -379 -121q-207 0 -358 97
q-148 100 -191 245l227 72q19 -82 108 -137t214 -55q126 0 210.5 56.5t84.5 145.5q0 59 -47 103q-40 40 -83 59t-130 43q-260 75 -344 119q-201 109 -201 317q0 188 135 305t348 117q187 0 326 -92q135 -86 176 -227z" />
    <glyph glyph-name="T" unicode="T" horiz-adv-x="1347" 
d="M559 1221h-506v213h1241v-213h-506v-1221h-229v1221z" />
    <glyph glyph-name="U" unicode="U" horiz-adv-x="1474" 
d="M1124 573v861h232v-861q0 -256 -178 -428q-175 -172 -441 -172q-264 0 -442 172q-176 173 -176 428v861h229v-861q0 -165 111 -276q114 -111 278 -111q166 0 277 111q110 110 110 276z" />
    <glyph glyph-name="V" unicode="V" horiz-adv-x="1462" 
d="M823 0h-186l-610 1434h241l463 -1104l463 1104h242z" />
    <glyph glyph-name="W" unicode="W" horiz-adv-x="2068" 
d="M702 0h-186l-489 1434h235l344 -1067l336 1067h186l336 -1067l342 1067h236l-490 -1434h-186l-332 1036z" />
    <glyph glyph-name="X" unicode="X" horiz-adv-x="1406" 
d="M565 731l-518 703h275l383 -516l380 516h275l-518 -703l538 -731h-274l-401 545l-404 -545h-274z" />
    <glyph glyph-name="Y" unicode="Y" horiz-adv-x="1390" 
d="M578 582l-551 852h264l399 -633l408 633h264l-555 -842v-592h-229v582z" />
    <glyph glyph-name="Z" unicode="Z" horiz-adv-x="1304" 
d="M1231 213v-213h-1145v176l817 1045h-811v213h1133v-177l-817 -1044h823z" />
    <glyph glyph-name="bracketleft" unicode="[" horiz-adv-x="610" 
d="M311 -180h273v-178h-469v1996h469v-178h-273v-1640z" />
    <glyph glyph-name="backslash" unicode="\" horiz-adv-x="1126" 
d="M197 1636l929 -1994h-196l-930 1994h197z" />
    <glyph glyph-name="bracketright" unicode="]" horiz-adv-x="610" 
d="M496 -358h-469v178h272v1640h-272v178h469v-1996z" />
    <glyph glyph-name="asciicircum" unicode="^" 
d="M129 823l397 611h176l398 -607h-230l-256 377l-256 -381h-229z" />
    <glyph glyph-name="underscore" unicode="_" horiz-adv-x="544" 
d="M0 -299v197h545v-197h-545z" />
    <glyph glyph-name="grave" unicode="`" horiz-adv-x="684" 
d="M518 1454l-424 191l99 192l397 -252z" />
    <glyph glyph-name="a" unicode="a" horiz-adv-x="1298" 
d="M604 1092q206 0 354 -142v115h213v-1065h-213v115q-148 -142 -354 -142q-224 0 -375 160q-149 158 -149 399q0 242 149 400q151 160 375 160zM627 879q-138 0 -232 -101q-94 -98 -94 -246q0 -146 94 -247q95 -99 232 -99q139 0 233 99q94 101 94 247q0 148 -94 246
q-94 101 -233 101z" />
    <glyph glyph-name="b" unicode="b" horiz-adv-x="1298" 
d="M127 0v1536h213v-586q148 142 354 142q224 0 375 -160q150 -159 150 -400q0 -240 -150 -399q-151 -160 -375 -160q-206 0 -354 142v-115h-213zM670 879q-138 0 -232 -101q-94 -98 -94 -246q0 -146 94 -247q94 -99 232 -99t233 99q94 101 94 247q0 148 -94 246
q-94 101 -233 101z" />
    <glyph glyph-name="c" unicode="c" horiz-adv-x="1216" 
d="M1157 756l-215 -64q-42 87 -121.5 137t-181.5 50q-144 0 -242 -101q-96 -101 -96 -246q0 -143 96 -247q99 -99 242 -99q102 0 181.5 50t121.5 137l215 -64q-63 -155 -202 -245.5t-316 -90.5q-239 0 -399 160t-160 399q0 240 160 400t399 160q177 0 316 -90.5t202 -245.5z
" />
    <glyph glyph-name="d" unicode="d" horiz-adv-x="1298" 
d="M604 1092q206 0 354 -142v586h213v-1536h-213v115q-148 -142 -354 -142q-224 0 -375 160q-149 158 -149 399q0 242 149 400q151 160 375 160zM627 879q-138 0 -232 -101q-94 -98 -94 -246q0 -146 94 -247q95 -99 232 -99q139 0 233 99q94 101 94 247q0 148 -94 246
q-94 101 -233 101z" />
    <glyph glyph-name="e" unicode="e" horiz-adv-x="1249" 
d="M1184 455h-885q25 -125 122 -204t230 -79q180 0 283 133l209 -63q-74 -126 -204 -197.5t-288 -71.5q-242 0 -407 160q-164 159 -164 399q0 239 158 400q160 160 397 160q236 0 393 -160q160 -160 160 -400q0 -7 -4 -77zM301 625h668q-29 119 -122.5 193.5t-217.5 74.5
q-117 0 -208 -74.5t-120 -193.5z" />
    <glyph glyph-name="f" unicode="f" horiz-adv-x="706" 
d="M410 1182v-117h270v-186h-270v-879h-213v879h-170v186h170v145q0 141 98 232q98 94 242 94h143v-205h-127q-61 0 -102 -43t-41 -106z" />
    <glyph glyph-name="g" unicode="g" horiz-adv-x="1298" 
d="M604 1092q206 0 354 -142v115h213v-1028q0 -224 -155 -373q-154 -151 -377 -151q-163 0 -307 84q-140 82 -199 215l215 63q35 -66 113 -107.5t170 -41.5q137 0 233 90q94 88 94 221v78q-148 -142 -354 -142q-224 0 -375 160q-149 158 -149 399q0 242 149 400
q151 160 375 160zM627 879q-138 0 -232 -101q-94 -98 -94 -246q0 -146 94 -247q95 -99 232 -99q139 0 233 99q94 101 94 247q0 148 -94 246q-94 101 -233 101z" />
    <glyph glyph-name="h" unicode="h" horiz-adv-x="1253" 
d="M127 0v1536h213v-627q121 183 356 183q188 0 310 -119t122 -299v-674h-213v612q0 121 -79 197q-80 80 -201 80q-125 0 -211 -80q-84 -81 -84 -199v-610h-213z" />
    <glyph glyph-name="i" unicode="i" horiz-adv-x="466" 
d="M340 0h-213v1065h213v-1065zM133 1223q-38 41 -38 100t38 100q41 41 100.5 41t100.5 -41t41 -100t-41 -100t-100.5 -41t-100.5 41z" />
    <glyph glyph-name="j" unicode="j" horiz-adv-x="481" 
d="M141 1065h213v-1200q0 -141 -98 -232q-98 -94 -242 -94h-90v205h74q61 0 102 43.5t41 106.5v1171zM147 1223q-41 41 -41 100t41 100t100.5 41t100.5 -41t41 -100t-41 -100t-100.5 -41t-100.5 41z" />
    <glyph glyph-name="k" unicode="k" horiz-adv-x="1075" 
d="M127 0v1536h213v-963l401 492h260l-417 -514l463 -551h-263l-444 528v-528h-213z" />
    <glyph glyph-name="l" unicode="l" horiz-adv-x="466" 
d="M340 0h-213v1536h213v-1536z" />
    <glyph glyph-name="m" unicode="m" horiz-adv-x="1918" 
d="M340 0h-213v1065h213v-135q110 162 326 162q111 0 201 -50t145 -139q23 39 59 78q42 42 124.5 76.5t174.5 34.5q182 0 301 -113q121 -115 121 -283v-696h-213v637q0 106 -72 179t-178 73q-111 0 -188 -74q-74 -71 -74 -180v-635h-213v637q0 106 -72 179t-178 73
q-111 0 -188 -74q-76 -70 -76 -180v-635z" />
    <glyph glyph-name="n" unicode="n" horiz-adv-x="1239" 
d="M127 0v1065h213v-156q118 183 350 183q184 0 303 -119q121 -121 121 -299v-674h-213v612q0 119 -78 198t-196 79q-122 0 -205 -80q-82 -79 -82 -199v-610h-213z" />
    <glyph glyph-name="o" unicode="o" horiz-adv-x="1280" 
d="M240 133q-160 160 -160 399q0 240 160 400t399 160t399 -160q162 -158 162 -400q0 -241 -162 -399q-160 -160 -399 -160t-399 160zM639 186q147 0 242 99q98 101 98 247q0 148 -98 246q-94 101 -242 101q-144 0 -242 -101q-96 -101 -96 -246q0 -143 96 -247
q99 -99 242 -99z" />
    <glyph glyph-name="p" unicode="p" horiz-adv-x="1298" 
d="M340 -461h-213v1526h213v-115q148 142 354 142q224 0 375 -160q150 -159 150 -400q0 -240 -150 -399q-151 -160 -375 -160q-206 0 -354 142v-576zM670 879q-138 0 -232 -101q-94 -98 -94 -246q0 -146 94 -247q94 -99 232 -99t233 99q94 101 94 247q0 148 -94 246
q-94 101 -233 101z" />
    <glyph glyph-name="q" unicode="q" horiz-adv-x="1298" 
d="M604 1092q206 0 354 -142v115h213v-1526h-213v576q-148 -142 -354 -142q-224 0 -375 160q-149 158 -149 399q0 242 149 400q151 160 375 160zM627 879q-138 0 -232 -101q-94 -98 -94 -246q0 -146 94 -247q95 -99 232 -99q139 0 233 99q94 101 94 247q0 148 -94 246
q-94 101 -233 101z" />
    <glyph glyph-name="r" unicode="r" horiz-adv-x="755" 
d="M340 1065v-156q121 183 379 183v-238q-37 16 -92 16q-123 0 -205 -79q-82 -76 -82 -197v-594h-213v1065h213z" />
    <glyph glyph-name="s" unicode="s" horiz-adv-x="972" 
d="M883 821l-201 -35q-18 55 -72 87t-137 32q-77 0 -126.5 -30.5t-49.5 -83.5q0 -69 102 -107l240 -82q136 -51 199 -124.5t63 -182.5q0 -154 -112.5 -238t-296.5 -84q-181 0 -293 79.5t-136 217.5l201 31q14 -64 75.5 -102.5t156.5 -38.5q88 0 144 35t56 94q0 77 -129 123
l-237 80q-124 43 -181 110.5t-57 171.5q0 154 109 236t288 82q163 0 267 -72.5t127 -198.5z" />
    <glyph glyph-name="t" unicode="t" horiz-adv-x="741" 
d="M25 879v186h161v211h213v-211h283v-186h-283v-525q0 -63 41.5 -106t102.5 -43h139v-205h-156q-141 0 -241 92q-99 95 -99 234v553h-161z" />
    <glyph glyph-name="u" unicode="u" horiz-adv-x="1239" 
d="M125 393v672h213v-612q0 -118 78 -199q81 -78 196 -78q122 0 205 80q82 79 82 199v610h213v-1065h-213v152q-123 -179 -348 -179q-186 0 -305 119q-121 121 -121 301z" />
    <glyph glyph-name="v" unicode="v" horiz-adv-x="1144" 
d="M473 0l-448 1065h219l329 -793l328 793h219l-448 -1065h-199z" />
    <glyph glyph-name="w" unicode="w" horiz-adv-x="1595" 
d="M567 0h-188l-354 1065h215l231 -735l231 735h193l229 -735l234 735h215l-354 -1065h-191l-229 711z" />
    <glyph glyph-name="x" unicode="x" horiz-adv-x="1124" 
d="M844 0l-281 375l-282 -375h-252l407 547l-387 518h250l264 -348l262 348h252l-389 -518l408 -547h-252z" />
    <glyph glyph-name="y" unicode="y" horiz-adv-x="1103" 
d="M393 -90l47 117l-415 1038h219l303 -774l313 774h219l-501 -1227q-63 -155 -165.5 -227t-262.5 -72h-46v205h46q94 0 151 39t92 127z" />
    <glyph glyph-name="z" unicode="z" horiz-adv-x="1030" 
d="M76 0v162l575 706h-565v197h858v-162l-577 -706h587v-197h-878z" />
    <glyph glyph-name="braceleft" unicode="{" horiz-adv-x="679" 
d="M506 1638h145v-178h-127q-54 0 -89.5 -36.5t-35.5 -90.5v-442q0 -100 -51.5 -164.5t-138.5 -85.5q86 -21 138 -87.5t52 -164.5v-442q0 -54 35.5 -90.5t89.5 -36.5h127v-178h-145q-130 0 -215 88q-86 86 -86 217v442q0 51 -42.5 92.5t-92.5 55.5l-45 14v180q15 3 61 21
q119 54 119 139v442q0 131 86 217q85 88 215 88z" />
    <glyph glyph-name="bar" unicode="|" horiz-adv-x="409" 
d="M295 -358h-180v1996h180v-1996z" />
    <glyph glyph-name="braceright" unicode="}" horiz-adv-x="677" 
d="M27 1460v178h145q132 0 217 -88q86 -86 86 -217v-442q0 -51 42.5 -92.5t92.5 -55.5l45 -12v-180q-15 -3 -63 -23q-48 -18 -82.5 -53.5t-34.5 -85.5v-442q0 -131 -86 -217q-85 -88 -217 -88h-145v178h129q51 0 87 36.5t36 90.5v442q0 100 51.5 165.5t140.5 86.5
q-88 19 -140 84t-52 166v442q0 54 -36 90.5t-87 36.5h-129z" />
    <glyph glyph-name="asciitilde" unicode="~" 
d="M782 553q-49 0 -104 21t-94 46.5t-80.5 46.5t-67.5 21q-49 0 -80.5 -34.5t-31.5 -88.5h-195q3 138 94 226q95 92 221 92q90 0 199 -68q107 -67 150 -67q47 0 79.5 34.5t32.5 85.5h195q-3 -135 -96 -225t-222 -90z" />
    <glyph glyph-name="exclamdown" unicode="&#xa1;" horiz-adv-x="507" 
d="M252 1092q62 0 102.5 -40.5t40.5 -101.5q0 -62 -40.5 -102.5t-102.5 -40.5q-60 0 -100.5 41t-40.5 102t40.5 101.5t100.5 40.5zM139 -369l23 994h184l23 -994h-230z" />
    <glyph glyph-name="cent" unicode="&#xa2;" horiz-adv-x="1216" 
d="M559 -61v225q-211 27 -346 180q-133 154 -133 373t133 373q135 153 346 180v225h162v-225q149 -20 265 -107.5t171 -222.5l-215 -63q-42 87 -121.5 136.5t-181.5 49.5q-145 0 -242 -100q-96 -101 -96 -246q0 -144 96 -248q98 -98 242 -98q102 0 181.5 49.5t121.5 136.5
l215 -63q-55 -135 -171 -222.5t-265 -107.5v-225h-162z" />
    <glyph glyph-name="sterling" unicode="&#xa3;" horiz-adv-x="1202" 
d="M1118 0h-1052v213h170v395h-144v162h144v252q0 185 129 311q133 127 319 127q158 0 291 -92q134 -93 180 -233l-221 -64q-26 76 -96.5 126t-151.5 50q-96 0 -164 -65q-65 -65 -65 -160v-252h383v-162h-383v-395h661v-213z" />
    <glyph glyph-name="currency" unicode="&#xa4;" horiz-adv-x="1200" 
d="M242 240l-127 125l153 153q-53 92 -53 199q0 119 57 205l-155 155l125 125l157 -155q89 53 199 53q115 0 201 -56l159 158l125 -125l-159 -157q57 -80 57 -203q0 -110 -53 -199l153 -153l-125 -125l-151 151q-86 -57 -207 -57q-119 0 -205 57zM598 512q88 0 146.5 58.5
t58.5 146.5q0 87 -59 146t-146 59t-146 -59t-59 -146t59 -146t146 -59z" />
    <glyph glyph-name="yen" unicode="&#xa5;" horiz-adv-x="1390" 
d="M578 586l-551 848h264l399 -631l408 631h264l-555 -842v-25h287v-159h-287v-103h287v-162h-287v-143h-229v143h-287v162h287v103h-287v159h287v19z" />
    <glyph glyph-name="brokenbar" unicode="&#xa6;" horiz-adv-x="409" 
d="M295 1638v-831h-180v831h180zM115 -358v831h180v-831h-180z" />
    <glyph glyph-name="section" unicode="&#xa7;" horiz-adv-x="962" 
d="M489 -385q-161 0 -278 87t-148 228l195 74q19 -94 83 -151.5t151 -57.5q86 0 144 53.5t58 131.5q0 117 -108 167l-260 119q-106 47 -165 133.5t-59 194.5q0 148 105 250q-105 94 -105 250t109 262q110 104 276 104q147 0 256.5 -82t141.5 -213l-193 -71q-19 82 -76.5 134
t-130.5 52q-75 0 -126.5 -53t-51.5 -131q0 -116 80 -154l272 -117q115 -51 178.5 -140t63.5 -198q0 -142 -110 -249q110 -98 110 -248q0 -164 -117 -269q-115 -106 -295 -106zM569 664l-194 81q-26 -11 -47 -55.5t-21 -93.5q0 -116 99 -162l208 -96q80 56 80 149
q0 122 -125 177z" />
    <glyph glyph-name="dieresis" unicode="&#xa8;" horiz-adv-x="890" 
d="M231 1712q56 0 95 -39t39 -96t-39 -95t-95 -38q-60 0 -98.5 38t-38.5 95t39 96t98 39zM565 1481q-38 38 -38 96t38 96t96.5 38t96.5 -38t38 -96t-38 -96q-38 -37 -96.5 -37t-96.5 37z" />
    <glyph glyph-name="copyright" unicode="&#xa9;" horiz-adv-x="1650" 
d="M307 199q-215 215 -215 518t215 518t518 215q304 0 516 -215q215 -215 215 -518t-215 -518q-212 -215 -516 -215q-303 0 -518 215zM184 717q0 -266 187 -453q188 -188 454 -188q265 0 453 188t188 453q0 264 -188 452q-189 189 -453 189q-265 0 -454 -189
q-187 -187 -187 -452zM836 1110q117 0 213.5 -56t146.5 -151l-137 -51q-73 123 -223 123q-109 0 -181.5 -73.5t-72.5 -182.5q0 -112 72.5 -186t181.5 -74q146 0 223 123l137 -52q-50 -97 -146 -152.5t-214 -55.5q-173 0 -285 112q-115 115 -115 283q0 165 115 280
q113 113 285 113z" />
    <glyph glyph-name="ordfeminine" unicode="&#xaa;" horiz-adv-x="892" 
d="M397 1444q145 0 246 -107v97h172v-746h-172v96q-100 -106 -246 -106q-148 0 -250 108q-100 109 -100 275t100 272q102 111 250 111zM223 1063q0 -92 60.5 -155.5t148.5 -63.5t147.5 63.5t59.5 155.5q0 91 -59.5 153t-147.5 62t-148.5 -62t-60.5 -153z" />
    <glyph glyph-name="guillemotleft" unicode="&#xab;" horiz-adv-x="1112" 
d="M459 143l-391 389l391 392l125 -127l-267 -265l267 -264zM895 143l-391 389l391 392l125 -127l-266 -265l266 -264z" />
    <glyph glyph-name="logicalnot" unicode="&#xac;" 
d="M911 326v292h-782v197h971v-489h-189z" />
    <glyph glyph-name="uni00AD" unicode="&#xad;" horiz-adv-x="819" 
d="M129 434v197h561v-197h-561z" />
    <glyph glyph-name="registered" unicode="&#xae;" horiz-adv-x="1650" 
d="M307 199q-215 215 -215 518t215 518t518 215q304 0 516 -215q215 -215 215 -518t-215 -518q-212 -215 -516 -215q-303 0 -518 215zM825 76q265 0 453 188t188 453q0 264 -188 452q-189 189 -453 189q-265 0 -454 -189q-187 -187 -187 -452q0 -266 187 -453
q188 -188 454 -188zM672 332h-142v770h355q115 0 192 -74q78 -72 78 -178q0 -75 -40.5 -136.5t-108.5 -90.5l174 -291h-160l-156 264h-192v-264zM885 971h-213v-244h213q54 0 88.5 34.5t34.5 88.5q0 52 -35 86.5t-88 34.5z" />
    <glyph glyph-name="overscore" unicode="&#xaf;" horiz-adv-x="804" 
d="M711 1503h-617v178h617v-178z" />
    <glyph glyph-name="degree" unicode="&#xb0;" horiz-adv-x="825" 
d="M68 1219q0 145 98 243q101 101 248 101t245 -101q99 -99 99 -243q0 -147 -99 -246t-245 -99t-248 99q-98 98 -98 246zM303 1329q-44 -44 -44 -110.5t44 -110.5t110 -44t109 44q44 44 44 110.5t-44 110.5q-43 44 -109 44t-110 -44z" />
    <glyph glyph-name="plusminus" unicode="&#xb1;" 
d="M516 766h-387v195h387v387h197v-387h387v-195h-387v-330h-197v330zM129 119v196h971v-196h-971z" />
    <glyph glyph-name="twosuperior" unicode="&#xb2;" horiz-adv-x="655" 
d="M453 1300q0 45 -40 79t-94 34q-111 0 -157 -119l-127 64q38 87 114.5 137.5t169.5 50.5q115 0 195 -71t80 -170q0 -122 -168 -271l-164 -155h342v-131h-553v100l289 274q113 107 113 178z" />
    <glyph glyph-name="threesuperior" unicode="&#xb3;" horiz-adv-x="667" 
d="M317 1413q-106 0 -147 -80l-121 43q33 76 107.5 123t169.5 47q117 0 195.5 -67.5t78.5 -167.5q0 -105 -106 -154q124 -55 124 -176q0 -104 -82.5 -173t-207.5 -69q-102 0 -179 47.5t-108 126.5l127 48q14 -41 55.5 -66t98.5 -25q67 0 111 32.5t44 82.5q0 49 -42.5 81
t-108.5 32h-60v104h41q63 0 106.5 31.5t43.5 75.5t-40 74t-100 30z" />
    <glyph glyph-name="acute" unicode="&#xb4;" horiz-adv-x="684" 
d="M168 1454l-74 131l398 252l98 -192z" />
    <glyph glyph-name="mu" unicode="&#xb5;" horiz-adv-x="1239" 
d="M125 -461v1526h213v-612q0 -118 78 -199q81 -78 196 -78q122 0 205 80q82 79 82 199v610h213v-1065h-213v152q-123 -179 -348 -179q-119 0 -213 52v-486h-213z" />
    <glyph glyph-name="paragraph" unicode="&#xb6;" horiz-adv-x="1392" 
d="M492 1434h841v-162h-213v-1630h-178v1630h-272v-1630h-178v976q-174 0 -291 117t-117 291t117 291t291 117z" />
    <glyph glyph-name="middot" unicode="&#xb7;" horiz-adv-x="450" 
d="M123 614q-38 41 -38 102.5t38 102.5q41 41 102.5 41t102.5 -41t41 -102.5t-41 -102.5q-41 -38 -102.5 -38t-102.5 38z" />
    <glyph glyph-name="cedilla" unicode="&#xb8;" horiz-adv-x="606" 
d="M205 -178l41 178h164l-23 -100q6 -1 15.5 -3.5t34.5 -14t44.5 -27t35 -45t15.5 -66.5q0 -85 -70 -140t-179 -55q-49 0 -99.5 13.5t-79.5 29.5l-24 15l29 114q51 -45 139 -45q54 0 88.5 19.5t34.5 48.5q0 28 -39 48.5t-86 25.5z" />
    <glyph glyph-name="onesuperior" unicode="&#xb9;" horiz-adv-x="489" 
d="M242 1376l-150 -76l-49 117l238 119h96v-788h-135v628z" />
    <glyph glyph-name="ordmasculine" unicode="&#xba;" horiz-adv-x="882" 
d="M47 1061q0 165 113 272q114 111 282 111q167 0 281 -111q113 -107 113 -272q0 -163 -113 -273t-281 -110q-169 0 -282 110t-113 273zM442 844q91 0 153 63t62 154t-62 154t-153 63q-93 0 -156 -63t-63 -154t63 -154t156 -63z" />
    <glyph glyph-name="guillemotright" unicode="&#xbb;" horiz-adv-x="1112" 
d="M653 924l389 -392l-389 -389l-125 125l265 264l-265 265zM217 924l389 -392l-389 -389l-125 125l264 264l-264 265z" />
    <glyph glyph-name="onequarter" unicode="&#xbc;" horiz-adv-x="1626" 
d="M1352 584l-250 -299h250v299zM1352 0v154h-412v131l420 503h129v-503h102v-131h-102v-154h-137zM242 645v627l-150 -74l-49 117l238 119h96v-789h-135zM1364 1434l-1008 -1434h-186l1008 1434h186z" />
    <glyph glyph-name="onehalf" unicode="&#xbd;" horiz-adv-x="1677" 
d="M242 645v627l-150 -74l-49 117l238 119h96v-789h-135zM1364 1434l-1008 -1434h-186l1008 1434h186zM1475 553q0 45 -40.5 79t-95.5 34q-109 0 -155 -119l-127 63q38 88 113.5 138.5t168.5 50.5q116 0 197 -72q80 -71 80 -170q0 -121 -168 -270l-164 -156h342v-131h-553
v100l289 275q113 107 113 178z" />
    <glyph glyph-name="threequarters" unicode="&#xbe;" horiz-adv-x="1794" 
d="M1108 154v131l420 503h129v-503h102v-131h-102v-154h-137v154h-412zM514 0h-188l1007 1434h189zM328 637q-102 0 -179 47.5t-108 126.5l127 47q13 -41 55 -65.5t99 -24.5q67 0 111 32.5t44 82.5q0 49 -42.5 80.5t-108.5 31.5h-60v105h41q63 0 106.5 31t43.5 75t-40 74.5
t-100 30.5q-106 0 -147 -80l-121 43q33 76 107.5 123t169.5 47q117 0 195.5 -68t78.5 -168q0 -104 -106 -153q45 -21 75 -54q49 -49 49 -122q0 -104 -82.5 -173t-207.5 -69zM1520 586l-250 -301h250v301z" />
    <glyph glyph-name="questiondown" unicode="&#xbf;" horiz-adv-x="1136" 
d="M299 39q0 -93 83.5 -157t205.5 -64q102 0 179 47t103 125l222 -62q-46 -143 -183 -233t-317 -90q-220 0 -369 125q-147 126 -147 311q0 74 27.5 140t65.5 110t90.5 81.5t90.5 56.5t76 34l39 14l10 148h187l22 -271q-54 -14 -135 -51q-67 -28 -117 -61q-54 -35 -93.5 -91
t-39.5 -112zM569 807q-60 0 -100.5 41t-40.5 102t40.5 101.5t100.5 40.5q62 0 103 -40.5t41 -101.5t-41 -102t-103 -41z" />
    <glyph glyph-name="Agrave" unicode="&#xc0;" horiz-adv-x="1482" 
d="M268 0h-241l620 1434h187l622 -1434h-242l-127 295h-692zM997 508l-256 600l-256 -600h512zM825 1563l-422 190l99 193l395 -252z" />
    <glyph glyph-name="Aacute" unicode="&#xc1;" horiz-adv-x="1482" 
d="M268 0h-241l620 1434h187l622 -1434h-242l-127 295h-692zM997 508l-256 600l-256 -600h512zM1071 1753l-422 -190l-71 131l395 252z" />
    <glyph glyph-name="Acircumflex" unicode="&#xc2;" horiz-adv-x="1482" 
d="M268 0h-241l620 1434h187l622 -1434h-242l-127 295h-692zM997 508l-256 600l-256 -600h512zM479 1561l-88 120l342 256h15l342 -256l-89 -118l-260 159z" />
    <glyph glyph-name="Atilde" unicode="&#xc3;" horiz-adv-x="1482" 
d="M395 295l-127 -295h-241l620 1434h187l622 -1434h-242l-127 295h-692zM997 508l-256 600l-256 -600h512zM582 1593h-170q0 97 63 160q65 68 156 68q63 0 121 -43q61 -43 82 -43q27 0 46 21.5t19 53.5h168q0 -97 -62 -162t-153 -65q-65 0 -123 43t-80 43q-29 0 -48 -22
t-19 -54z" />
    <glyph glyph-name="Adieresis" unicode="&#xc4;" horiz-adv-x="1482" 
d="M395 295l-127 -295h-241l620 1434h187l622 -1434h-242l-127 295h-692zM997 508l-256 600l-256 -600h512zM860 1591q-38 38 -38 96t38 95q38 38 96.5 38t96.5 -38q38 -37 38 -95t-38 -96t-96.5 -38t-96.5 38zM526 1552q-59 0 -97 39t-38 97q0 57 39 95t96 38t95 -38
t38 -95t-38 -96.5t-95 -39.5z" />
    <glyph glyph-name="Aring" unicode="&#xc5;" horiz-adv-x="1482" 
d="M395 295l-127 -295h-241l620 1434h187l622 -1434h-242l-127 295h-692zM741 1997q94 0 162 -68q70 -67 70 -162t-68 -163t-164 -68q-95 0 -163 68t-68 163q0 94 68 162t163 68zM997 508l-256 600l-256 -600h512zM684 1710q23 -23 57.5 -23t57.5 23t23 57.5t-25 57.5
q-23 23 -55.5 23t-57.5 -23q-23 -23 -23 -57.5t23 -57.5z" />
    <glyph glyph-name="AE" unicode="&#xc6;" horiz-adv-x="2084" 
d="M475 295l-186 -295h-262l913 1434h1061v-213h-741v-390h630v-213h-630v-405h751v-213h-981v295h-555zM608 508h422v670z" />
    <glyph glyph-name="Ccedilla" unicode="&#xc7;" horiz-adv-x="1576" 
d="M92 717q0 317 213 530t531 213q215 0 390 -104t269 -285l-223 -82q-67 117 -181.5 183.5t-254.5 66.5q-218 0 -361 -149q-145 -151 -145 -373t145 -373q143 -149 361 -149q140 0 254.5 66.5t181.5 182.5l223 -82q-82 -159 -231 -260.5t-334 -121.5l-17 -80q6 -1 16 -3.5
t35 -14t44 -27t35 -45t16 -66.5q0 -85 -70.5 -140t-179.5 -55q-49 0 -100 13.5t-80 29.5l-25 15l29 114q51 -45 139 -45q54 0 89.5 19.5t35.5 48.5t-38 49t-85 25l-43 4l35 153q-291 24 -483 234q-191 209 -191 508z" />
    <glyph glyph-name="Egrave" unicode="&#xc8;" horiz-adv-x="1269" 
d="M139 1434h1045v-213h-815v-390h706v-213h-706v-405h825v-213h-1055v1434zM813 1694l-72 -131l-424 190l99 193z" />
    <glyph glyph-name="Eacute" unicode="&#xc9;" horiz-adv-x="1269" 
d="M139 1434h1045v-213h-815v-390h706v-213h-706v-405h825v-213h-1055v1434zM565 1563l-73 131l397 252l98 -193z" />
    <glyph glyph-name="Ecircumflex" unicode="&#xca;" horiz-adv-x="1269" 
d="M139 1434h1045v-213h-815v-390h706v-213h-706v-405h825v-213h-1055v1434zM395 1561l-90 120l344 256h15l342 -256l-91 -118l-260 159z" />
    <glyph glyph-name="Edieresis" unicode="&#xcb;" horiz-adv-x="1269" 
d="M139 1434h1045v-213h-815v-390h706v-213h-706v-405h825v-213h-1055v1434zM969 1591q-38 -38 -96.5 -38t-96.5 38t-38 96t38 95q38 38 96.5 38t96.5 -38q38 -37 38 -95t-38 -96zM442 1821q56 0 94.5 -38t38.5 -95t-38.5 -96.5t-94.5 -39.5q-57 0 -96 39.5t-39 96.5t39 95
t96 38z" />
    <glyph glyph-name="Igrave" unicode="&#xcc;" horiz-adv-x="507" 
d="M369 0h-230v1434h230v-1434zM338 1563l-422 190l98 193l398 -252z" />
    <glyph glyph-name="Iacute" unicode="&#xcd;" horiz-adv-x="507" 
d="M369 0h-230v1434h230v-1434zM164 1563l-74 131l397 252l99 -193z" />
    <glyph glyph-name="Icircumflex" unicode="&#xce;" horiz-adv-x="507" 
d="M369 0h-230v1434h230v-1434zM254 1722l-260 -161l-90 120l344 256h12l344 -256l-90 -118z" />
    <glyph glyph-name="Idieresis" unicode="&#xcf;" horiz-adv-x="507" 
d="M369 0h-230v1434h230v-1434zM39 1552q-59 0 -97 39t-38 97q0 57 39 95t96 38t96 -38t39 -95t-39 -96.5t-96 -39.5zM469 1552q-57 0 -95 39.5t-38 96.5t38 95t95 38t96 -38t39 -95q0 -58 -38 -97t-97 -39z" />
    <glyph glyph-name="Eth" unicode="&#xd0;" horiz-adv-x="1583" 
d="M20 618v197h154v619h574q317 0 530 -207t213 -510t-213 -510t-530 -207h-574v618h-154zM403 1221v-406h412v-197h-412v-405h345q215 0 360 145t145 359q0 213 -145 358q-146 146 -360 146h-345z" />
    <glyph glyph-name="Ntilde" unicode="&#xd1;" horiz-adv-x="1523" 
d="M360 0h-221v1434h203l821 -1039v1039h221v-1434h-202l-822 1038v-1038zM602 1593h-168q0 96 64 160q65 68 155 68q63 0 121 -43t82 -43q27 0 46.5 21.5t19.5 53.5h168q0 -94 -64 -161q-66 -66 -154 -66q-62 0 -120 43t-82 43q-29 0 -48.5 -22t-19.5 -54z" />
    <glyph glyph-name="Ograve" unicode="&#xd2;" horiz-adv-x="1671" 
d="M305 186q-213 213 -213 531q0 317 213 530t531 213q317 0 530 -213q215 -212 215 -530q0 -319 -215 -531q-213 -213 -530 -213q-318 0 -531 213zM836 195q217 0 360 149q145 151 145 373t-145 373q-143 149 -360 149q-218 0 -361 -149q-145 -151 -145 -373t145 -373
q143 -149 361 -149zM920 1563l-422 190l98 193l397 -252z" />
    <glyph glyph-name="Oacute" unicode="&#xd3;" horiz-adv-x="1671" 
d="M305 186q-213 213 -213 531q0 317 213 530t531 213q317 0 530 -213q215 -212 215 -530q0 -319 -215 -531q-213 -213 -530 -213q-318 0 -531 213zM836 195q217 0 360 149q145 151 145 373t-145 373q-143 149 -360 149q-218 0 -361 -149q-145 -151 -145 -373t145 -373
q143 -149 361 -149zM745 1563l-73 131l397 252l98 -193z" />
    <glyph glyph-name="Ocircumflex" unicode="&#xd4;" horiz-adv-x="1671" 
d="M305 186q-213 213 -213 531q0 317 213 530t531 213q317 0 530 -213q215 -212 215 -530q0 -319 -215 -531q-213 -213 -530 -213q-318 0 -531 213zM836 195q217 0 360 149q145 151 145 373t-145 373q-143 149 -360 149q-218 0 -361 -149q-145 -151 -145 -373t145 -373
q143 -149 361 -149zM836 1722l-261 -161l-90 120l344 256h13l344 -256l-90 -118z" />
    <glyph glyph-name="Otilde" unicode="&#xd5;" horiz-adv-x="1671" 
d="M305 186q-213 213 -213 531q0 317 213 530t531 213q317 0 530 -213q215 -212 215 -530q0 -319 -215 -531q-213 -213 -530 -213q-318 0 -531 213zM836 195q217 0 360 149q145 151 145 373t-145 373q-143 149 -360 149q-218 0 -361 -149q-145 -151 -145 -373t145 -373
q143 -149 361 -149zM676 1593h-168q0 97 63 160q65 68 156 68q63 0 121 -43t82 -43q27 0 46 21.5t19 53.5h168q0 -95 -63 -161q-66 -66 -154 -66q-63 0 -121 43t-82 43q-29 0 -48 -22t-19 -54z" />
    <glyph glyph-name="Odieresis" unicode="&#xd6;" horiz-adv-x="1671" 
d="M305 186q-213 213 -213 531q0 317 213 530t531 213q317 0 530 -213q215 -212 215 -530q0 -319 -215 -531q-213 -213 -530 -213q-318 0 -531 213zM836 195q217 0 360 149q145 151 145 373t-145 373q-143 149 -360 149q-218 0 -361 -149q-145 -151 -145 -373t145 -373
q143 -149 361 -149zM524 1591q-38 38 -38 96t38 95q38 38 96.5 38t96.5 -38q38 -37 38 -95t-38 -96t-96.5 -38t-96.5 38zM1051 1552q-57 0 -95 39.5t-38 96.5t38 95t95 38t96 -38t39 -95q0 -58 -38 -97t-97 -39z" />
    <glyph glyph-name="multiply" unicode="&#xd7;" 
d="M475 717l-315 313l139 139l315 -313l316 315l139 -139l-315 -315l315 -314l-139 -139l-316 316l-315 -316l-139 139z" />
    <glyph glyph-name="Oslash" unicode="&#xd8;" horiz-adv-x="1671" 
d="M281 74l57 82q-246 218 -246 561q0 317 213 530t531 213q186 0 354 -82l59 82l148 -100l-60 -84q244 -218 244 -559q0 -319 -215 -531q-213 -213 -530 -213q-185 0 -351 84l-59 -84zM1202 1081l-586 -837q104 -49 220 -49q217 0 360 149q145 151 145 373q0 219 -139 364z
M473 348l586 842q-104 49 -223 49q-218 0 -361 -149q-145 -151 -145 -373q0 -223 143 -369z" />
    <glyph glyph-name="Ugrave" unicode="&#xd9;" horiz-adv-x="1474" 
d="M1124 573v861h232v-861q0 -256 -178 -428q-175 -172 -441 -172q-264 0 -442 172q-176 173 -176 428v861h229v-861q0 -165 111 -276q114 -111 278 -111q166 0 277 111q110 110 110 276zM821 1563l-422 190l97 193l397 -252z" />
    <glyph glyph-name="Uacute" unicode="&#xda;" horiz-adv-x="1474" 
d="M1124 573v861h232v-861q0 -256 -178 -428q-175 -172 -441 -172q-264 0 -442 172q-176 173 -176 428v861h229v-861q0 -165 111 -276q114 -111 278 -111q166 0 277 111q110 110 110 276zM645 1563l-72 131l396 252l98 -193z" />
    <glyph glyph-name="Ucircumflex" unicode="&#xdb;" horiz-adv-x="1474" 
d="M1124 573v861h232v-861q0 -256 -178 -428q-175 -172 -441 -172q-264 0 -442 172q-176 173 -176 428v861h229v-861q0 -165 111 -276q114 -111 278 -111q166 0 277 111q110 110 110 276zM735 1722l-260 -161l-88 120l342 256h14l342 -256l-88 -118z" />
    <glyph glyph-name="Udieresis" unicode="&#xdc;" horiz-adv-x="1474" 
d="M1124 573v861h232v-861q0 -256 -178 -428q-175 -172 -441 -172q-264 0 -442 172q-176 173 -176 428v861h229v-861q0 -165 111 -276q114 -111 278 -111q166 0 277 111q110 110 110 276zM522 1821q56 0 94.5 -38t38.5 -95t-38.5 -96.5t-94.5 -39.5q-59 0 -97 39t-38 97
q0 57 39 95t96 38zM856 1591q-38 38 -38 96t38 95q38 38 96.5 38t96.5 -38q38 -37 38 -95t-38 -96t-96.5 -38t-96.5 38z" />
    <glyph glyph-name="Yacute" unicode="&#xdd;" horiz-adv-x="1390" 
d="M578 0v582l-551 852h264l399 -633l408 633h264l-555 -842v-592h-229zM1026 1753l-422 -190l-72 131l396 252z" />
    <glyph glyph-name="Thorn" unicode="&#xde;" horiz-adv-x="1341" 
d="M139 0v1434h230v-265h405q204 0 342 -129q139 -130 139 -323q0 -194 -139 -324q-138 -129 -342 -129h-405v-264h-230zM774 956h-405v-479h405q103 0 172.5 68.5t69.5 171.5q0 102 -69.5 170.5t-172.5 68.5z" />
    <glyph glyph-name="germandbls" unicode="&#xdf;" horiz-adv-x="1220" 
d="M553 1350q-92 0 -152.5 -56t-60.5 -141v-1153h-213v1188q0 161 119 268t299 107q172 0 289 -99q116 -98 116 -239q0 -59 -24.5 -112.5t-59.5 -88.5q-84 -80 -84 -143q0 -74 129 -162q50 -32 84 -59.5t74 -73.5t61 -107.5t21 -136.5q0 -185 -133 -272.5t-414 -87.5v213
q178 0 251 35t73 120q0 113 -129 197q-8 6 -34.5 24t-37 26t-34.5 26.5t-35.5 30.5t-30 32t-28 38t-20 41t-14.5 48t-4 53q0 62 24 118.5t58 92.5q84 84 84 144q0 55 -50.5 92t-123.5 37z" />
    <glyph glyph-name="agrave" unicode="&#xe0;" horiz-adv-x="1298" 
d="M604 -27q-224 0 -375 160q-149 158 -149 399q0 242 149 400q151 160 375 160q206 0 354 -142v115h213v-1065h-213v115q-148 -142 -354 -142zM627 186q139 0 233 99q94 101 94 247q0 148 -94 246q-94 101 -233 101q-138 0 -232 -101q-94 -98 -94 -246q0 -146 94 -247
q95 -99 232 -99zM807 1350l-74 -133l-422 192l99 190z" />
    <glyph glyph-name="aacute" unicode="&#xe1;" horiz-adv-x="1298" 
d="M604 -27q-224 0 -375 160q-149 158 -149 399q0 242 149 400q151 160 375 160q206 0 354 -142v115h213v-1065h-213v115q-148 -142 -354 -142zM627 186q139 0 233 99q94 101 94 247q0 148 -94 246q-94 101 -233 101q-138 0 -232 -101q-94 -98 -94 -246q0 -146 94 -247
q95 -99 232 -99zM981 1409l-422 -192l-74 133l398 249z" />
    <glyph glyph-name="acircumflex" unicode="&#xe2;" horiz-adv-x="1298" 
d="M604 -27q-224 0 -375 160q-149 158 -149 399q0 242 149 400q151 160 375 160q206 0 354 -142v115h213v-1065h-213v115q-148 -142 -354 -142zM627 186q139 0 233 99q94 101 94 247q0 148 -94 246q-94 101 -233 101q-138 0 -232 -101q-94 -98 -94 -246q0 -146 94 -247
q95 -99 232 -99zM389 1217l-90 120l344 254h12l344 -254l-90 -118l-260 157z" />
    <glyph glyph-name="atilde" unicode="&#xe3;" horiz-adv-x="1298" 
d="M604 -27q-224 0 -375 160q-149 158 -149 399q0 242 149 400q151 160 375 160q206 0 354 -142v115h213v-1065h-213v115q-148 -142 -354 -142zM627 879q-138 0 -232 -101q-94 -98 -94 -246q0 -146 94 -247q95 -99 232 -99q139 0 233 99q94 101 94 247q0 148 -94 246
q-94 101 -233 101zM489 1247h-167q0 97 63 160q65 68 156 68q63 0 121 -43t81 -43q27 0 46.5 21.5t19.5 55.5h168q0 -97 -63 -163t-154 -66q-63 0 -121 43t-82 43q-29 0 -48.5 -22t-19.5 -54z" />
    <glyph glyph-name="adieresis" unicode="&#xe4;" horiz-adv-x="1298" 
d="M604 1092q206 0 354 -142v115h213v-1065h-213v115q-148 -142 -354 -142q-224 0 -375 160q-149 158 -149 399q0 242 149 400q151 160 375 160zM627 879q-138 0 -232 -101q-94 -98 -94 -246q0 -146 94 -247q95 -99 232 -99q139 0 233 99q94 101 94 247q0 148 -94 246
q-94 101 -233 101zM530 1245q-38 -37 -96 -37t-96 37q-38 38 -38 96t38 95q38 38 96 38t96 -38q38 -37 38 -95t-38 -96zM864 1475q59 0 97 -38t38 -96q0 -57 -37.5 -95t-97.5 -38q-57 0 -95 38t-38 95t38 95.5t95 38.5z" />
    <glyph glyph-name="aring" unicode="&#xe5;" horiz-adv-x="1298" 
d="M604 1092q206 0 354 -142v115h213v-1065h-213v115q-148 -142 -354 -142q-224 0 -375 160q-149 158 -149 399q0 242 149 400q151 160 375 160zM627 186q139 0 233 99q94 101 94 247q0 148 -94 246q-94 101 -233 101q-138 0 -232 -101q-94 -98 -94 -246q0 -146 94 -247
q95 -99 232 -99zM420 1421q0 97 67 164q68 68 162 68q97 0 164 -70q67 -67 67 -161t-67 -162q-68 -68 -164 -68t-164 68q-65 68 -65 161zM592 1477q-23 -23 -23 -55.5t23 -57.5q23 -23 57.5 -23t57.5 23t23 57.5t-23 57.5t-57.5 23t-57.5 -25z" />
    <glyph glyph-name="ae" unicode="&#xe6;" horiz-adv-x="2125" 
d="M604 -27q-224 0 -375 160q-149 158 -149 399q0 242 149 400q151 160 375 160q206 0 354 -142v115h213v-117q150 144 363 144q225 0 379 -160q153 -159 153 -400q0 -36 -6 -77h-882q25 -125 122 -204t230 -79q179 0 282 133l207 -63q-69 -125 -194.5 -197t-278.5 -72
q-221 0 -375 148v-121h-213v115q-148 -142 -354 -142zM627 186q139 0 233 99q94 101 94 247q0 148 -94 246q-94 101 -233 101q-138 0 -232 -101q-94 -98 -94 -246q0 -146 94 -247q95 -99 232 -99zM1180 625h665q-29 119 -122.5 193.5t-215.5 74.5q-118 0 -208 -74.5
t-119 -193.5z" />
    <glyph glyph-name="ccedilla" unicode="&#xe7;" horiz-adv-x="1216" 
d="M535 -178l34 155q-212 21 -352 179q-137 155 -137 376q0 240 160 400t399 160q177 0 316 -90.5t202 -245.5l-215 -64q-42 87 -121.5 137t-181.5 50q-144 0 -242 -101q-96 -101 -96 -246q0 -143 96 -247q99 -99 242 -99q102 0 181.5 50t121.5 137l215 -64
q-54 -131 -165 -217.5t-257 -109.5l-18 -82q6 -1 15.5 -3.5t34.5 -14t44.5 -27t35 -45t15.5 -66.5q0 -85 -70.5 -140t-179.5 -55q-49 0 -98.5 13.5t-79.5 29.5l-24 15l28 114q51 -45 137 -45q54 0 89.5 19.5t35.5 48.5t-38 49t-84 25z" />
    <glyph glyph-name="egrave" unicode="&#xe8;" horiz-adv-x="1249" 
d="M1184 455h-885q25 -125 122 -204t230 -79q180 0 283 133l209 -63q-74 -126 -204 -197.5t-288 -71.5q-242 0 -407 160q-164 159 -164 399q0 239 158 400q160 160 397 160q236 0 393 -160q160 -160 160 -400q0 -7 -4 -77zM301 625h668q-29 119 -122.5 193.5t-217.5 74.5
q-117 0 -208 -74.5t-120 -193.5zM721 1217l-424 192l98 190l398 -249z" />
    <glyph glyph-name="eacute" unicode="&#xe9;" horiz-adv-x="1249" 
d="M1184 455h-885q25 -125 122 -204t230 -79q180 0 283 133l209 -63q-74 -126 -204 -197.5t-288 -71.5q-242 0 -407 160q-164 159 -164 399q0 239 158 400q160 160 397 160q236 0 393 -160q160 -160 160 -400q0 -7 -4 -77zM301 625h668q-29 119 -122.5 193.5t-217.5 74.5
q-117 0 -208 -74.5t-120 -193.5zM545 1217l-74 133l397 249l99 -190z" />
    <glyph glyph-name="ecircumflex" unicode="&#xea;" horiz-adv-x="1249" 
d="M1184 455h-885q25 -125 122 -204t230 -79q180 0 283 133l209 -63q-74 -126 -204 -197.5t-288 -71.5q-242 0 -407 160q-164 159 -164 399q0 239 158 400q160 160 397 160q236 0 393 -160q160 -160 160 -400q0 -7 -4 -77zM301 625h668q-29 119 -122.5 193.5t-217.5 74.5
q-117 0 -208 -74.5t-120 -193.5zM635 1376l-260 -159l-88 120l342 254h14l342 -254l-90 -118z" />
    <glyph glyph-name="edieresis" unicode="&#xeb;" horiz-adv-x="1249" 
d="M1184 455h-885q25 -125 122 -204t230 -79q180 0 283 133l209 -63q-74 -126 -204 -197.5t-288 -71.5q-242 0 -407 160q-164 159 -164 399q0 239 158 400q160 160 397 160q236 0 393 -160q160 -160 160 -400q0 -7 -4 -77zM301 625h668q-29 119 -122.5 193.5t-217.5 74.5
q-117 0 -208 -74.5t-120 -193.5zM422 1475q56 0 94.5 -38.5t38.5 -95.5t-38.5 -95t-94.5 -38q-60 0 -97.5 38t-37.5 95q0 58 38 96t97 38zM756 1245q-38 38 -38 96t38 95q38 38 96 38t96 -38q38 -37 38 -95t-38 -96q-38 -37 -96 -37t-96 37z" />
    <glyph glyph-name="igrave" unicode="&#xec;" horiz-adv-x="466" 
d="M340 0h-213v1065h213v-1065zM-80 1407l98 192l398 -249l-72 -131z" />
    <glyph glyph-name="iacute" unicode="&#xed;" horiz-adv-x="466" 
d="M340 0h-213v1065h213v-1065zM43 1350l397 249l99 -192l-422 -188z" />
    <glyph glyph-name="icircumflex" unicode="&#xee;" horiz-adv-x="466" 
d="M340 0h-213v1065h213v-1065zM-27 1217l-90 120l344 254h13l344 -254l-90 -118l-261 157z" />
    <glyph glyph-name="idieresis" unicode="&#xef;" horiz-adv-x="466" 
d="M340 0h-213v1065h213v-1065zM45 1475q56 0 94.5 -38.5t38.5 -95.5t-38.5 -95t-94.5 -38q-59 0 -97 38t-38 95q0 58 38 96t97 38zM328 1245q-38 38 -38 96t38 95q38 38 96 38t96 -38q38 -37 38 -95t-38 -96q-38 -37 -96 -37t-96 37z" />
    <glyph glyph-name="eth" unicode="&#xf0;" horiz-adv-x="1280" 
d="M639 1092q146 0 268 -64q-85 204 -289 275l-106 -164l-137 88l74 112q-86 11 -187 11v213q176 0 311 -27l101 156l137 -88l-76 -117q235 -94 350 -325t115 -630q0 -241 -162 -399q-160 -160 -399 -160t-399 160t-160 399q0 240 160 400t399 160zM639 186q147 0 242 99
q98 101 98 247q0 148 -98 246q-94 101 -242 101q-144 0 -242 -101q-96 -101 -96 -246q0 -143 96 -247q99 -99 242 -99z" />
    <glyph glyph-name="ntilde" unicode="&#xf1;" horiz-adv-x="1239" 
d="M127 0v1065h213v-156q118 183 350 183q184 0 303 -119q121 -121 121 -299v-674h-213v612q0 119 -78 198t-196 79q-122 0 -205 -80q-82 -79 -82 -199v-610h-213zM469 1247h-168q0 96 64 160q65 68 155 68q63 0 121 -43q61 -43 82 -43q27 0 46 21.5t19 55.5h168
q0 -97 -62 -163t-153 -66q-65 0 -123 43t-81 43q-27 0 -47.5 -23t-20.5 -53z" />
    <glyph glyph-name="ograve" unicode="&#xf2;" horiz-adv-x="1280" 
d="M240 133q-160 160 -160 399q0 240 160 400t399 160t399 -160q162 -158 162 -400q0 -241 -162 -399q-160 -160 -399 -160t-399 160zM639 186q147 0 242 99q98 101 98 247q0 148 -98 246q-94 101 -242 101q-144 0 -242 -101q-96 -101 -96 -246q0 -143 96 -247
q99 -99 242 -99zM723 1217l-422 192l98 190l398 -249z" />
    <glyph glyph-name="oacute" unicode="&#xf3;" horiz-adv-x="1280" 
d="M240 133q-160 160 -160 399q0 240 160 400t399 160t399 -160q162 -158 162 -400q0 -241 -162 -399q-160 -160 -399 -160t-399 160zM639 186q147 0 242 99q98 101 98 247q0 148 -98 246q-94 101 -242 101q-144 0 -242 -101q-96 -101 -96 -246q0 -143 96 -247
q99 -99 242 -99zM549 1217l-74 133l397 249l99 -190z" />
    <glyph glyph-name="ocircumflex" unicode="&#xf4;" horiz-adv-x="1280" 
d="M240 133q-160 160 -160 399q0 240 160 400t399 160t399 -160q162 -158 162 -400q0 -241 -162 -399q-160 -160 -399 -160t-399 160zM639 186q147 0 242 99q98 101 98 247q0 148 -98 246q-94 101 -242 101q-144 0 -242 -101q-96 -101 -96 -246q0 -143 96 -247
q99 -99 242 -99zM639 1376l-260 -159l-90 120l344 254h12l344 -254l-90 -118z" />
    <glyph glyph-name="otilde" unicode="&#xf5;" horiz-adv-x="1280" 
d="M240 133q-160 160 -160 399q0 240 160 400t399 160t399 -160q162 -158 162 -400q0 -241 -162 -399q-160 -160 -399 -160t-399 160zM639 186q147 0 242 99q98 101 98 247q0 148 -98 246q-94 101 -242 101q-144 0 -242 -101q-96 -101 -96 -246q0 -143 96 -247
q99 -99 242 -99zM479 1247h-168q0 96 64 160q65 68 155 68q63 0 121 -43t82 -43q27 0 46.5 21.5t19.5 55.5h168q0 -97 -63 -163t-154 -66q-63 0 -121 43t-82 43q-29 0 -48.5 -22t-19.5 -54z" />
    <glyph glyph-name="odieresis" unicode="&#xf6;" horiz-adv-x="1280" 
d="M240 133q-160 160 -160 399q0 240 160 400t399 160t399 -160q162 -158 162 -400q0 -241 -162 -399q-160 -160 -399 -160t-399 160zM639 186q147 0 242 99q98 101 98 247q0 148 -98 246q-94 101 -242 101q-144 0 -242 -101q-96 -101 -96 -246q0 -143 96 -247
q99 -99 242 -99zM328 1245q-38 38 -38 96t38 95q38 38 96 38t96 -38q38 -37 38 -95t-38 -96q-38 -37 -96 -37t-96 37zM854 1475q59 0 97 -38t38 -96q0 -57 -37.5 -95t-97.5 -38q-57 0 -95 38t-38 95t38 95.5t95 38.5z" />
    <glyph glyph-name="divide" unicode="&#xf7;" 
d="M129 618v197h971v-197h-971zM512 211q-38 41 -38 102.5t38 102.5q41 41 102.5 41t102.5 -41t41 -102.5t-41 -102.5q-41 -38 -102.5 -38t-102.5 38zM512 1018q-38 41 -38 103t38 100q41 41 102.5 41t102.5 -41q41 -38 41 -100t-41 -103t-102.5 -41t-102.5 41z" />
    <glyph glyph-name="oslash" unicode="&#xf8;" horiz-adv-x="1280" 
d="M639 1092q133 0 246 -52l37 52l145 -101l-35 -51q168 -162 168 -408q0 -241 -162 -399q-160 -160 -399 -160q-129 0 -246 54l-37 -54l-145 101l37 53q-168 162 -168 405q0 240 160 400t399 160zM901 754l-381 -545q58 -23 119 -23q147 0 242 99q98 101 98 247
q0 121 -78 222zM377 313l381 543q-57 23 -119 23q-144 0 -242 -101q-96 -101 -96 -246q0 -128 76 -219z" />
    <glyph glyph-name="ugrave" unicode="&#xf9;" horiz-adv-x="1239" 
d="M551 -27q-186 0 -305 119q-121 121 -121 301v672h213v-612q0 -118 78 -199q81 -78 196 -78q122 0 205 80q82 79 82 199v610h213v-1065h-213v152q-123 -179 -348 -179zM776 1350l-71 -133l-422 192l96 190z" />
    <glyph glyph-name="uacute" unicode="&#xfa;" horiz-adv-x="1239" 
d="M125 393v672h213v-612q0 -118 78 -199q81 -78 196 -78q122 0 205 80q82 79 82 199v610h213v-1065h-213v152q-123 -179 -348 -179q-186 0 -305 119q-121 121 -121 301zM950 1409l-422 -192l-71 133l395 249z" />
    <glyph glyph-name="ucircumflex" unicode="&#xfb;" horiz-adv-x="1239" 
d="M125 393v672h213v-612q0 -118 78 -199q81 -78 196 -78q122 0 205 80q82 79 82 199v610h213v-1065h-213v152q-123 -179 -348 -179q-186 0 -305 119q-121 121 -121 301zM618 1376l-260 -159l-88 120l342 254h15l342 -254l-88 -118z" />
    <glyph glyph-name="udieresis" unicode="&#xfc;" horiz-adv-x="1239" 
d="M125 393v672h213v-612q0 -118 78 -199q81 -78 196 -78q122 0 205 80q82 79 82 199v610h213v-1065h-213v152q-123 -179 -348 -179q-186 0 -305 119q-121 121 -121 301zM739 1245q-38 38 -38 96t38 95q38 38 96.5 38t96.5 -38q38 -37 38 -95t-38 -96q-38 -37 -96.5 -37
t-96.5 37zM406 1208q-60 0 -98 38t-38 95t38 95.5t98 38.5q56 0 94.5 -38.5t38.5 -95.5t-38.5 -95t-94.5 -38z" />
    <glyph glyph-name="yacute" unicode="&#xfd;" horiz-adv-x="1103" 
d="M440 27l-415 1038h219l303 -774l313 774h219l-501 -1227q-63 -155 -165.5 -227t-262.5 -72h-46v205h46q94 0 151 39t92 127zM461 1217l-74 133l397 249l99 -190z" />
    <glyph glyph-name="thorn" unicode="&#xfe;" horiz-adv-x="1298" 
d="M340 -461h-213v1997h213v-586q148 142 354 142q224 0 375 -160q150 -159 150 -400q0 -240 -150 -399q-151 -160 -375 -160q-206 0 -354 142v-576zM670 879q-138 0 -232 -101q-94 -98 -94 -246q0 -146 94 -247q94 -99 232 -99t233 99q94 101 94 247q0 148 -94 246
q-94 101 -233 101z" />
    <glyph glyph-name="ydieresis" unicode="&#xff;" horiz-adv-x="1103" 
d="M440 27l-415 1038h219l303 -774l313 774h219l-501 -1227q-63 -155 -165.5 -227t-262.5 -72h-46v205h46q94 0 151 39t92 127zM766 1475q60 0 98.5 -38.5t38.5 -95.5t-38.5 -95t-98.5 -38q-56 0 -94.5 38t-38.5 95t38.5 95.5t94.5 38.5zM432 1245q-38 -37 -96 -37t-96 37
q-38 38 -38 96t38 95q38 38 96 38t96 -38q38 -37 38 -95t-38 -96z" />
    <glyph glyph-name="Amacron" unicode="&#x100;" horiz-adv-x="1482" 
d="M268 0h-241l620 1434h187l622 -1434h-242l-127 295h-692zM997 508l-256 600l-256 -600h512zM434 1612v180h615v-180h-615z" />
    <glyph glyph-name="amacron" unicode="&#x101;" horiz-adv-x="1298" 
d="M604 1092q206 0 354 -142v115h213v-1065h-213v115q-148 -142 -354 -142q-224 0 -375 160q-149 158 -149 399q0 242 149 400q151 160 375 160zM627 879q-138 0 -232 -101q-94 -98 -94 -246q0 -146 94 -247q95 -99 232 -99q139 0 233 99q94 101 94 247q0 148 -94 246
q-94 101 -233 101zM958 1446v-178h-616v178h616z" />
    <glyph glyph-name="Abreve" unicode="&#x102;" horiz-adv-x="1482" 
d="M395 295l-127 -295h-241l620 1434h187l622 -1434h-242l-127 295h-692zM997 508l-256 600l-256 -600h512zM422 1855h170q0 -72 42.5 -117.5t108.5 -45.5q64 0 106 46t42 117h170q0 -136 -92 -225q-90 -90 -228 -90q-136 0 -229 90q-90 90 -90 225z" />
    <glyph glyph-name="abreve" unicode="&#x103;" horiz-adv-x="1298" 
d="M604 -27q-224 0 -375 160q-149 158 -149 399q0 242 149 400q151 160 375 160q206 0 354 -142v115h213v-1065h-213v115q-148 -142 -354 -142zM627 186q139 0 233 99q94 101 94 247q0 148 -94 246q-94 101 -233 101q-138 0 -232 -101q-94 -98 -94 -246q0 -146 94 -247
q95 -99 232 -99zM330 1511h170q0 -70 42.5 -116.5t108.5 -46.5t107 45.5t41 117.5h170q0 -135 -92 -227q-90 -90 -228 -90q-136 0 -229 90q-90 93 -90 227z" />
    <glyph glyph-name="Aogonek" unicode="&#x104;" horiz-adv-x="1482" 
d="M268 0h-241l620 1434h187l622 -1434h-31l-34 -31q-23 -23 -56 -73q-32 -49 -32 -97q0 -36 22 -57t55 -21q24 0 52 11.5t43 25.5l12 15l76 -90q-11 -15 -31 -29q-20 -20 -78 -47q-60 -31 -119 -31q-86 0 -143 52t-57 130q0 53 31 113.5t67 95.5l31 33h-50l-127 295h-692z
M997 508l-256 600l-256 -600h512z" />
    <glyph glyph-name="aogonek" unicode="&#x105;" horiz-adv-x="1298" 
d="M604 -27q-224 0 -375 160q-149 158 -149 399q0 242 149 400q151 160 375 160q206 0 354 -142v115h213v-1065h-26q-109 -89 -121 -182q-2 -4 -2 -19q0 -36 22.5 -57t55.5 -21q24 0 51.5 12t40.5 25l14 15l76 -90q-11 -15 -31 -29q-21 -21 -77 -47q-60 -31 -119 -31
q-86 0 -143.5 52t-57.5 130q0 53 30 114t66 95l33 33h-25v115q-148 -142 -354 -142zM627 186q139 0 233 99q94 101 94 247q0 148 -94 246q-94 101 -233 101q-138 0 -232 -101q-94 -98 -94 -246q0 -146 94 -247q95 -99 232 -99z" />
    <glyph glyph-name="Cacute" unicode="&#x106;" horiz-adv-x="1576" 
d="M836 1460q215 0 390 -104t269 -285l-223 -82q-67 117 -181.5 183.5t-254.5 66.5q-218 0 -361 -149q-145 -151 -145 -373t145 -373q143 -149 361 -149q140 0 254.5 66.5t181.5 182.5l223 -82q-94 -181 -269 -285t-390 -104q-318 0 -531 213t-213 531q0 317 213 530
t531 213zM737 1563l-73 131l397 252l98 -193z" />
    <glyph glyph-name="cacute" unicode="&#x107;" horiz-adv-x="1216" 
d="M1157 756l-215 -64q-42 87 -121.5 137t-181.5 50q-144 0 -242 -101q-96 -101 -96 -246q0 -143 96 -247q99 -99 242 -99q102 0 181.5 50t121.5 137l215 -64q-63 -155 -202 -245.5t-316 -90.5q-239 0 -399 160t-160 399q0 240 160 400t399 160q177 0 316 -90.5t202 -245.5z
M547 1217l-72 133l397 249l99 -190z" />
    <glyph glyph-name="Ccircumflex" unicode="&#x108;" horiz-adv-x="1576" 
d="M836 1460q215 0 390 -104t269 -285l-223 -82q-67 117 -181.5 183.5t-254.5 66.5q-218 0 -361 -149q-145 -151 -145 -373t145 -373q143 -149 361 -149q140 0 254.5 66.5t181.5 182.5l223 -82q-94 -181 -269 -285t-390 -104q-318 0 -531 213t-213 531q0 317 213 530
t531 213zM827 1722l-260 -161l-90 120l344 256h13l344 -256l-91 -118z" />
    <glyph glyph-name="ccircumflex" unicode="&#x109;" horiz-adv-x="1216" 
d="M1157 756l-215 -64q-42 87 -121.5 137t-181.5 50q-144 0 -242 -101q-96 -101 -96 -246q0 -143 96 -247q99 -99 242 -99q102 0 181.5 50t121.5 137l215 -64q-63 -155 -202 -245.5t-316 -90.5q-239 0 -399 160t-160 399q0 240 160 400t399 160q177 0 316 -90.5t202 -245.5z
M639 1376l-260 -159l-90 120l344 254h12l344 -254l-90 -118z" />
    <glyph glyph-name="Cdotaccent" unicode="&#x10a;" horiz-adv-x="1576" 
d="M836 1460q215 0 390 -104t269 -285l-223 -82q-67 117 -181.5 183.5t-254.5 66.5q-218 0 -361 -149q-145 -151 -145 -373t145 -373q143 -149 361 -149q140 0 254.5 66.5t181.5 182.5l223 -82q-94 -181 -269 -285t-390 -104q-318 0 -531 213t-213 531q0 317 213 530
t531 213zM688 1696q0 60 39.5 99.5t99.5 39.5q61 0 101.5 -39.5t40.5 -99.5q0 -62 -40.5 -102t-101.5 -40q-60 0 -99.5 40.5t-39.5 101.5z" />
    <glyph glyph-name="cdotaccent" unicode="&#x10b;" horiz-adv-x="1216" 
d="M1157 756l-215 -64q-42 87 -121.5 137t-181.5 50q-144 0 -242 -101q-96 -101 -96 -246q0 -143 96 -247q99 -99 242 -99q102 0 181.5 50t121.5 137l215 -64q-63 -155 -202 -245.5t-316 -90.5q-239 0 -399 160t-160 399q0 240 160 400t399 160q177 0 316 -90.5t202 -245.5z
M500 1350q0 61 39.5 101t99.5 40t100.5 -40t40.5 -101q0 -60 -40.5 -100t-100.5 -40t-99.5 40t-39.5 100z" />
    <glyph glyph-name="Ccaron" unicode="&#x10c;" horiz-adv-x="1576" 
d="M836 1460q215 0 390 -104t269 -285l-223 -82q-67 117 -181.5 183.5t-254.5 66.5q-218 0 -361 -149q-145 -151 -145 -373t145 -373q143 -149 361 -149q140 0 254.5 66.5t181.5 182.5l223 -82q-94 -181 -269 -285t-390 -104q-318 0 -531 213t-213 531q0 317 213 530
t531 213zM827 1778l260 157l91 -118l-344 -254h-13l-344 254l90 120z" />
    <glyph glyph-name="ccaron" unicode="&#x10d;" horiz-adv-x="1216" 
d="M1157 756l-215 -64q-42 87 -121.5 137t-181.5 50q-144 0 -242 -101q-96 -101 -96 -246q0 -143 96 -247q99 -99 242 -99q102 0 181.5 50t121.5 137l215 -64q-63 -155 -202 -245.5t-316 -90.5q-239 0 -399 160t-160 399q0 240 160 400t399 160q177 0 316 -90.5t202 -245.5z
M639 1432l260 159l90 -118l-344 -256h-12l-344 256l90 120z" />
    <glyph glyph-name="Dcaron" unicode="&#x10e;" horiz-adv-x="1548" 
d="M713 0h-574v1434h574q317 0 530 -207q215 -206 215 -510t-215 -510q-213 -207 -530 -207zM713 1221h-344v-1008h344q215 0 360 145q146 146 146 359q0 212 -146 358t-360 146zM532 1563l-344 254l91 120l260 -159l260 157l90 -118l-344 -254h-13z" />
    <glyph glyph-name="dcaron" unicode="&#x10f;" horiz-adv-x="1556" 
d="M604 1092q215 0 354 -154v598h213v-1536h-213v127q-139 -154 -354 -154q-224 0 -375 160q-149 158 -149 399q0 242 149 400q151 160 375 160zM1290 1450q0 48 33 80.5t84 32.5q56 0 92.5 -42.5t36.5 -109.5q0 -153 -180 -254l-2 -2l-56 59l25 21q20 14 43 45.5t23 52.5
q-42 6 -70.5 39.5t-28.5 77.5zM862 778q-94 101 -233 101q-140 0 -234 -101q-94 -98 -94 -246q0 -146 94 -247q95 -99 234 -99t233 99q96 104 96 247q0 145 -96 246z" />
    <glyph glyph-name="Dcroat" unicode="&#x110;" horiz-adv-x="1583" 
d="M20 618v197h154v619h574q317 0 530 -207t213 -510t-213 -510t-530 -207h-574v618h-154zM403 1221v-406h412v-197h-412v-405h345q215 0 360 145t145 359q0 213 -145 358q-146 146 -360 146h-345z" />
    <glyph glyph-name="dslash" unicode="&#x111;" horiz-adv-x="1298" 
d="M604 1092q206 0 354 -142v250h-372v162h372v174h213v-174h111v-162h-111v-1200h-213v115q-148 -142 -354 -142q-224 0 -375 160q-149 158 -149 399q0 242 149 400q151 160 375 160zM627 879q-138 0 -232 -101q-94 -98 -94 -246q0 -146 94 -247q95 -99 232 -99
q139 0 233 99q94 101 94 247q0 148 -94 246q-94 101 -233 101z" />
    <glyph glyph-name="Emacron" unicode="&#x112;" horiz-adv-x="1269" 
d="M139 1434h1045v-213h-815v-390h706v-213h-706v-405h825v-213h-1055v1434zM350 1612v180h615v-180h-615z" />
    <glyph glyph-name="emacron" unicode="&#x113;" horiz-adv-x="1249" 
d="M1184 455h-885q25 -125 122 -204t230 -79q180 0 283 133l209 -63q-74 -126 -204 -197.5t-288 -71.5q-242 0 -407 160q-164 159 -164 399q0 239 158 400q160 160 397 160q236 0 393 -160q160 -160 160 -400q0 -7 -4 -77zM301 625h668q-29 119 -122.5 193.5t-217.5 74.5
q-117 0 -208 -74.5t-120 -193.5zM944 1268h-614v178h614v-178z" />
    <glyph glyph-name="Ebreve" unicode="&#x114;" horiz-adv-x="1269" 
d="M1194 0h-1055v1434h1045v-213h-815v-390h706v-213h-706v-405h825v-213zM338 1855h170q0 -72 42.5 -117.5t108.5 -45.5q64 0 106 46t42 117h170q0 -136 -92 -225q-90 -90 -228 -90q-136 0 -229 90q-90 90 -90 225z" />
    <glyph glyph-name="ebreve" unicode="&#x115;" horiz-adv-x="1249" 
d="M1184 455h-885q25 -125 122 -204t230 -79q180 0 283 133l209 -63q-74 -126 -204 -197.5t-288 -71.5q-242 0 -407 160q-164 159 -164 399q0 239 158 400q160 160 397 160q236 0 393 -160q160 -160 160 -400q0 -7 -4 -77zM301 625h668q-29 119 -122.5 193.5t-217.5 74.5
q-117 0 -208 -74.5t-120 -193.5zM317 1511h170q0 -72 43 -117.5t109 -45.5q63 0 105 46t42 117h170q0 -135 -92 -227q-90 -90 -227 -90q-136 0 -229 90q-91 94 -91 227z" />
    <glyph glyph-name="Edotaccent" unicode="&#x116;" horiz-adv-x="1269" 
d="M139 1434h1045v-213h-815v-390h706v-213h-706v-405h825v-213h-1055v1434zM516 1696q0 60 40 99.5t101 39.5q60 0 100 -39.5t40 -99.5q0 -61 -40 -101.5t-100 -40.5q-61 0 -101 40t-40 102z" />
    <glyph glyph-name="edotaccent" unicode="&#x117;" horiz-adv-x="1249" 
d="M1184 455h-885q25 -125 122 -204t230 -79q180 0 283 133l209 -63q-74 -126 -204 -197.5t-288 -71.5q-242 0 -407 160q-164 159 -164 399q0 239 158 400q160 160 397 160q236 0 393 -160q160 -160 160 -400q0 -7 -4 -77zM301 625h668q-29 119 -122.5 193.5t-217.5 74.5
q-117 0 -208 -74.5t-120 -193.5zM496 1350q0 62 40 101.5t101 39.5q60 0 99.5 -40t39.5 -101q0 -60 -39.5 -100t-99.5 -40q-61 0 -101 40t-40 100z" />
    <glyph glyph-name="Eogonek" unicode="&#x118;" horiz-adv-x="1269" 
d="M975 0h-836v1434h1045v-213h-815v-390h706v-213h-706v-405h825v-213h-57l-35 -31q-20 -21 -55 -73q-33 -50 -33 -97q0 -36 22.5 -57t55.5 -21q24 0 51.5 12t40.5 25l14 15l76 -90q-11 -15 -31 -29q-20 -20 -78 -47q-60 -31 -118 -31q-86 0 -143.5 52t-57.5 130
q0 53 30 114t66 95z" />
    <glyph glyph-name="eogonek" unicode="&#x119;" horiz-adv-x="1249" 
d="M80 532q0 239 158 400q160 160 397 160q236 0 393 -160q160 -160 160 -400q0 -7 -4 -77h-885q25 -125 122 -204t230 -79q180 0 283 133l209 -63q-127 -210 -369 -256q-108 -102 -108 -187q0 -36 22 -57t55 -21q25 0 52.5 12t40.5 25l14 15l76 -90q-11 -15 -31 -29
q-20 -20 -78 -47q-60 -31 -119 -31q-85 0 -141.5 52t-56.5 130q0 107 104 217q-226 15 -377 172q-147 156 -147 385zM629 893q-117 0 -208 -74.5t-120 -193.5h668q-29 119 -122.5 193.5t-217.5 74.5z" />
    <glyph glyph-name="Ecaron" unicode="&#x11a;" horiz-adv-x="1269" 
d="M139 1434h1045v-213h-815v-390h706v-213h-706v-405h825v-213h-1055v1434zM649 1563l-344 254l90 120l260 -159l260 157l91 -118l-342 -254h-15z" />
    <glyph glyph-name="ecaron" unicode="&#x11b;" horiz-adv-x="1249" 
d="M1184 455h-885q25 -125 122 -204t230 -79q180 0 283 133l209 -63q-74 -126 -204 -197.5t-288 -71.5q-242 0 -407 160q-164 159 -164 399q0 239 158 400q160 160 397 160q236 0 393 -160q160 -160 160 -400q0 -7 -4 -77zM301 625h668q-29 119 -122.5 193.5t-217.5 74.5
q-117 0 -208 -74.5t-120 -193.5zM635 1432l260 159l90 -118l-342 -256h-14l-342 256l88 120z" />
    <glyph glyph-name="Gcircumflex" unicode="&#x11c;" horiz-adv-x="1660" 
d="M848 1460q220 0 397 -104t271 -285l-224 -82q-66 116 -184 183t-260 67q-222 0 -371 -149q-147 -150 -147 -373q0 -224 143 -373t352 -149q173 0 308 102q133 100 174 266h-508v213h768q4 -54 4 -65q-3 -315 -215 -527q-211 -211 -525 -211q-315 0 -528 213
q-211 211 -211 531q0 318 215 530q219 213 541 213zM827 1722l-260 -161l-90 120l344 256h13l344 -256l-91 -118z" />
    <glyph glyph-name="gcircumflex" unicode="&#x11d;" horiz-adv-x="1298" 
d="M604 1092q206 0 354 -142v115h213v-1028q0 -224 -155 -373q-154 -151 -377 -151q-163 0 -307 84q-140 82 -199 215l215 63q35 -66 113 -107.5t170 -41.5q137 0 233 90q94 88 94 221v78q-148 -142 -354 -142q-224 0 -375 160q-149 158 -149 399q0 242 149 400
q151 160 375 160zM627 879q-138 0 -232 -101q-94 -98 -94 -246q0 -146 94 -247q95 -99 232 -99q139 0 233 99q94 101 94 247q0 148 -94 246q-94 101 -233 101zM631 1376l-260 -159l-90 120l344 254h12l342 -254l-88 -118z" />
    <glyph glyph-name="Gbreve" unicode="&#x11e;" horiz-adv-x="1660" 
d="M848 1460q220 0 397 -104t271 -285l-224 -82q-66 116 -184 183t-260 67q-222 0 -371 -149q-147 -150 -147 -373q0 -224 143 -373t352 -149q173 0 308 102q133 100 174 266h-508v213h768q4 -54 4 -65q-3 -315 -215 -527q-211 -211 -525 -211q-315 0 -528 213
q-211 211 -211 531q0 318 215 530q219 213 541 213zM508 1855h170q0 -70 42.5 -116.5t108.5 -46.5t108 45.5t42 117.5h170q0 -136 -92 -225q-93 -90 -230 -90q-136 0 -229 90q-90 90 -90 225z" />
    <glyph glyph-name="gbreve" unicode="&#x11f;" horiz-adv-x="1298" 
d="M604 -27q-224 0 -375 160q-149 158 -149 399q0 242 149 400q151 160 375 160q206 0 354 -142v115h213v-1028q0 -224 -155 -373q-154 -151 -377 -151q-163 0 -307 84q-140 82 -199 215l215 63q35 -66 113 -107.5t170 -41.5q137 0 233 90q94 88 94 221v78
q-148 -142 -354 -142zM627 879q-138 0 -232 -101q-94 -98 -94 -246q0 -146 94 -247q95 -99 232 -99q139 0 233 99q94 101 94 247q0 148 -94 246q-94 101 -233 101zM311 1511h170q0 -69 43 -116t109 -47q63 0 105 46t42 117h170q0 -135 -92 -227q-90 -90 -227 -90t-230 90
q-90 93 -90 227z" />
    <glyph glyph-name="Gdotaccent" unicode="&#x120;" horiz-adv-x="1660" 
d="M848 1460q220 0 397 -104t271 -285l-224 -82q-66 116 -184 183t-260 67q-222 0 -371 -149q-147 -150 -147 -373q0 -224 143 -373t352 -149q173 0 308 102q133 100 174 266h-508v213h768q4 -54 4 -65q-3 -315 -215 -527q-211 -211 -525 -211q-315 0 -528 213
q-211 211 -211 531q0 318 215 530q219 213 541 213zM688 1696q0 60 39.5 99.5t99.5 39.5q61 0 101.5 -39.5t40.5 -99.5q0 -62 -40.5 -102t-101.5 -40q-60 0 -99.5 40.5t-39.5 101.5z" />
    <glyph glyph-name="gdotaccent" unicode="&#x121;" horiz-adv-x="1298" 
d="M604 1092q206 0 354 -142v115h213v-1028q0 -224 -155 -373q-154 -151 -377 -151q-163 0 -307 84q-140 82 -199 215l215 63q35 -66 113 -107.5t170 -41.5q137 0 233 90q94 88 94 221v78q-148 -142 -354 -142q-224 0 -375 160q-149 158 -149 399q0 242 149 400
q151 160 375 160zM627 879q-138 0 -232 -101q-94 -98 -94 -246q0 -146 94 -247q95 -99 232 -99q139 0 233 99q94 101 94 247q0 148 -94 246q-94 101 -233 101zM489 1350q0 61 41 101t101 40t100.5 -40t40.5 -101q0 -60 -40.5 -100t-100.5 -40t-101 40t-41 100z" />
    <glyph glyph-name="uni0122" unicode="&#x122;" horiz-adv-x="1660" 
d="M848 1460q220 0 397 -104t271 -285l-224 -82q-66 116 -184 183t-260 67q-222 0 -371 -149q-147 -150 -147 -373q0 -224 143 -373t352 -149q173 0 308 102q133 100 174 266h-508v213h768q4 -54 4 -65q-3 -315 -215 -527q-211 -211 -525 -211q-315 0 -528 213
q-211 211 -211 531q0 318 215 530q219 213 541 213zM985 -264q0 -148 -182 -256l-55 57l24 23q19 13 42.5 45t23.5 51q-42 6 -70.5 39.5t-28.5 77.5q0 50 33 82t84 32q56 0 92.5 -42t36.5 -109z" />
    <glyph glyph-name="uni0123" unicode="&#x123;" horiz-adv-x="1298" 
d="M604 -27q-224 0 -375 160q-149 158 -149 399q0 242 149 400q151 160 375 160q206 0 354 -142v115h213v-1028q0 -224 -155 -373q-154 -151 -377 -151q-163 0 -307 84q-140 82 -199 215l215 63q35 -66 113 -107.5t170 -41.5q137 0 233 90q94 88 94 221v78
q-148 -142 -354 -142zM627 879q-138 0 -232 -101q-94 -98 -94 -246q0 -146 94 -247q95 -99 232 -99q139 0 233 99q94 101 94 247q0 148 -94 246q-94 101 -233 101zM504 1341q0 45 18.5 88t43.5 71.5t53.5 51.5t45 33t21.5 12l55 -57q-3 -3 -12.5 -10t-13.5 -10
q-19 -17 -41.5 -48t-22.5 -51q42 -6 70.5 -39t28.5 -77q0 -48 -33.5 -81.5t-83.5 -33.5q-56 0 -92.5 42t-36.5 109z" />
    <glyph glyph-name="Hcircumflex" unicode="&#x124;" horiz-adv-x="1515" 
d="M369 0h-230v1434h230v-603h776v603h231v-1434h-231v618h-776v-618zM496 1561l-88 120l342 256h14l342 -256l-88 -118l-262 159z" />
    <glyph glyph-name="hcircumflex" unicode="&#x125;" horiz-adv-x="1253" 
d="M340 610v-610h-213v1536h213v-627q121 183 356 183q188 0 310 -119t122 -299v-674h-213v612q0 121 -79 197q-80 80 -201 80q-125 0 -211 -80q-84 -81 -84 -199zM238 1806l-261 -159l-90 120l344 254h15l342 -254l-90 -118z" />
    <glyph glyph-name="Hbar" unicode="&#x126;" horiz-adv-x="1548" 
d="M1376 1434v-215h152v-195h-152v-1024h-231v618h-776v-618h-230v1024h-119v195h119v215h230v-215h776v215h231zM1145 831v193h-776v-193h776z" />
    <glyph glyph-name="hbar" unicode="&#x127;" horiz-adv-x="1253" 
d="M340 1536v-174h371v-162h-371v-291q121 183 356 183q188 0 310 -119t122 -299v-674h-213v612q0 121 -79 197q-80 80 -201 80q-125 0 -211 -80q-84 -81 -84 -199v-610h-213v1200h-113v162h113v174h213z" />
    <glyph glyph-name="Itilde" unicode="&#x128;" horiz-adv-x="507" 
d="M369 0h-230v1434h230v-1434zM94 1593h-168q0 94 66 160q65 68 153 68q63 0 121 -43t82 -43q27 0 46.5 21.5t19.5 53.5h168q0 -94 -64 -161q-66 -66 -153 -66q-63 0 -121 43t-82 43q-29 0 -48.5 -22t-19.5 -54z" />
    <glyph glyph-name="itilde" unicode="&#x129;" horiz-adv-x="483" 
d="M348 0h-213v1065h213v-1065zM82 1247h-168q0 94 66 160q65 68 153 68q63 0 121 -43t82 -43q27 0 46 21.5t19 55.5h168q0 -97 -63 -163t-154 -66q-63 0 -121 43t-81 43q-29 0 -48.5 -22t-19.5 -54z" />
    <glyph glyph-name="Imacron" unicode="&#x12a;" horiz-adv-x="507" 
d="M369 0h-230v1434h230v-1434zM561 1612h-614v180h614v-180z" />
    <glyph glyph-name="imacron" unicode="&#x12b;" horiz-adv-x="466" 
d="M340 0h-213v1065h213v-1065zM-74 1268v178h615v-178h-615z" />
    <glyph glyph-name="Ibreve" unicode="&#x12c;" horiz-adv-x="507" 
d="M369 0h-230v1434h230v-1434zM-66 1855h170q0 -69 43 -116t109 -47q63 0 105 46t42 117h170q0 -136 -92 -225q-90 -90 -227 -90q-136 0 -229 90q-91 91 -91 225z" />
    <glyph glyph-name="ibreve" unicode="&#x12d;" horiz-adv-x="466" 
d="M340 0h-213v1065h213v-1065zM-86 1511h170q0 -69 43 -116t109 -47q63 0 105 46t42 117h170q0 -135 -92 -227q-90 -90 -228 -90q-136 0 -229 90q-90 93 -90 227z" />
    <glyph glyph-name="Iogonek" unicode="&#x12e;" horiz-adv-x="507" 
d="M57 -242q0 53 30.5 114t66.5 95l32 33h-47v1434h230v-1434h-21l-35 -31q-21 -21 -55 -73q-35 -53 -35 -97q0 -72 68 -78q71 0 117 52l75 -90q-12 -16 -30 -29q-20 -20 -78 -47q-60 -31 -119 -31q-85 0 -142 52t-57 130z" />
    <glyph glyph-name="iogonek" unicode="&#x12f;" horiz-adv-x="466" 
d="M238 -424q-86 0 -142.5 52t-56.5 130q0 53 30 114t66 95l33 33h-41v1065h213v-1065h-12l-35 -31q-20 -21 -55 -73q-33 -50 -33 -97q0 -36 22.5 -57t55.5 -21q24 0 51.5 11.5t42.5 25.5l12 15l76 -90q-11 -15 -31 -29q-20 -20 -78 -47q-60 -31 -118 -31zM233 1464
q55 0 94.5 -34.5t45.5 -88.5q2 -4 2 -18q3 -44 -23.5 -79.5t-64.5 -51t-81.5 -8.5t-72.5 39q-30 29 -36.5 72.5t8.5 81.5t49.5 64t78.5 23z" />
    <glyph glyph-name="Idot" unicode="&#x130;" horiz-adv-x="507" 
d="M369 0h-230v1434h230v-1434zM115 1696q0 60 39.5 99.5t99.5 39.5t100.5 -39.5t40.5 -99.5q0 -61 -40.5 -101.5t-100.5 -40.5t-99.5 40.5t-39.5 101.5z" />
    <glyph glyph-name="dotlessi" unicode="&#x131;" horiz-adv-x="466" 
d="M340 0h-213v1065h213v-1065z" />
    <glyph glyph-name="IJ" unicode="&#x132;" horiz-adv-x="1712" 
d="M369 0h-230v1434h230v-1434zM1589 1434v-916q0 -234 -162 -389q-159 -156 -401 -156q-153 0 -278 66t-199 182l192 123q41 -73 119 -115.5t170 -42.5q145 0 240 95q98 94 98 237v916h221z" />
    <glyph glyph-name="ij" unicode="&#x133;" horiz-adv-x="948" 
d="M340 0h-213v1065h213v-1065zM133 1223q-38 41 -38 100t38 100q41 41 100.5 41t100.5 -41t41 -100t-41 -100t-100.5 -41t-100.5 41zM608 1065h213v-1200q0 -141 -98 -232q-94 -94 -240 -94h-90v205h74q60 0 100.5 43.5t40.5 106.5v1171zM614 1223q-38 41 -38 100t38 100
q41 41 100.5 41t100.5 -41t41 -100t-41 -100t-100.5 -41t-100.5 41z" />
    <glyph glyph-name="Jcircumflex" unicode="&#x134;" horiz-adv-x="1204" 
d="M1081 1434v-916q0 -235 -161 -389q-159 -156 -402 -156q-153 0 -278 66t-199 182l190 123q43 -74 120.5 -116t170.5 -42q145 0 240 95q98 94 98 237v916h221zM963 1722l-261 -161l-90 120l344 256h13l342 -256l-88 -118z" />
    <glyph glyph-name="jcircumflex" unicode="&#x135;" horiz-adv-x="481" 
d="M141 1065h213v-1200q0 -141 -98 -232q-98 -94 -242 -94h-90v205h74q61 0 102 43.5t41 106.5v1171zM248 1376l-260 -159l-90 120l344 254h12l344 -254l-90 -118z" />
    <glyph glyph-name="uni0136" unicode="&#x136;" horiz-adv-x="1329" 
d="M139 0v1434h230v-686l600 686h293l-613 -701l654 -733h-293l-641 719v-719h-230zM662 -344q-43 6 -72 40t-29 77q0 49 34 81.5t85 32.5q56 0 91.5 -42t35.5 -109q0 -48 -19.5 -92.5t-51 -76t-53.5 -49t-44 -30.5l-12 -8l-58 57q93 72 93 119z" />
    <glyph glyph-name="uni0137" unicode="&#x137;" horiz-adv-x="1075" 
d="M340 0h-213v1536h213v-963l401 492h260l-417 -514l463 -551h-263l-444 528v-528zM438 -227q0 50 33 82t84 32q56 0 92.5 -42t36.5 -109q0 -148 -182 -256l-56 57l25 23q19 13 42.5 45t23.5 51q-42 6 -70.5 39.5t-28.5 77.5z" />
    <glyph glyph-name="Lacute" unicode="&#x139;" horiz-adv-x="1173" 
d="M1118 0h-979v1434h230v-1221h749v-213zM86 1694l397 252l99 -193l-422 -190z" />
    <glyph glyph-name="lacute" unicode="&#x13a;" horiz-adv-x="466" 
d="M340 0h-213v1536h213v-1536zM143 1647l-73 133l397 250l98 -191z" />
    <glyph glyph-name="uni013B" unicode="&#x13b;" horiz-adv-x="1173" 
d="M139 0v1434h230v-1221h749v-213h-979zM522 -227q0 50 33 82t84 32q56 0 92.5 -42t36.5 -109q0 -148 -182 -256l-56 57l25 23q19 13 42.5 45t23.5 51q-42 6 -70.5 39.5t-28.5 77.5z" />
    <glyph glyph-name="uni013C" unicode="&#x13c;" horiz-adv-x="466" 
d="M340 0h-213v1536h213v-1536zM358 -264q0 -48 -20 -92t-52.5 -76t-54 -49t-43.5 -31l-12 -8l-55 57l24 23q19 13 42.5 45t23.5 51q-41 6 -69.5 39.5t-28.5 77.5q0 50 32.5 82t83.5 32q56 0 92.5 -42t36.5 -109z" />
    <glyph glyph-name="Lcaron" unicode="&#x13d;" horiz-adv-x="1173" 
d="M139 0v1434h230v-1221h749v-213h-979zM639 1348q0 47 34 79.5t83 32.5q57 0 93 -42t36 -109q0 -153 -180 -254l-3 -2l-55 59l25 21q20 14 42.5 45.5t22.5 52.5q-41 6 -69.5 39.5t-28.5 77.5z" />
    <glyph glyph-name="lcaron" unicode="&#x13e;" horiz-adv-x="724" 
d="M340 0h-213v1536h213v-1536zM459 1450q0 48 34 80.5t85 32.5q56 0 91.5 -42.5t35.5 -109.5q0 -48 -19.5 -92.5t-51 -76t-53.5 -49t-44 -30.5l-13 -8l-57 59l25 21q20 14 43.5 45.5t23.5 52.5q-42 6 -71 40t-29 77z" />
    <glyph glyph-name="Ldot" unicode="&#x13f;" horiz-adv-x="1173" 
d="M139 0v1434h230v-1221h749v-213h-979zM942 614q-38 -38 -100 -38t-103 38q-41 41 -41 102.5t41 102.5t103 41t100 -41q41 -41 41 -102.5t-41 -102.5z" />
    <glyph glyph-name="ldot" unicode="&#x140;" horiz-adv-x="919" 
d="M340 0h-213v1536h213v-1536zM694 860q60 0 101 -41t41 -102t-41 -101.5t-101 -40.5q-62 0 -102.5 40.5t-40.5 101.5t40.5 102t102.5 41z" />
    <glyph glyph-name="Lslash" unicode="&#x141;" horiz-adv-x="1239" 
d="M205 461l-84 -51l-98 168l182 110v746h229v-605l256 156l98 -168l-354 -217v-387h750v-213h-979v461z" />
    <glyph glyph-name="lslash" unicode="&#x142;" horiz-adv-x="466" 
d="M340 1536v-670l127 74v-186l-127 -74v-680h-213v559l-127 -74v187l127 73v791h213z" />
    <glyph glyph-name="Nacute" unicode="&#x143;" horiz-adv-x="1523" 
d="M139 0v1434h203l821 -1039v1039h221v-1434h-202l-822 1038v-1038h-221zM1094 1753l-422 -190l-74 131l397 252z" />
    <glyph glyph-name="nacute" unicode="&#x144;" horiz-adv-x="1239" 
d="M340 610v-610h-213v1065h213v-156q118 183 350 183q184 0 303 -119q121 -121 121 -299v-674h-213v612q0 119 -78 198t-196 79q-122 0 -205 -80q-82 -79 -82 -199zM961 1409l-422 -192l-72 133l395 249z" />
    <glyph glyph-name="uni0145" unicode="&#x145;" horiz-adv-x="1523" 
d="M360 0h-221v1434h203l821 -1039v1039h221v-1434h-202l-822 1038v-1038zM752 -344q-42 6 -70.5 39.5t-28.5 77.5q0 50 33 82t84 32q56 0 92.5 -42t36.5 -109q0 -148 -182 -256l-55 57l24 23q19 13 42.5 45t23.5 51z" />
    <glyph glyph-name="uni0146" unicode="&#x146;" horiz-adv-x="1239" 
d="M340 0h-213v1065h213v-156q118 183 350 183q184 0 303 -119q121 -121 121 -299v-674h-213v612q0 119 -78 198t-196 79q-122 0 -205 -80q-82 -79 -82 -199v-610zM616 -344q-41 6 -69.5 39.5t-28.5 77.5q0 50 33 82t84 32q56 0 92.5 -42t36.5 -109q0 -148 -182 -256l-56 57
l25 23q19 13 42 45t23 51z" />
    <glyph glyph-name="Ncaron" unicode="&#x147;" horiz-adv-x="1523" 
d="M360 0h-221v1434h203l821 -1039v1039h221v-1434h-202l-822 1038v-1038zM756 1563l-344 254l90 120l260 -159l260 157l90 -118l-344 -254h-12z" />
    <glyph glyph-name="ncaron" unicode="&#x148;" horiz-adv-x="1239" 
d="M127 0v1065h213v-156q118 183 350 183q184 0 303 -119q121 -121 121 -299v-674h-213v612q0 119 -78 198t-196 79q-122 0 -205 -80q-82 -79 -82 -199v-610h-213zM637 1217h-14l-342 256l88 120l260 -161l262 159l88 -118z" />
    <glyph glyph-name="Eng" unicode="&#x14a;" horiz-adv-x="1523" 
d="M1163 1434h221v-1377q0 -235 -161 -389q-158 -155 -402 -155l2 213q135 0 230 86q96 84 108 215l-801 1009v-1036h-221v1434h203l821 -1039v1039z" />
    <glyph glyph-name="eng" unicode="&#x14b;" horiz-adv-x="1239" 
d="M127 0v1065h213v-156q118 183 350 183q184 0 303 -119q121 -121 121 -299v-809q0 -141 -98 -232q-94 -94 -242 -94h-88v205h74q60 0 100.5 43.5t40.5 106.5v718q0 119 -78 198t-196 79q-122 0 -205 -80q-82 -79 -82 -199v-610h-213z" />
    <glyph glyph-name="Omacron" unicode="&#x14c;" horiz-adv-x="1671" 
d="M305 186q-213 213 -213 531q0 317 213 530t531 213q317 0 530 -213q215 -212 215 -530q0 -319 -215 -531q-213 -213 -530 -213q-318 0 -531 213zM836 195q217 0 360 149q145 151 145 373t-145 373q-143 149 -360 149q-218 0 -361 -149q-145 -151 -145 -373t145 -373
q143 -149 361 -149zM1143 1612h-615v180h615v-180z" />
    <glyph glyph-name="omacron" unicode="&#x14d;" horiz-adv-x="1280" 
d="M240 133q-160 160 -160 399q0 240 160 400t399 160t399 -160q162 -158 162 -400q0 -241 -162 -399q-160 -160 -399 -160t-399 160zM639 186q147 0 242 99q98 101 98 247q0 148 -98 246q-94 101 -242 101q-144 0 -242 -101q-96 -101 -96 -246q0 -143 96 -247
q99 -99 242 -99zM948 1268h-616v178h616v-178z" />
    <glyph glyph-name="Obreve" unicode="&#x14e;" horiz-adv-x="1671" 
d="M305 186q-213 213 -213 531q0 317 213 530t531 213q317 0 530 -213q215 -212 215 -530q0 -319 -215 -531q-213 -213 -530 -213q-318 0 -531 213zM836 195q217 0 360 149q145 151 145 373t-145 373q-143 149 -360 149q-218 0 -361 -149q-145 -151 -145 -373t145 -373
q143 -149 361 -149zM516 1855h170q0 -69 43 -116t109 -47q63 0 105 46t42 117h170q0 -136 -92 -225q-90 -90 -227 -90t-230 90q-90 90 -90 225z" />
    <glyph glyph-name="obreve" unicode="&#x14f;" horiz-adv-x="1280" 
d="M240 133q-160 160 -160 399q0 240 160 400t399 160t399 -160q162 -158 162 -400q0 -241 -162 -399q-160 -160 -399 -160t-399 160zM639 186q147 0 242 99q98 101 98 247q0 148 -98 246q-94 101 -242 101q-144 0 -242 -101q-96 -101 -96 -246q0 -143 96 -247
q99 -99 242 -99zM319 1511h170q0 -69 43 -116t109 -47t108 45.5t42 117.5h170q0 -134 -93 -227q-93 -90 -229 -90t-229 90q-91 94 -91 227z" />
    <glyph glyph-name="Ohungarumlaut" unicode="&#x150;" horiz-adv-x="1671" 
d="M305 186q-213 213 -213 531q0 317 213 530t531 213q317 0 530 -213q215 -212 215 -530q0 -319 -215 -531q-213 -213 -530 -213q-318 0 -531 213zM836 195q217 0 360 149q145 151 145 373t-145 373q-143 149 -360 149q-218 0 -361 -149q-145 -151 -145 -373t145 -373
q143 -149 361 -149zM639 1536l-109 104l285 334l150 -153zM1040 1536l-108 104l285 334l149 -153z" />
    <glyph glyph-name="ohungarumlaut" unicode="&#x151;" horiz-adv-x="1280" 
d="M240 133q-160 160 -160 399q0 240 160 400t399 160t399 -160q162 -158 162 -400q0 -241 -162 -399q-160 -160 -399 -160t-399 160zM639 186q147 0 242 99q98 101 98 247q0 148 -98 246q-94 101 -242 101q-144 0 -242 -101q-96 -101 -96 -246q0 -143 96 -247
q99 -99 242 -99zM442 1190l-108 104l284 336l152 -153zM844 1190l-109 104l285 336l151 -153z" />
    <glyph glyph-name="OE" unicode="&#x152;" horiz-adv-x="2480" 
d="M836 -27q-318 0 -531 213t-213 531q0 317 213 530t531 213q310 0 524 -205v179h1036v-213h-805v-390h695v-213h-695v-405h815v-213h-1046v178q-214 -205 -524 -205zM836 195q217 0 360 149q145 151 145 373t-145 373q-143 149 -360 149q-218 0 -361 -149
q-145 -151 -145 -373t145 -373q143 -149 361 -149z" />
    <glyph glyph-name="oe" unicode="&#x153;" horiz-adv-x="2146" 
d="M639 1092q140 0 258.5 -58t194.5 -162q74 103 192 161.5t254 58.5q234 0 391 -160q158 -161 158 -400q0 -36 -6 -77h-883q25 -125 122 -204t230 -79q180 0 283 133l207 -63q-73 -126 -201 -197.5t-285 -71.5q-141 0 -262 59t-200 163q-76 -104 -195.5 -163t-257.5 -59
q-239 0 -399 160t-160 399q0 240 160 400t399 160zM639 186q147 0 242 99q98 101 98 247q0 148 -98 246q-94 101 -242 101q-144 0 -242 -101q-96 -101 -96 -246q0 -143 96 -247q99 -99 242 -99zM1200 625h666q-29 119 -122.5 193.5t-215.5 74.5q-118 0 -208.5 -74.5
t-119.5 -193.5z" />
    <glyph glyph-name="Racute" unicode="&#x154;" horiz-adv-x="1386" 
d="M139 1434h656q204 0 342 -129q139 -130 139 -324q0 -140 -77.5 -252.5t-207.5 -163.5l340 -565h-258l-319 528h-385v-528h-230v1434zM795 1221h-426v-480h426q103 0 172 68.5t69 171.5t-69 171.5t-172 68.5zM938 1753l-422 -190l-72 131l396 252z" />
    <glyph glyph-name="racute" unicode="&#x155;" horiz-adv-x="755" 
d="M340 1065v-156q121 183 379 183v-238q-37 16 -92 16q-123 0 -205 -79q-82 -76 -82 -197v-594h-213v1065h213zM313 1217l-71 133l395 249l98 -190z" />
    <glyph glyph-name="uni0156" unicode="&#x156;" horiz-adv-x="1386" 
d="M139 1434h656q204 0 342 -129q139 -130 139 -324q0 -140 -77.5 -252.5t-207.5 -163.5l340 -565h-258l-319 528h-385v-528h-230v1434zM795 1221h-426v-480h426q103 0 172 68.5t69 171.5t-69 171.5t-172 68.5zM711 -344q-43 6 -72 40t-29 77q0 49 34 81.5t85 32.5
q56 0 92.5 -42t36.5 -109q0 -48 -20 -92t-52.5 -76t-54 -49t-43.5 -31l-12 -8l-55 57l24 23q19 13 42.5 45t23.5 51z" />
    <glyph glyph-name="uni0157" unicode="&#x157;" horiz-adv-x="755" 
d="M340 1065v-156q121 183 379 183v-238q-37 16 -92 16q-123 0 -205 -79q-82 -76 -82 -197v-594h-213v1065h213zM367 -264q0 -48 -20 -93t-50 -76t-55.5 -50.5t-44.5 -28.5l-11 -8l-55 57l25 23q19 13 42 45t23 51q-42 6 -71 40t-29 77q0 49 34 81.5t85 32.5q56 0 91.5 -42
t35.5 -109z" />
    <glyph glyph-name="Rcaron" unicode="&#x158;" horiz-adv-x="1386" 
d="M369 0h-230v1434h656q204 0 342 -129q139 -130 139 -324q0 -140 -77.5 -252.5t-207.5 -163.5l340 -565h-258l-319 528h-385v-528zM795 1221h-426v-480h426q103 0 172 68.5t69 171.5t-69 171.5t-172 68.5zM600 1563l-342 254l88 120l262 -159l260 157l88 -118l-342 -254
h-14z" />
    <glyph glyph-name="rcaron" unicode="&#x159;" horiz-adv-x="755" 
d="M340 1065v-156q121 183 379 183v-238q-37 16 -92 16q-123 0 -205 -79q-82 -76 -82 -197v-594h-213v1065h213zM403 1432l263 159l88 -118l-342 -256h-15l-342 256l88 120z" />
    <glyph glyph-name="Sacute" unicode="&#x15a;" horiz-adv-x="1259" 
d="M1116 1141l-227 -68q-19 71 -94.5 118.5t-176.5 47.5q-111 0 -184.5 -52.5t-73.5 -131.5q-12 -68 105 -140q20 -13 80 -32q11 -4 43 -15t45 -14l108 -31q94 -25 149.5 -46.5t125.5 -63.5q151 -91 151 -297q0 -199 -147 -322q-148 -121 -379 -121q-207 0 -358 97
q-148 100 -191 245l227 72q19 -82 108 -137t214 -55q126 0 210.5 56.5t84.5 145.5q0 59 -47 103q-40 40 -83 59t-130 43q-260 75 -344 119q-201 109 -201 317q0 188 135 305t348 117q187 0 326 -92q135 -86 176 -227zM539 1563l-74 131l397 252l99 -193z" />
    <glyph glyph-name="sacute" unicode="&#x15b;" horiz-adv-x="972" 
d="M883 821l-201 -35q-18 55 -72 87t-137 32q-77 0 -126.5 -30.5t-49.5 -83.5q0 -69 102 -107l240 -82q136 -51 199 -124.5t63 -182.5q0 -154 -112.5 -238t-296.5 -84q-181 0 -293 79.5t-136 217.5l201 31q14 -64 75.5 -102.5t156.5 -38.5q88 0 144 35t56 94q0 77 -129 123
l-237 80q-124 43 -181 110.5t-57 171.5q0 154 109 236t288 82q163 0 267 -72.5t127 -198.5zM391 1217l-74 133l398 249l98 -190z" />
    <glyph glyph-name="Scircumflex" unicode="&#x15c;" horiz-adv-x="1259" 
d="M1116 1141l-227 -68q-19 71 -94.5 118.5t-176.5 47.5q-111 0 -184.5 -52.5t-73.5 -131.5q-12 -68 105 -140q20 -13 80 -32q11 -4 43 -15t45 -14l108 -31q94 -25 149.5 -46.5t125.5 -63.5q151 -91 151 -297q0 -199 -147 -322q-148 -121 -379 -121q-207 0 -358 97
q-148 100 -191 245l227 72q19 -82 108 -137t214 -55q126 0 210.5 56.5t84.5 145.5q0 59 -47 103q-40 40 -83 59t-130 43q-260 75 -344 119q-201 109 -201 317q0 188 135 305t348 117q187 0 326 -92q135 -86 176 -227zM629 1722l-260 -161l-90 120l344 256h12l344 -256
l-90 -118z" />
    <glyph glyph-name="scircumflex" unicode="&#x15d;" horiz-adv-x="972" 
d="M883 821l-201 -35q-18 55 -72 87t-137 32q-77 0 -126.5 -30.5t-49.5 -83.5q0 -69 102 -107l240 -82q136 -51 199 -124.5t63 -182.5q0 -154 -112.5 -238t-296.5 -84q-181 0 -293 79.5t-136 217.5l201 31q14 -64 75.5 -102.5t156.5 -38.5q88 0 144 35t56 94q0 77 -129 123
l-237 80q-124 43 -181 110.5t-57 171.5q0 154 109 236t288 82q163 0 267 -72.5t127 -198.5zM481 1376l-260 -159l-90 120l344 254h12l344 -254l-90 -118z" />
    <glyph glyph-name="Scedilla" unicode="&#x15e;" horiz-adv-x="1259" 
d="M92 315l227 72q19 -82 108 -137t214 -55q126 0 210.5 56.5t84.5 145.5q0 59 -47 103q-40 40 -83 59t-130 43q-260 75 -344 119q-201 109 -201 317q0 188 135 305t348 117q187 0 326 -92q135 -86 176 -227l-227 -68q-19 71 -94.5 118.5t-176.5 47.5q-111 0 -184.5 -52.5
t-73.5 -131.5q-12 -68 105 -140q20 -13 80 -32q11 -4 43 -15t45 -14l108 -31q94 -25 149.5 -46.5t125.5 -63.5q151 -91 151 -297q0 -174 -114 -291q-116 -116 -301 -143l-19 -82q6 -1 16 -3.5t35.5 -14t45 -27t35.5 -45t16 -66.5q0 -85 -70.5 -140t-179.5 -55
q-49 0 -100 13.5t-80 29.5l-25 15l29 114q51 -45 139 -45q54 0 89.5 19.5t35.5 48.5q0 28 -39 48.5t-86 25.5l-41 4l35 153q-191 12 -324 107q-131 94 -172 233z" />
    <glyph glyph-name="scedilla" unicode="&#x15f;" horiz-adv-x="972" 
d="M403 -178l35 153q-159 12 -257 89.5t-118 205.5l201 31q14 -64 75.5 -102.5t156.5 -38.5q88 0 144 35t56 94q0 77 -129 123l-237 80q-124 43 -181 110.5t-57 171.5q0 154 109 236t288 82q163 0 267 -72.5t127 -198.5l-201 -35q-18 55 -72 87t-137 32q-77 0 -126.5 -30.5
t-49.5 -83.5q0 -69 102 -107l240 -82q136 -51 199 -124.5t63 -182.5q0 -128 -79.5 -208t-219.5 -105l-18 -82q6 -1 15.5 -3.5t34.5 -14t44.5 -27t35 -45t15.5 -66.5q0 -85 -70.5 -140t-179.5 -55q-47 0 -98 13.5t-80 29.5l-25 15l29 114q51 -45 139 -45q54 0 89.5 19.5
t35.5 48.5t-38 49t-85 25z" />
    <glyph glyph-name="Scaron" unicode="&#x160;" horiz-adv-x="1259" 
d="M1116 1141l-227 -68q-19 71 -94.5 118.5t-176.5 47.5q-111 0 -184.5 -52.5t-73.5 -131.5q-12 -68 105 -140q20 -13 80 -32q11 -4 43 -15t45 -14l108 -31q94 -25 149.5 -46.5t125.5 -63.5q151 -91 151 -297q0 -199 -147 -322q-148 -121 -379 -121q-207 0 -358 97
q-148 100 -191 245l227 72q19 -82 108 -137t214 -55q126 0 210.5 56.5t84.5 145.5q0 59 -47 103q-40 40 -83 59t-130 43q-260 75 -344 119q-201 109 -201 317q0 188 135 305t348 117q187 0 326 -92q135 -86 176 -227zM629 1778l260 157l90 -118l-344 -254h-12l-344 254
l90 120z" />
    <glyph glyph-name="scaron" unicode="&#x161;" horiz-adv-x="972" 
d="M883 821l-201 -35q-18 55 -72 87t-137 32q-77 0 -126.5 -30.5t-49.5 -83.5q0 -69 102 -107l240 -82q136 -51 199 -124.5t63 -182.5q0 -154 -112.5 -238t-296.5 -84q-181 0 -293 79.5t-136 217.5l201 31q14 -64 75.5 -102.5t156.5 -38.5q88 0 144 35t56 94q0 77 -129 123
l-237 80q-124 43 -181 110.5t-57 171.5q0 154 109 236t288 82q163 0 267 -72.5t127 -198.5zM481 1432l260 159l90 -118l-344 -256h-12l-344 256l90 120z" />
    <glyph glyph-name="uni0162" unicode="&#x162;" horiz-adv-x="1347" 
d="M559 0v1221h-506v213h1241v-213h-506v-1221h-229zM664 -344q-43 6 -72 40t-29 77q0 49 34 81.5t85 32.5q56 0 92.5 -42t36.5 -109q0 -48 -20.5 -93t-51 -76t-55.5 -50t-45 -29l-10 -8l-56 57l25 23q19 13 42.5 45t23.5 51z" />
    <glyph glyph-name="uni0163" unicode="&#x163;" horiz-adv-x="741" 
d="M25 879v186h161v211h213v-211h283v-186h-283v-525q0 -63 41.5 -106t102.5 -43h139v-205h-156q-141 0 -241 92q-99 95 -99 234v553h-161zM557 -264q0 -48 -20.5 -93t-51 -76t-55.5 -50t-45 -29l-10 -8l-56 57l25 23q19 13 42.5 45t23.5 51q-42 6 -70.5 39.5t-28.5 77.5
q0 50 33 82t84 32q56 0 92.5 -42t36.5 -109z" />
    <glyph glyph-name="Tcaron" unicode="&#x164;" horiz-adv-x="1347" 
d="M53 1434h1241v-213h-506v-1221h-229v1221h-506v213zM680 1563h-14l-342 254l88 120l262 -159l260 157l88 -118z" />
    <glyph glyph-name="tcaron" unicode="&#x165;" horiz-adv-x="780" 
d="M25 879v186h161v211h213v-211h283v-186h-283v-525q0 -63 41.5 -106t102.5 -43h139v-205h-156q-141 0 -241 92q-99 95 -99 234v553h-161zM743 1374q0 -153 -180 -254l-2 -2l-55 58l24 20q20 16 43 47.5t23 50.5q-43 7 -70.5 41t-27.5 78q0 47 33.5 80t82.5 33
q57 0 93 -42.5t36 -109.5z" />
    <glyph glyph-name="Tbar" unicode="&#x166;" horiz-adv-x="1347" 
d="M1051 571h-263v-571h-229v571h-262v213h262v437h-506v213h1241v-213h-506v-437h263v-213z" />
    <glyph glyph-name="tbar" unicode="&#x167;" horiz-adv-x="741" 
d="M186 879h-161v186h161v211h213v-211h283v-186h-283v-217h195v-162h-195v-146q0 -63 41.5 -106t102.5 -43h139v-205h-156q-141 0 -241 92q-99 95 -99 234v174h-129v162h129v217z" />
    <glyph glyph-name="Utilde" unicode="&#x168;" horiz-adv-x="1474" 
d="M1124 573v861h232v-861q0 -256 -178 -428q-175 -172 -441 -172q-264 0 -442 172q-176 173 -176 428v861h229v-861q0 -165 111 -276q114 -111 278 -111q166 0 277 111q110 110 110 276zM575 1593h-167q0 97 63 160q65 68 156 68q63 0 121 -43q61 -43 81 -43
q27 0 46.5 21.5t19.5 53.5h168q0 -97 -62 -162t-153 -65q-65 0 -123 43t-82 43q-27 0 -47.5 -23t-20.5 -53z" />
    <glyph glyph-name="utilde" unicode="&#x169;" horiz-adv-x="1239" 
d="M125 393v672h213v-612q0 -118 78 -199q81 -78 196 -78q122 0 205 80q82 79 82 199v610h213v-1065h-213v152q-123 -179 -348 -179q-186 0 -305 119q-121 121 -121 301zM459 1247h-168q0 97 63 160q65 68 156 68q63 0 121 -43q61 -43 82 -43q27 0 46 21.5t19 55.5h168
q0 -97 -62 -163t-153 -66q-65 0 -123 43t-82 43q-26 0 -46.5 -22.5t-20.5 -53.5z" />
    <glyph glyph-name="Umacron" unicode="&#x16a;" horiz-adv-x="1474" 
d="M1124 573v861h232v-861q0 -256 -178 -428q-175 -172 -441 -172q-264 0 -442 172q-176 173 -176 428v861h229v-861q0 -165 111 -276q114 -111 278 -111q166 0 277 111q110 110 110 276zM1044 1612h-614v180h614v-180z" />
    <glyph glyph-name="umacron" unicode="&#x16b;" horiz-adv-x="1239" 
d="M551 -27q-186 0 -305 119q-121 121 -121 301v672h213v-612q0 -118 78 -199q81 -78 196 -78q122 0 205 80q82 79 82 199v610h213v-1065h-213v152q-123 -179 -348 -179zM928 1446v-178h-615v178h615z" />
    <glyph glyph-name="Ubreve" unicode="&#x16c;" horiz-adv-x="1474" 
d="M1124 573v861h232v-861q0 -256 -178 -428q-175 -172 -441 -172q-264 0 -442 172q-176 173 -176 428v861h229v-861q0 -165 111 -276q114 -111 278 -111q166 0 277 111q110 110 110 276zM418 1855h170q0 -72 42.5 -117.5t108.5 -45.5q64 0 106 46t42 117h170
q0 -136 -92 -225q-90 -90 -228 -90q-136 0 -229 90q-90 90 -90 225z" />
    <glyph glyph-name="ubreve" unicode="&#x16d;" horiz-adv-x="1239" 
d="M125 393v672h213v-612q0 -118 78 -199q81 -78 196 -78q122 0 205 80q82 79 82 199v610h213v-1065h-213v152q-123 -179 -348 -179q-186 0 -305 119q-121 121 -121 301zM301 1511h170q0 -72 43 -117.5t109 -45.5q63 0 105 46t42 117h170q0 -135 -92 -227q-90 -90 -227 -90
t-230 90q-90 93 -90 227z" />
    <glyph glyph-name="Uring" unicode="&#x16e;" horiz-adv-x="1474" 
d="M1124 573v861h232v-861q0 -256 -178 -428q-175 -172 -441 -172q-264 0 -442 172q-176 173 -176 428v861h229v-861q0 -165 111 -276q114 -111 278 -111q166 0 277 111q110 110 110 276zM506 1767q0 95 67 162q68 68 164 68q94 0 162 -68q70 -67 70 -162t-68 -163t-164 -68
t-164 68q-67 67 -67 163zM680 1825q-23 -23 -23 -57.5t23 -57.5t57.5 -23t57.5 23t23 57.5t-25 57.5q-23 23 -55.5 23t-57.5 -23z" />
    <glyph glyph-name="uring" unicode="&#x16f;" horiz-adv-x="1239" 
d="M551 -27q-186 0 -305 119q-121 121 -121 301v672h213v-612q0 -118 78 -199q81 -78 196 -78q122 0 205 80q82 79 82 199v610h213v-1065h-213v152q-123 -179 -348 -179zM784 1260q-68 -68 -163 -68q-96 0 -164 65q-68 68 -68 164t68 164t164 68t163 -70q68 -67 68 -161
t-68 -162zM678 1477q-23 25 -57.5 25t-57.5 -25q-23 -23 -23 -55.5t23 -57.5q23 -23 57.5 -23t57.5 23q23 25 23 57.5t-23 55.5z" />
    <glyph glyph-name="Uhungarumlaut" unicode="&#x170;" horiz-adv-x="1474" 
d="M1124 573v861h232v-861q0 -256 -178 -428q-175 -172 -441 -172q-264 0 -442 172q-176 173 -176 428v861h229v-861q0 -165 111 -276q114 -111 278 -111q166 0 277 111q110 110 110 276zM541 1536l-109 104l283 334l151 -153zM942 1536l-111 104l285 334l152 -153z" />
    <glyph glyph-name="uhungarumlaut" unicode="&#x171;" horiz-adv-x="1239" 
d="M125 393v672h213v-612q0 -118 78 -199q81 -78 196 -78q122 0 205 80q82 79 82 199v610h213v-1065h-213v152q-123 -179 -348 -179q-186 0 -305 119q-121 121 -121 301zM1151 1477l-326 -287l-110 104l284 336zM424 1190l-109 104l283 336l152 -153z" />
    <glyph glyph-name="Uogonek" unicode="&#x172;" horiz-adv-x="1474" 
d="M119 573v861h229v-861q0 -165 111 -276q114 -111 278 -111q166 0 277 111q110 110 110 276v861h232v-861q0 -214 -131 -376q-130 -161 -338 -207q-111 -111 -111 -191q0 -36 22.5 -57t55.5 -21q24 0 51.5 12t40.5 25l15 15l75 -90q-12 -16 -30 -29q-20 -20 -78 -47
q-60 -31 -119 -31q-85 0 -142 52t-57 130q0 100 103 215q-254 9 -426 181q-168 171 -168 419z" />
    <glyph glyph-name="uogonek" unicode="&#x173;" horiz-adv-x="1239" 
d="M125 393v672h213v-612q0 -118 78 -199q81 -78 196 -78q122 0 205 80q82 79 82 199v610h213v-1065h-14l-35 -31q-21 -21 -55 -73q-35 -53 -35 -97q0 -36 22.5 -57t55.5 -21q24 0 51.5 12t40.5 25l14 15l76 -90q-11 -15 -31 -29q-20 -20 -78 -47q-60 -31 -118 -31
q-85 0 -142 52t-57 130q0 53 31 113.5t67 95.5l31 33h-37v152q-123 -179 -348 -179q-186 0 -305 119q-121 121 -121 301z" />
    <glyph glyph-name="Wcircumflex" unicode="&#x174;" horiz-adv-x="2068" 
d="M702 0h-186l-489 1434h235l344 -1067l336 1067h186l336 -1067l342 1067h236l-490 -1434h-186l-332 1036zM1034 1722l-260 -161l-90 120l344 256h12l342 -256l-88 -118z" />
    <glyph glyph-name="wcircumflex" unicode="&#x175;" horiz-adv-x="1595" 
d="M379 0l-354 1065h215l231 -735l231 735h193l229 -735l234 735h215l-354 -1065h-191l-229 711l-232 -711h-188zM799 1376l-260 -159l-90 120l344 254h12l344 -254l-90 -118z" />
    <glyph glyph-name="Ycircumflex" unicode="&#x176;" horiz-adv-x="1390" 
d="M578 0v582l-551 852h264l399 -633l408 633h264l-555 -842v-592h-229zM434 1561l-88 120l342 256h14l342 -256l-88 -118l-262 159z" />
    <glyph glyph-name="ycircumflex" unicode="&#x177;" horiz-adv-x="1103" 
d="M440 27l-415 1038h219l303 -774l313 774h219l-501 -1227q-63 -155 -165.5 -227t-262.5 -72h-46v205h46q94 0 151 39t92 127zM291 1217l-90 120l344 254h12l344 -254l-90 -118l-260 157z" />
    <glyph glyph-name="Ydieresis" unicode="&#x178;" horiz-adv-x="1390" 
d="M578 582l-551 852h264l399 -633l408 633h264l-555 -842v-592h-229v582zM815 1782q38 38 96.5 38t96.5 -38q38 -37 38 -95t-38 -96t-96.5 -38t-96.5 38t-38 96t38 95zM481 1821q56 0 94.5 -38t38.5 -95t-38.5 -96.5t-94.5 -39.5q-59 0 -97 39t-38 97q0 57 39 95t96 38z
" />
    <glyph glyph-name="Zacute" unicode="&#x179;" horiz-adv-x="1304" 
d="M1231 213v-213h-1145v176l817 1045h-811v213h1133v-177l-817 -1044h823zM989 1753l-422 -190l-73 131l397 252z" />
    <glyph glyph-name="zacute" unicode="&#x17a;" horiz-adv-x="1030" 
d="M954 197v-197h-878v162l575 706h-565v197h858v-162l-577 -706h587zM424 1217l-72 133l398 249l98 -190z" />
    <glyph glyph-name="Zdotaccent" unicode="&#x17b;" horiz-adv-x="1304" 
d="M1231 0h-1145v176l817 1045h-811v213h1133v-177l-817 -1044h823v-213zM518 1696q0 60 40 99.5t101 39.5q60 0 100 -39.5t40 -99.5q0 -61 -40 -101.5t-100 -40.5q-61 0 -101 40t-40 102z" />
    <glyph glyph-name="zdotaccent" unicode="&#x17c;" horiz-adv-x="1030" 
d="M76 0v162l575 706h-565v197h858v-162l-577 -706h587v-197h-878zM375 1350q0 61 40.5 101t100.5 40t100.5 -40t40.5 -101q0 -60 -40.5 -100t-100.5 -40t-100.5 40t-40.5 100z" />
    <glyph glyph-name="Zcaron" unicode="&#x17d;" horiz-adv-x="1304" 
d="M1231 0h-1145v176l817 1045h-811v213h1133v-177l-817 -1044h823v-213zM651 1563l-344 254l90 120l260 -159l261 157l90 -118l-344 -254h-13z" />
    <glyph glyph-name="zcaron" unicode="&#x17e;" horiz-adv-x="1030" 
d="M954 197v-197h-878v162l575 706h-565v197h858v-162l-577 -706h587zM510 1217l-344 256l90 120l260 -161l260 159l88 -118l-342 -256h-12z" />
    <glyph glyph-name="uni018F" unicode="&#x18f;" horiz-adv-x="1671" 
d="M836 1460q317 0 530 -213q215 -212 215 -530q0 -319 -215 -531q-213 -213 -530 -213q-318 0 -531 213t-213 531q0 47 6 96h1235q-29 183 -170 305q-139 121 -327 121q-253 0 -400 -197l-227 86q99 156 264.5 244t362.5 88zM836 195q188 0 321 112q136 115 170 293h-983
q34 -178 170 -293q136 -112 322 -112z" />
    <glyph glyph-name="florin" unicode="&#x192;" horiz-adv-x="743" 
d="M-86 -461h-143l36 205h127q60 0 109 43.5t59 106.5l144 813h-170l33 188h170l57 315q21 137 135 232q113 94 260 94h143l-36 -205h-127q-60 0 -109 -43t-59 -106l-51 -287h270l-33 -188h-270l-148 -842q-24 -140 -139 -232q-113 -94 -258 -94z" />
    <glyph glyph-name="uni01DD" unicode="&#x1dd;" horiz-adv-x="1249" 
d="M66 610h882q-23 124 -120.5 203.5t-229.5 79.5q-180 0 -283 -133l-209 63q74 126 204 197.5t288 71.5q243 0 408 -160q163 -159 163 -400q0 -240 -159 -399q-157 -160 -396 -160q-235 0 -395 160q-158 161 -158 399q0 7 1 18.5t2 28.5t2 31zM946 440h-665
q29 -119 122 -193.5t215 -74.5q118 0 208.5 74.5t119.5 193.5z" />
    <glyph glyph-name="Aringacute" unicode="&#x1fa;" horiz-adv-x="1482" 
d="M395 295l-127 -295h-241l612 1415q-58 31 -93.5 87t-35.5 122q0 94 68 162q67 67 163 67q66 0 117 -32l354 223l99 -191l-350 -157q12 -34 12 -72q0 -67 -35.5 -123.5t-95.5 -85.5l614 -1415h-242l-127 295h-692zM997 508l-256 600l-256 -600h512zM684 1681
q-23 -23 -23 -57t23 -57t57.5 -23t57.5 23t23 57t-25 57q-23 23 -55.5 23t-57.5 -23z" />
    <glyph glyph-name="aringacute" unicode="&#x1fb;" horiz-adv-x="1298" 
d="M604 1092q206 0 354 -142v115h213v-1065h-213v115q-148 -142 -354 -142q-224 0 -375 160q-149 158 -149 399q0 242 149 400q151 160 375 160zM627 186q139 0 233 99q94 101 94 247q0 148 -94 246q-94 101 -233 101q-138 0 -232 -101q-94 -98 -94 -246q0 -146 94 -247
q95 -99 232 -99zM420 1421q0 97 67 164q68 68 162 68q71 0 123 -37l342 217l96 -193l-340 -153q11 -42 11 -66q0 -93 -68 -161t-164 -68t-164 68q-65 68 -65 161zM592 1477q-23 -23 -23 -55.5t23 -57.5q23 -23 57.5 -23t57.5 23t23 57.5t-23 57.5t-57.5 23t-57.5 -25z" />
    <glyph glyph-name="AEacute" unicode="&#x1fc;" horiz-adv-x="2084" 
d="M289 0h-262l913 1434h1061v-213h-741v-390h630v-213h-630v-405h751v-213h-981v295h-555zM608 508h422v670zM1495 1753l-422 -190l-74 131l398 252z" />
    <glyph glyph-name="aeacute" unicode="&#x1fd;" horiz-adv-x="2125" 
d="M604 -27q-224 0 -375 160q-149 158 -149 399q0 242 149 400q151 160 375 160q206 0 354 -142v115h213v-117q150 144 363 144q225 0 379 -160q153 -159 153 -400q0 -36 -6 -77h-882q25 -125 122 -204t230 -79q179 0 282 133l207 -63q-69 -125 -194.5 -197t-278.5 -72
q-221 0 -375 148v-121h-213v115q-148 -142 -354 -142zM627 186q139 0 233 99q94 101 94 247q0 148 -94 246q-94 101 -233 101q-138 0 -232 -101q-94 -98 -94 -246q0 -146 94 -247q95 -99 232 -99zM1180 625h665q-29 119 -122.5 193.5t-215.5 74.5q-118 0 -208 -74.5
t-119 -193.5zM1386 1409l-421 -192l-74 133l397 249z" />
    <glyph glyph-name="Oslashacute" unicode="&#x1fe;" horiz-adv-x="1671" 
d="M281 74l57 82q-246 218 -246 561q0 317 213 530t531 213q186 0 354 -82l59 82l148 -100l-60 -84q244 -218 244 -559q0 -319 -215 -531q-213 -213 -530 -213q-185 0 -351 84l-59 -84zM1202 1081l-586 -837q104 -49 220 -49q217 0 360 149q145 151 145 373q0 219 -139 364z
M473 348l586 842q-104 49 -223 49q-218 0 -361 -149q-145 -151 -145 -373q0 -223 143 -369zM745 1563l-73 131l397 252l98 -193z" />
    <glyph glyph-name="oslashacute" unicode="&#x1ff;" horiz-adv-x="1280" 
d="M639 1092q133 0 246 -52l37 52l145 -101l-35 -51q168 -162 168 -408q0 -241 -162 -399q-160 -160 -399 -160q-129 0 -246 54l-37 -54l-145 101l37 53q-168 162 -168 405q0 240 160 400t399 160zM901 754l-381 -545q58 -23 119 -23q147 0 242 99q98 101 98 247
q0 121 -78 222zM377 313l381 543q-57 23 -119 23q-144 0 -242 -101q-96 -101 -96 -246q0 -128 76 -219zM549 1217l-74 133l397 249l99 -190z" />
    <glyph glyph-name="uni0218" unicode="&#x218;" horiz-adv-x="1259" 
d="M1116 1141l-227 -68q-19 71 -94.5 118.5t-176.5 47.5q-111 0 -184.5 -52.5t-73.5 -131.5q-12 -68 105 -140q20 -13 80 -32q11 -4 43 -15t45 -14l108 -31q94 -25 149.5 -46.5t125.5 -63.5q151 -91 151 -297q0 -199 -147 -322q-148 -121 -379 -121q-207 0 -358 97
q-148 100 -191 245l227 72q19 -82 108 -137t214 -55q126 0 210.5 56.5t84.5 145.5q0 59 -47 103q-40 40 -83 59t-130 43q-260 75 -344 119q-201 109 -201 317q0 188 135 305t348 117q187 0 326 -92q135 -86 176 -227zM811 -264q0 -48 -19.5 -92.5t-51 -76t-53.5 -49
t-44 -30.5l-12 -8l-56 57l25 23q19 13 42.5 45t23.5 51q-43 6 -72 40t-29 77q0 49 34 81.5t85 32.5q56 0 91.5 -42t35.5 -109z" />
    <glyph glyph-name="uni0219" unicode="&#x219;" horiz-adv-x="972" 
d="M883 821l-201 -35q-18 55 -72 87t-137 32q-77 0 -126.5 -30.5t-49.5 -83.5q0 -69 102 -107l240 -82q136 -51 199 -124.5t63 -182.5q0 -154 -112.5 -238t-296.5 -84q-181 0 -293 79.5t-136 217.5l201 31q14 -64 75.5 -102.5t156.5 -38.5q88 0 144 35t56 94q0 77 -129 123
l-237 80q-124 43 -181 110.5t-57 171.5q0 154 109 236t288 82q163 0 267 -72.5t127 -198.5zM662 -264q0 -147 -183 -256l-55 57l25 23q19 13 42 45t23 51q-41 6 -69.5 39.5t-28.5 77.5q0 49 33 81.5t83 32.5q57 0 93.5 -42t36.5 -109z" />
    <glyph glyph-name="uni021A" unicode="&#x21a;" horiz-adv-x="1347" 
d="M559 0v1221h-506v213h1241v-213h-506v-1221h-229zM664 -344q-43 6 -72 40t-29 77q0 49 34 81.5t85 32.5q56 0 92.5 -42t36.5 -109q0 -48 -20.5 -93t-51 -76t-55.5 -50t-45 -29l-10 -8l-56 57l25 23q19 13 42.5 45t23.5 51z" />
    <glyph glyph-name="uni021B" unicode="&#x21b;" horiz-adv-x="741" 
d="M25 879v186h161v211h213v-211h283v-186h-283v-525q0 -63 41.5 -106t102.5 -43h139v-205h-156q-141 0 -241 92q-99 95 -99 234v553h-161zM557 -264q0 -48 -20.5 -93t-51 -76t-55.5 -50t-45 -29l-10 -8l-56 57l25 23q19 13 42.5 45t23.5 51q-42 6 -70.5 39.5t-28.5 77.5
q0 50 33 82t84 32q56 0 92.5 -42t36.5 -109z" />
    <glyph glyph-name="uni0237" unicode="&#x237;" horiz-adv-x="481" 
d="M141 1065h213v-1200q0 -141 -98 -232q-98 -94 -242 -94h-90v205h74q61 0 102 43.5t41 106.5v1171z" />
    <glyph glyph-name="uni0259" unicode="&#x259;" horiz-adv-x="1249" 
d="M66 610h882q-23 124 -120.5 203.5t-229.5 79.5q-180 0 -283 -133l-209 63q74 126 204 197.5t288 71.5q243 0 408 -160q163 -159 163 -400q0 -240 -159 -399q-157 -160 -396 -160q-235 0 -395 160q-158 161 -158 399q0 7 1 18.5t2 28.5t2 31zM946 440h-665
q29 -119 122 -193.5t215 -74.5q118 0 208.5 74.5t119.5 193.5z" />
    <glyph glyph-name="circumflex" unicode="&#x2c6;" horiz-adv-x="888" 
d="M444 1612l-260 -160l-90 121l344 254h13l344 -254l-90 -119z" />
    <glyph glyph-name="caron" unicode="&#x2c7;" horiz-adv-x="888" 
d="M444 1669l261 158l90 -119l-344 -254h-13l-344 254l90 121z" />
    <glyph glyph-name="breve" unicode="&#x2d8;" horiz-adv-x="829" 
d="M94 1747h170q0 -70 43 -117t109 -47t107.5 46t41.5 118h170q0 -135 -92 -227q-90 -90 -227 -90t-230 90q-92 92 -92 227z" />
    <glyph glyph-name="dotaccent" unicode="&#x2d9;" horiz-adv-x="471" 
d="M94 1587q0 60 41 99.5t101 39.5t100.5 -39.5t40.5 -99.5q0 -61 -40.5 -101t-100.5 -40t-101 40t-41 101z" />
    <glyph glyph-name="ring" unicode="&#x2da;" horiz-adv-x="651" 
d="M94 1657q0 96 68 164q67 67 164 67q96 0 163 -67q68 -68 68 -164q0 -94 -68 -162t-163 -68q-96 0 -164 68t-68 162zM246 1657q-4 -47 38 -66.5t84 0t38 66.5q4 49 -38 69.5t-84 0t-38 -69.5z" />
    <glyph glyph-name="ogonek" unicode="&#x2db;" horiz-adv-x="616" 
d="M190 -33l33 33h162l-35 -31q-21 -21 -55 -73q-33 -50 -33 -97q0 -36 22.5 -57t55.5 -21q24 0 51.5 11.5t42.5 25.5l12 15l76 -90q-12 -16 -30 -29q-20 -20 -78 -47q-60 -31 -119 -31q-86 0 -143.5 52t-57.5 130q0 53 30 114t66 95z" />
    <glyph glyph-name="tilde" unicode="&#x2dc;" horiz-adv-x="845" 
d="M264 1483h-170q0 95 64 159q65 68 155 68q63 0 121 -43q61 -43 84 -43q25 0 44.5 23t19.5 55h168q0 -97 -62 -162t-153 -65q-65 0 -123 43t-80 43q-29 0 -48.5 -22.5t-19.5 -55.5z" />
    <glyph glyph-name="hungarumlaut" unicode="&#x2dd;" horiz-adv-x="1026" 
d="M205 1427l-111 105l285 334l151 -154zM606 1427l-110 105l284 334l152 -154z" />
    <glyph glyph-name="uni0394" unicode="&#x394;" horiz-adv-x="1447" 
d="M1421 0h-1394l604 1434h186zM1092 213l-367 889l-369 -889h736z" />
    <glyph glyph-name="uni03A9" unicode="&#x3a9;" horiz-adv-x="1671" 
d="M92 739q0 307 213 514t531 207q317 0 530 -207q215 -206 215 -516q0 -320 -223 -524h223v-213h-557v213q143 54 230 188.5t87 305.5q0 229 -145 380q-146 152 -360 152q-215 0 -361 -152q-145 -151 -145 -376q0 -178 94 -312q93 -132 246 -186v-213h-557v213h204
q-225 206 -225 526z" />
    <glyph glyph-name="uni0400" unicode="&#x400;" horiz-adv-x="1269" 
d="M139 1434h1045v-213h-815v-390h706v-213h-706v-405h825v-213h-1055v1434zM813 1694l-72 -131l-424 190l99 193z" />
    <glyph glyph-name="uni0401" unicode="&#x401;" horiz-adv-x="1269" 
d="M139 1434h1045v-213h-815v-390h706v-213h-706v-405h825v-213h-1055v1434zM969 1591q-38 -38 -96.5 -38t-96.5 38t-38 96t38 95q38 38 96.5 38t96.5 -38q38 -37 38 -95t-38 -96zM442 1821q56 0 94.5 -38t38.5 -95t-38.5 -96.5t-94.5 -39.5q-57 0 -96 39.5t-39 96.5t39 95
t96 38z" />
    <glyph glyph-name="uni0402" unicode="&#x402;" horiz-adv-x="1804" 
d="M559 0v1221h-506v213h1241v-213h-506v-351q145 37 297 37q277 0 430.5 -124t153.5 -349q0 -229 -156 -346q-154 -115 -407 -115l2 213q330 0 330 244q0 264 -359 264q-152 0 -291 -39v-655h-229z" />
    <glyph glyph-name="uni0403" unicode="&#x403;" horiz-adv-x="1122" 
d="M369 1221v-1221h-230v1434h932v-213h-702zM915 1753l-421 -190l-74 131l397 252z" />
    <glyph glyph-name="uni0404" unicode="&#x404;" horiz-adv-x="1576" 
d="M836 1460q215 0 390 -104t269 -285l-223 -82q-67 117 -181.5 183.5t-254.5 66.5q-183 0 -322 -115q-137 -113 -174 -293h672v-213h-674q34 -187 170 -305t328 -118q140 0 254.5 66.5t181.5 182.5l223 -82q-94 -181 -269 -285t-390 -104q-318 0 -531 213t-213 531
q0 317 213 530t531 213z" />
    <glyph glyph-name="uni0405" unicode="&#x405;" horiz-adv-x="1259" 
d="M1116 1141l-227 -68q-19 71 -94.5 118.5t-176.5 47.5q-111 0 -184.5 -52.5t-73.5 -131.5q-12 -68 105 -140q20 -13 80 -32q11 -4 43 -15t45 -14l108 -31q94 -25 149.5 -46.5t125.5 -63.5q151 -91 151 -297q0 -199 -147 -322q-148 -121 -379 -121q-207 0 -358 97
q-148 100 -191 245l227 72q19 -82 108 -137t214 -55q126 0 210.5 56.5t84.5 145.5q0 59 -47 103q-40 40 -83 59t-130 43q-260 75 -344 119q-201 109 -201 317q0 188 135 305t348 117q187 0 326 -92q135 -86 176 -227z" />
    <glyph glyph-name="uni0406" unicode="&#x406;" horiz-adv-x="507" 
d="M369 0h-230v1434h230v-1434z" />
    <glyph glyph-name="uni0407" unicode="&#x407;" horiz-adv-x="507" 
d="M369 0h-230v1434h230v-1434zM39 1552q-59 0 -97 39t-38 97q0 57 39 95t96 38t96 -38t39 -95t-39 -96.5t-96 -39.5zM469 1552q-57 0 -95 39.5t-38 96.5t38 95t95 38t96 -38t39 -95q0 -58 -38 -97t-97 -39z" />
    <glyph glyph-name="uni0408" unicode="&#x408;" horiz-adv-x="1204" 
d="M1081 1434v-916q0 -235 -161 -389q-159 -156 -402 -156q-153 0 -278 66t-199 182l190 123q43 -74 120.5 -116t170.5 -42q145 0 240 95q98 94 98 237v916h221z" />
    <glyph glyph-name="uni0409" unicode="&#x409;" horiz-adv-x="2308" 
d="M84 0h-57v213h57q49 0 86 23t68 79t47 162t16 260v697h1040v-533h402q204 0 342 -129q137 -128 137 -321q0 -194 -137 -322q-138 -129 -342 -129h-633v1221h-580v-484q0 -387 -120 -563q-119 -174 -326 -174zM1341 688v-475h402q100 0 168.5 68t68.5 170q0 103 -67 170
t-170 67h-402z" />
    <glyph glyph-name="uni040A" unicode="&#x40a;" horiz-adv-x="2344" 
d="M369 0h-230v1434h230v-570h776v570h231v-570h404q206 0 340 -125q137 -122 137 -307q0 -184 -137 -309q-135 -123 -340 -123h-635v651h-776v-651zM1780 651h-404v-438h404q103 0 171 62.5t68 156.5t-68 156.5t-171 62.5z" />
    <glyph glyph-name="uni040B" unicode="&#x40b;" horiz-adv-x="1804" 
d="M559 0v1221h-506v213h1241v-213h-506v-344q132 30 277 30q288 0 446 -125t158 -354v-428h-231v428q0 266 -373 266q-124 0 -277 -30v-664h-229z" />
    <glyph glyph-name="uni040C" unicode="&#x40c;" horiz-adv-x="1329" 
d="M369 0h-230v1434h230v-686l600 686h293l-613 -701l654 -733h-293l-641 719v-719zM989 1753l-422 -190l-71 131l397 252z" />
    <glyph glyph-name="uni040D" unicode="&#x40d;" horiz-adv-x="1523" 
d="M1153 1040l-803 -1040h-211v1434h230v-1047l805 1047h210v-1434h-231v1040zM920 1694l-74 -131l-422 190l98 193z" />
    <glyph glyph-name="uni040E" unicode="&#x40e;" horiz-adv-x="1415" 
d="M629 373l-602 1061h254l467 -830l393 830h245l-501 -1061q-182 -373 -492 -373h-141v213h125q146 0 252 160zM709 1552q-157 0 -263 95q-104 94 -104 239h186q0 -66 52 -110.5t127 -44.5t125.5 44.5t50.5 110.5h186q0 -145 -104 -239q-103 -95 -256 -95z" />
    <glyph glyph-name="uni040F" unicode="&#x40f;" horiz-adv-x="1486" 
d="M139 0v1434h230v-1221h749v1221h230v-1434h-490v-348h-229v348h-490z" />
    <glyph glyph-name="uni0410" unicode="&#x410;" horiz-adv-x="1482" 
d="M268 0h-241l620 1434h187l622 -1434h-242l-127 295h-692zM997 508l-256 600l-256 -600h512z" />
    <glyph glyph-name="uni0411" unicode="&#x411;" horiz-adv-x="1351" 
d="M139 1434h983v-213h-753v-320h403q207 0 342 -129q137 -128 137 -321q0 -194 -137 -322q-138 -129 -342 -129h-633v1434zM369 688v-475h403q103 0 171.5 67.5t68.5 170.5q0 102 -68.5 169.5t-171.5 67.5h-403z" />
    <glyph glyph-name="uni0412" unicode="&#x412;" horiz-adv-x="1406" 
d="M866 0h-727v1434h686q182 0 305 -111q123 -108 123 -272q0 -180 -151 -295q101 -55 158 -146.5t57 -203.5q0 -174 -129 -291q-130 -115 -322 -115zM866 635h-497v-422h497q91 0 152 60t61 151t-61 151t-152 60zM825 1221h-456v-373h456q82 0 135.5 53t53.5 133t-54 133.5
t-135 53.5z" />
    <glyph glyph-name="uni0413" unicode="&#x413;" horiz-adv-x="1122" 
d="M369 1221v-1221h-230v1434h932v-213h-702z" />
    <glyph glyph-name="uni0414" unicode="&#x414;" horiz-adv-x="1691" 
d="M274 0v-348h-229v561h162q162 52 162 518v703h1048v-1221h230v-561h-230v348h-1143zM496 213h690v1008h-588v-480q0 -347 -102 -528z" />
    <glyph glyph-name="uni0415" unicode="&#x415;" horiz-adv-x="1269" 
d="M139 1434h1045v-213h-815v-390h706v-213h-706v-405h825v-213h-1055v1434z" />
    <glyph glyph-name="uni0416" unicode="&#x416;" horiz-adv-x="2058" 
d="M313 0h-286l616 733l-575 701h286l561 -686v686h230v-680l559 680h285l-574 -701l615 -733h-285l-600 713v-713h-230v719z" />
    <glyph glyph-name="uni0417" unicode="&#x417;" horiz-adv-x="1318" 
d="M662 -27q-210 0 -359.5 93t-224.5 262l223 84q94 -217 356 -217q147 0 240.5 64.5t93.5 164.5q0 86 -65.5 147.5t-159.5 61.5h-274v213h270q84 0 140 53.5t56 132.5q0 92 -84 149.5t-219 57.5q-252 0 -346 -217l-223 84q75 169 221 261.5t350 92.5q237 0 387 -114
q152 -116 152 -291q0 -199 -174 -312q97 -56 152 -146.5t55 -195.5q0 -186 -160 -307t-407 -121z" />
    <glyph glyph-name="uni0418" unicode="&#x418;" horiz-adv-x="1523" 
d="M1153 1040l-803 -1040h-211v1434h230v-1047l805 1047h210v-1434h-231v1040z" />
    <glyph glyph-name="uni0419" unicode="&#x419;" horiz-adv-x="1523" 
d="M1153 1040l-803 -1040h-211v1434h230v-1047l805 1047h210v-1434h-231v1040zM406 1886h188q0 -66 51.5 -110.5t126.5 -44.5q74 0 124 44.5t50 110.5h189q0 -144 -105 -239q-103 -95 -256 -95q-147 0 -260 93q-108 95 -108 241z" />
    <glyph glyph-name="uni041A" unicode="&#x41a;" horiz-adv-x="1329" 
d="M139 0v1434h230v-686l600 686h293l-613 -701l654 -733h-293l-641 719v-719h-230z" />
    <glyph glyph-name="uni041B" unicode="&#x41b;" horiz-adv-x="1480" 
d="M84 0h-57v213h57q105 0 160 113q57 111 57 411v697h1040v-1434h-229v1221h-580v-484q0 -377 -117 -557t-331 -180z" />
    <glyph glyph-name="uni041C" unicode="&#x41c;" horiz-adv-x="1826" 
d="M369 0h-230v1434h230l544 -957l543 957h232v-1434h-232v997l-467 -827h-151l-469 827v-997z" />
    <glyph glyph-name="uni041D" unicode="&#x41d;" horiz-adv-x="1515" 
d="M369 0h-230v1434h230v-603h776v603h231v-1434h-231v618h-776v-618z" />
    <glyph glyph-name="uni041E" unicode="&#x41e;" horiz-adv-x="1671" 
d="M305 186q-213 213 -213 531q0 317 213 530t531 213q317 0 530 -213q215 -212 215 -530q0 -319 -215 -531q-213 -213 -530 -213q-318 0 -531 213zM836 195q217 0 360 149q145 151 145 373t-145 373q-143 149 -360 149q-218 0 -361 -149q-145 -151 -145 -373t145 -373
q143 -149 361 -149z" />
    <glyph glyph-name="uni041F" unicode="&#x41f;" horiz-adv-x="1515" 
d="M369 1221v-1221h-230v1434h1237v-1434h-231v1221h-776z" />
    <glyph glyph-name="uni0420" unicode="&#x420;" horiz-adv-x="1341" 
d="M369 528v-528h-230v1434h635q204 0 342 -129q139 -130 139 -324t-139 -324q-138 -129 -342 -129h-405zM774 1221h-405v-480h405q103 0 172.5 68.5t69.5 171.5t-69.5 171.5t-172.5 68.5z" />
    <glyph glyph-name="uni0421" unicode="&#x421;" horiz-adv-x="1576" 
d="M836 1460q215 0 390 -104t269 -285l-223 -82q-67 117 -181.5 183.5t-254.5 66.5q-218 0 -361 -149q-145 -151 -145 -373t145 -373q143 -149 361 -149q140 0 254.5 66.5t181.5 182.5l223 -82q-94 -181 -269 -285t-390 -104q-318 0 -531 213t-213 531q0 317 213 530
t531 213z" />
    <glyph glyph-name="uni0422" unicode="&#x422;" horiz-adv-x="1347" 
d="M559 1221h-506v213h1241v-213h-506v-1221h-229v1221z" />
    <glyph glyph-name="uni0423" unicode="&#x423;" horiz-adv-x="1415" 
d="M629 373l-602 1061h254l467 -830l393 830h245l-501 -1061q-182 -373 -492 -373h-141v213h125q146 0 252 160z" />
    <glyph glyph-name="uni0424" unicode="&#x424;" horiz-adv-x="1763" 
d="M766 1315v145h231v-145q292 -3 482 -172q192 -168 192 -426t-192 -426q-190 -169 -482 -172v-146h-231v146q-290 3 -483 172q-191 170 -191 426t191 426q193 169 483 172zM997 1094v-754q191 0 312 106q125 107 125 271q0 161 -125 268q-124 109 -312 109zM766 340v754
q-189 -3 -313 -109q-123 -108 -123 -268t123 -268q124 -106 313 -109z" />
    <glyph glyph-name="uni0425" unicode="&#x425;" horiz-adv-x="1406" 
d="M565 731l-518 703h275l383 -516l380 516h275l-518 -703l538 -731h-274l-401 545l-404 -545h-274z" />
    <glyph glyph-name="uni0426" unicode="&#x426;" horiz-adv-x="1622" 
d="M139 0v1434h230v-1221h749v1221h230v-1221h231v-561h-231v348h-1209z" />
    <glyph glyph-name="uni0427" unicode="&#x427;" horiz-adv-x="1396" 
d="M707 526q-295 0 -459 126t-164 354v428h229v-428q0 -267 389 -267q157 0 326 39v656h229v-1434h-229v565q-142 -39 -321 -39z" />
    <glyph glyph-name="uni0428" unicode="&#x428;" horiz-adv-x="2179" 
d="M139 0v1434h230v-1221h598v1221h229v-1221h614v1221h230v-1434h-1901z" />
    <glyph glyph-name="uni0429" unicode="&#x429;" horiz-adv-x="2314" 
d="M139 1434h230v-1221h598v1221h229v-1221h614v1221h230v-1221h231v-561h-231v348h-1901v1434z" />
    <glyph glyph-name="uni042A" unicode="&#x42a;" horiz-adv-x="1734" 
d="M535 0v1221h-482v213h713v-533h403q205 0 340 -129q138 -129 138 -321q0 -193 -138 -322q-135 -129 -340 -129h-634zM766 688v-475h403q102 0 171 69t69 169q0 102 -68.5 169.5t-171.5 67.5h-403z" />
    <glyph glyph-name="uni042B" unicode="&#x42b;" horiz-adv-x="1810" 
d="M772 0h-633v1434h230v-533h403q207 0 342 -129q137 -128 137 -321q0 -194 -137 -322q-138 -129 -342 -129zM1671 0h-229v1434h229v-1434zM369 688v-475h403q103 0 171.5 67.5t68.5 170.5q0 97 -61.5 161.5t-159.5 75.5h-19h-403z" />
    <glyph glyph-name="uni042C" unicode="&#x42c;" horiz-adv-x="1337" 
d="M139 0v1434h230v-533h403q207 0 342 -129q137 -128 137 -321q0 -194 -137 -322q-138 -129 -342 -129h-633zM369 688v-475h403q98 0 163.5 61t76.5 158q0 114 -64.5 185t-175.5 71h-403z" />
    <glyph glyph-name="uni042D" unicode="&#x42d;" horiz-adv-x="1576" 
d="M84 362l221 82q68 -118 182 -183.5t254 -65.5q192 0 328 118q141 122 170 305h-604v213h602q-37 180 -174 293q-136 115 -322 115q-140 0 -254 -66t-182 -184l-221 82q93 180 267.5 284.5t389.5 104.5q320 0 533 -213t213 -530q0 -318 -213 -531t-533 -213
q-215 0 -389.5 104.5t-267.5 284.5z" />
    <glyph glyph-name="uni042E" unicode="&#x42e;" horiz-adv-x="2189" 
d="M139 0v1434h230v-603h249q41 280 244 453q206 176 492 176q317 0 530 -213q215 -212 215 -530q0 -319 -215 -531q-213 -213 -530 -213q-293 0 -498 181t-240 464h-247v-618h-230zM1354 195q217 0 360 149q146 152 146 373t-146 373q-143 149 -360 149q-218 0 -361 -149
q-145 -151 -145 -373t145 -373q143 -149 361 -149z" />
    <glyph glyph-name="uni042F" unicode="&#x42f;" horiz-adv-x="1386" 
d="M666 530l-320 -530h-258l336 557q-142 48 -226.5 163t-84.5 263q0 194 137 322q138 129 342 129h655v-1434h-229v530h-352zM350 983q0 -103 69.5 -171.5t172.5 -68.5h426v478h-426q-102 0 -172 -70q-70 -67 -70 -168z" />
    <glyph glyph-name="uni0430" unicode="&#x430;" horiz-adv-x="1298" 
d="M604 1092q206 0 354 -142v115h213v-1065h-213v115q-148 -142 -354 -142q-224 0 -375 160q-149 158 -149 399q0 242 149 400q151 160 375 160zM627 879q-138 0 -232 -101q-94 -98 -94 -246q0 -146 94 -247q95 -99 232 -99q139 0 233 99q94 101 94 247q0 148 -94 246
q-94 101 -233 101z" />
    <glyph glyph-name="uni0431" unicode="&#x431;" horiz-adv-x="1318" 
d="M88 770q0 355 159 539.5t492 216.5q200 22 371 37v-213q-124 -11 -365 -39q-224 -24 -331 -136.5t-113 -318.5q57 109 160.5 172.5t236.5 63.5q228 0 383 -162q158 -166 158 -402t-158 -397q-158 -158 -395 -158q-254 0 -428 201q-170 200 -170 596zM455 778
q-95 -100 -95 -246q0 -144 95 -247q95 -99 235 -99t234 99q94 101 94 247q0 148 -94 246q-94 101 -234 101q-141 0 -235 -101z" />
    <glyph glyph-name="uni0432" unicode="&#x432;" horiz-adv-x="1134" 
d="M127 1065h561q124 0 225 -72q100 -71 109 -192q0 -153 -100 -234q151 -89 151 -248q0 -141 -98 -229q-96 -90 -244 -90h-604v1065zM340 463v-258h391q51 0 85 37t34 92t-34 92t-85 37h-391zM688 860h-348v-219h348q49 0 81 31.5t32 79.5q0 47 -32 77.5t-81 30.5z" />
    <glyph glyph-name="uni0433" unicode="&#x433;" horiz-adv-x="843" 
d="M340 860v-860h-213v1065h690v-205h-477z" />
    <glyph glyph-name="uni0434" unicode="&#x434;" horiz-adv-x="1372" 
d="M250 0v-307h-213v512h166q78 84 78 354v506h862v-860h192v-512h-213v307h-872zM430 205h500v655h-436v-313q0 -211 -64 -342z" />
    <glyph glyph-name="uni0435" unicode="&#x435;" horiz-adv-x="1249" 
d="M1184 455h-885q25 -125 122 -204t230 -79q180 0 283 133l209 -63q-74 -126 -204 -197.5t-288 -71.5q-242 0 -407 160q-164 159 -164 399q0 239 158 400q160 160 397 160q236 0 393 -160q160 -160 160 -400q0 -7 -4 -77zM301 625h668q-29 119 -122.5 193.5t-217.5 74.5
q-117 0 -208 -74.5t-120 -193.5z" />
    <glyph glyph-name="uni0436" unicode="&#x436;" horiz-adv-x="1574" 
d="M283 0h-256l419 551l-376 514h252l358 -485v485h213v-490l360 490h252l-379 -514l422 -551h-256l-399 526v-526h-213v524z" />
    <glyph glyph-name="uni0437" unicode="&#x437;" horiz-adv-x="1095" 
d="M66 281l215 55q59 -160 260 -160q112 0 186 47.5t74 116.5q0 51 -38 85t-95 34h-267v178h254q54 0 89.5 30.5t35.5 75.5q0 62 -67.5 104t-167.5 42q-199 0 -258 -160l-215 55q47 143 176.5 225.5t306.5 82.5q191 0 319 -93q127 -89 127 -229q0 -134 -120 -217
q141 -85 141 -242q0 -147 -135 -241q-139 -97 -340 -97q-180 0 -308.5 82.5t-172.5 225.5z" />
    <glyph glyph-name="uni0438" unicode="&#x438;" horiz-adv-x="1249" 
d="M907 707l-602 -707h-178v1065h213v-711l602 711h178v-1065h-213v707z" />
    <glyph glyph-name="uni0439" unicode="&#x439;" horiz-adv-x="1249" 
d="M127 0v1065h213v-711l602 711h178v-1065h-213v707l-602 -707h-178zM272 1511h179q0 -69 50.5 -116t125.5 -47q72 0 122 47t50 116h178q0 -146 -100 -239q-101 -94 -250 -94q-153 0 -254 94t-101 239z" />
    <glyph glyph-name="uni043A" unicode="&#x43a;" horiz-adv-x="1095" 
d="M1067 0h-262l-463 551l420 514h260l-418 -514zM340 1065v-1065h-213v1065h213z" />
    <glyph glyph-name="uni043B" unicode="&#x43b;" horiz-adv-x="1220" 
d="M113 0h-76v205h61q71 0 106.5 77.5t35.5 260.5v522h852v-1065h-213v860h-426v-362q0 -250 -90 -374t-250 -124z" />
    <glyph glyph-name="uni043C" unicode="&#x43c;" horiz-adv-x="1435" 
d="M340 666v-666h-213v1065h213l379 -655l377 655h213v-1065h-213v664l-312 -541h-131z" />
    <glyph glyph-name="uni043D" unicode="&#x43d;" horiz-adv-x="1247" 
d="M340 440v-440h-213v1065h213v-420h567v420h213v-1065h-213v440h-567z" />
    <glyph glyph-name="uni043E" unicode="&#x43e;" horiz-adv-x="1280" 
d="M240 133q-160 160 -160 399q0 240 160 400t399 160t399 -160q162 -158 162 -400q0 -241 -162 -399q-160 -160 -399 -160t-399 160zM639 186q147 0 242 99q98 101 98 247q0 148 -98 246q-94 101 -242 101q-144 0 -242 -101q-96 -101 -96 -246q0 -143 96 -247
q99 -99 242 -99z" />
    <glyph glyph-name="uni043F" unicode="&#x43f;" 
d="M340 860v-860h-213v1065h973v-1065h-213v860h-547z" />
    <glyph glyph-name="uni0440" unicode="&#x440;" horiz-adv-x="1298" 
d="M340 -461h-213v1526h213v-115q148 142 354 142q224 0 375 -160q150 -159 150 -400q0 -240 -150 -399q-151 -160 -375 -160q-206 0 -354 142v-576zM670 879q-138 0 -232 -101q-94 -98 -94 -246q0 -146 94 -247q94 -99 232 -99t233 99q94 101 94 247q0 148 -94 246
q-94 101 -233 101z" />
    <glyph glyph-name="uni0441" unicode="&#x441;" horiz-adv-x="1216" 
d="M1157 756l-215 -64q-42 87 -121.5 137t-181.5 50q-144 0 -242 -101q-96 -101 -96 -246q0 -143 96 -247q99 -99 242 -99q102 0 181.5 50t121.5 137l215 -64q-63 -155 -202 -245.5t-316 -90.5q-239 0 -399 160t-160 399q0 240 160 400t399 160q177 0 316 -90.5t202 -245.5z
" />
    <glyph glyph-name="uni0442" unicode="&#x442;" horiz-adv-x="1019" 
d="M403 0v860h-376v205h966v-205h-377v-860h-213z" />
    <glyph glyph-name="uni0443" unicode="&#x443;" horiz-adv-x="1103" 
d="M393 -90l47 117l-415 1038h219l303 -774l313 774h219l-501 -1227q-63 -155 -165.5 -227t-262.5 -72h-46v205h46q94 0 151 39t92 127z" />
    <glyph glyph-name="uni0444" unicode="&#x444;" horiz-adv-x="1626" 
d="M977 -27q-45 0 -57 2v-436h-213v436q-12 -2 -58 -2q-236 0 -401 160q-160 160 -160 399q0 240 160 400q165 160 401 160q46 0 58 -2v446h213v-446q12 2 57 2q239 0 399 -160t160 -400q0 -239 -160 -399t-399 -160zM649 879q-145 0 -243 -101q-97 -102 -97 -246
q0 -142 97 -247q99 -99 243 -99q8 0 58 4v684q-9 1 -22 2t-21.5 2t-14.5 1zM977 879q-8 0 -28 -2t-29 -3v-684q50 -4 57 -4q147 0 242 99q96 104 96 247q0 145 -96 246q-94 101 -242 101z" />
    <glyph glyph-name="uni0445" unicode="&#x445;" horiz-adv-x="1124" 
d="M844 0l-281 375l-282 -375h-252l407 547l-387 518h250l264 -348l262 348h252l-389 -518l408 -547h-252z" />
    <glyph glyph-name="uni0446" unicode="&#x446;" horiz-adv-x="1320" 
d="M127 0v1065h213v-860h537v860h213v-860h192v-512h-213v307h-942z" />
    <glyph glyph-name="uni0447" unicode="&#x447;" horiz-adv-x="1130" 
d="M82 727v338h221v-338q0 -68 53.5 -106.5t155.5 -38.5q70 0 279 22v461h213v-1065h-213v399q-212 -22 -291 -22q-189 0 -303.5 97.5t-114.5 252.5z" />
    <glyph glyph-name="uni0448" unicode="&#x448;" horiz-adv-x="1761" 
d="M127 0v1065h213v-860h434v860h213v-860h432v860h213v-1065h-1505z" />
    <glyph glyph-name="uni0449" unicode="&#x449;" horiz-adv-x="1863" 
d="M127 1065h213v-860h434v860h213v-860h432v860h213v-860h193v-512h-213v307h-1485v1065z" />
    <glyph glyph-name="uni044A" unicode="&#x44a;" horiz-adv-x="1355" 
d="M397 0v860h-370v205h583v-365h328q154 0 254 -100q102 -102 102 -250t-102 -250q-100 -100 -254 -100h-541zM938 496h-328v-291h328q57 0 96 42t39 103q0 62 -39 104t-96 42z" />
    <glyph glyph-name="uni044B" unicode="&#x44b;" horiz-adv-x="1509" 
d="M668 0h-541v1065h213v-365h328q154 0 254 -100q102 -99 102 -250q0 -139 -92 -239t-234 -109q-6 -2 -30 -2zM1382 0h-213v1065h213v-1065zM668 496h-328v-291h328q57 0 96 42t39 103q0 62 -39 104t-96 42z" />
    <glyph glyph-name="uni044C" unicode="&#x44c;" horiz-adv-x="1085" 
d="M668 0h-541v1065h213v-365h328q142 0 243 -90q102 -88 111 -229q2 -6 2 -31q0 -150 -102 -252q-101 -98 -254 -98zM340 496v-291h328q57 0 96 42t39 103q0 62 -39 104t-96 42h-328z" />
    <glyph glyph-name="uni044D" unicode="&#x44d;" horiz-adv-x="1216" 
d="M61 309l215 64q38 -86 120 -136.5t182 -50.5q120 0 208.5 71t118.5 185h-438v197h434q-33 107 -121 173.5t-202 66.5q-100 0 -182 -50.5t-120 -136.5l-215 64q62 154 201 245t316 91q239 0 399 -160t160 -400q0 -239 -160 -399t-399 -160q-177 0 -316 91t-201 245z" />
    <glyph glyph-name="uni044E" unicode="&#x44e;" horiz-adv-x="1726" 
d="M127 0v1065h213v-420h217q38 200 186 322q149 125 355 125q234 0 391 -160q158 -161 158 -400q0 -238 -158 -399q-157 -160 -391 -160q-214 0 -363 131q-153 134 -182 336h-213v-440h-213zM1331 778q-94 101 -233 101q-140 0 -234 -101q-94 -98 -94 -246q0 -146 94 -247
q95 -99 234 -99q138 0 233 99q94 101 94 247q0 148 -94 246z" />
    <glyph glyph-name="uni044F" unicode="&#x44f;" horiz-adv-x="1163" 
d="M330 0h-250l266 381q-113 31 -183.5 122.5t-70.5 211.5q0 147 103 250q100 100 254 100h585v-1065h-213v367h-235zM313 715q0 -61 39.5 -103.5t96.5 -42.5h372v291h-372q-57 0 -96.5 -41.5t-39.5 -103.5z" />
    <glyph glyph-name="uni0450" unicode="&#x450;" horiz-adv-x="1249" 
d="M1184 455h-885q25 -125 122 -204t230 -79q180 0 283 133l209 -63q-74 -126 -204 -197.5t-288 -71.5q-242 0 -407 160q-164 159 -164 399q0 239 158 400q160 160 397 160q236 0 393 -160q160 -160 160 -400q0 -7 -4 -77zM301 625h668q-29 119 -122.5 193.5t-217.5 74.5
q-117 0 -208 -74.5t-120 -193.5zM721 1217l-424 192l98 190l398 -249z" />
    <glyph glyph-name="uni0451" unicode="&#x451;" horiz-adv-x="1249" 
d="M1184 455h-885q25 -125 122 -204t230 -79q180 0 283 133l209 -63q-74 -126 -204 -197.5t-288 -71.5q-242 0 -407 160q-164 159 -164 399q0 239 158 400q160 160 397 160q236 0 393 -160q160 -160 160 -400q0 -7 -4 -77zM301 625h668q-29 119 -122.5 193.5t-217.5 74.5
q-117 0 -208 -74.5t-120 -193.5zM422 1475q56 0 94.5 -38.5t38.5 -95.5t-38.5 -95t-94.5 -38q-60 0 -97.5 38t-37.5 95q0 58 38 96t97 38zM756 1245q-38 38 -38 96t38 95q38 38 96 38t96 -38q38 -37 38 -95t-38 -96q-38 -37 -96 -37t-96 37z" />
    <glyph glyph-name="uni0452" unicode="&#x452;" horiz-adv-x="1253" 
d="M340 1536v-174h371v-162h-371v-291q121 183 356 183q188 0 310 -119t122 -299v-809q0 -141 -98 -232q-98 -94 -242 -94h-90v205h76q60 0 100.5 43.5t40.5 106.5v718q0 121 -79 197q-80 80 -201 80q-125 0 -211 -80q-84 -81 -84 -199v-610h-213v1200h-113v162h113v174h213
z" />
    <glyph glyph-name="uni0453" unicode="&#x453;" horiz-adv-x="843" 
d="M340 860v-860h-213v1065h690v-205h-477zM803 1409l-422 -192l-74 133l398 249z" />
    <glyph glyph-name="uni0454" unicode="&#x454;" horiz-adv-x="1216" 
d="M639 -27q-239 0 -399 160t-160 399q0 240 160 400t399 160q177 0 316 -90.5t202 -245.5l-215 -64q-42 87 -121.5 137t-181.5 50q-114 0 -202.5 -66.5t-121.5 -173.5h478v-197h-482q29 -113 119.5 -184.5t208.5 -71.5q102 0 181.5 50t121.5 137l215 -64
q-63 -155 -202 -245.5t-316 -90.5z" />
    <glyph glyph-name="uni0455" unicode="&#x455;" horiz-adv-x="972" 
d="M883 821l-201 -35q-18 55 -72 87t-137 32q-77 0 -126.5 -30.5t-49.5 -83.5q0 -69 102 -107l240 -82q136 -51 199 -124.5t63 -182.5q0 -154 -112.5 -238t-296.5 -84q-181 0 -293 79.5t-136 217.5l201 31q14 -64 75.5 -102.5t156.5 -38.5q88 0 144 35t56 94q0 77 -129 123
l-237 80q-124 43 -181 110.5t-57 171.5q0 154 109 236t288 82q163 0 267 -72.5t127 -198.5z" />
    <glyph glyph-name="uni0456" unicode="&#x456;" horiz-adv-x="466" 
d="M340 0h-213v1065h213v-1065zM133 1223q-38 41 -38 100t38 100q41 41 100.5 41t100.5 -41t41 -100t-41 -100t-100.5 -41t-100.5 41z" />
    <glyph glyph-name="uni0457" unicode="&#x457;" horiz-adv-x="466" 
d="M340 0h-213v1065h213v-1065zM45 1475q56 0 94.5 -38.5t38.5 -95.5t-38.5 -95t-94.5 -38q-59 0 -97 38t-38 95q0 58 38 96t97 38zM328 1245q-38 38 -38 96t38 95q38 38 96 38t96 -38q38 -37 38 -95t-38 -96q-38 -37 -96 -37t-96 37z" />
    <glyph glyph-name="uni0458" unicode="&#x458;" horiz-adv-x="481" 
d="M141 1065h213v-1200q0 -141 -98 -232q-98 -94 -242 -94h-90v205h74q61 0 102 43.5t41 106.5v1171zM147 1223q-41 41 -41 100t41 100t100.5 41t100.5 -41t41 -100t-41 -100t-100.5 -41t-100.5 41z" />
    <glyph glyph-name="uni0459" unicode="&#x459;" horiz-adv-x="1837" 
d="M113 0h-76v205h61q71 0 106.5 77.5t35.5 260.5v522h852v-365h327q154 0 254 -100q103 -100 103 -250q0 -149 -103 -252q-101 -98 -254 -98h-540v860h-426v-362q0 -250 -90 -374t-250 -124zM1419 496h-327v-291h327q57 0 96 42t39 103q0 62 -39 104t-96 42z" />
    <glyph glyph-name="uni045A" unicode="&#x45a;" horiz-adv-x="1865" 
d="M340 469v-469h-213v1065h213v-391h567v391h213v-391h326q152 0 256 -96q102 -94 102 -240q0 -148 -102 -242q-104 -96 -256 -96h-539v469h-567zM1446 469h-326v-264h326q60 0 98.5 38t38.5 95q0 55 -40 93t-97 38z" />
    <glyph glyph-name="uni045B" unicode="&#x45b;" horiz-adv-x="1253" 
d="M340 1536v-174h371v-162h-371v-291q121 183 356 183q188 0 310 -119t122 -299v-674h-213v612q0 121 -79 197q-80 80 -201 80q-125 0 -211 -80q-84 -81 -84 -199v-610h-213v1200h-113v162h113v174h213z" />
    <glyph glyph-name="uni045C" unicode="&#x45c;" horiz-adv-x="1095" 
d="M805 0l-463 551l420 514h260l-418 -514l463 -551h-262zM340 1065v-1065h-213v1065h213zM870 1409l-421 -192l-72 133l395 249z" />
    <glyph glyph-name="uni045D" unicode="&#x45d;" horiz-adv-x="1249" 
d="M907 707l-602 -707h-178v1065h213v-711l602 711h178v-1065h-213v707zM778 1350l-71 -133l-422 192l98 190z" />
    <glyph glyph-name="uni045E" unicode="&#x45e;" horiz-adv-x="1103" 
d="M440 27l-415 1038h219l303 -774l313 774h219l-501 -1227q-63 -155 -165.5 -227t-262.5 -72h-46v205h46q94 0 151 39t92 127zM201 1511h178q0 -69 50 -116t124 -47q73 0 122.5 47t49.5 116h178q0 -146 -100 -239q-101 -94 -250 -94q-151 0 -252 94q-100 93 -100 239z" />
    <glyph glyph-name="uni045F" unicode="&#x45f;" horiz-adv-x="1218" 
d="M127 0v1065h213v-860h537v860h213v-1065h-379v-307h-213v307h-371z" />
    <glyph glyph-name="uni0490" unicode="&#x490;" horiz-adv-x="1081" 
d="M369 1221v-1221h-230v1434h660v307h231v-520h-661z" />
    <glyph glyph-name="uni0491" unicode="&#x491;" horiz-adv-x="847" 
d="M340 860v-860h-213v1065h481v256h213v-461h-481z" />
    <glyph glyph-name="uni04D8" unicode="&#x4d8;" horiz-adv-x="1671" 
d="M836 1460q317 0 530 -213q215 -212 215 -530q0 -319 -215 -531q-213 -213 -530 -213q-318 0 -531 213t-213 531q0 47 6 96h1235q-29 183 -170 305q-139 121 -327 121q-253 0 -400 -197l-227 86q99 156 264.5 244t362.5 88zM836 195q188 0 321 112q136 115 170 293h-983
q34 -178 170 -293q136 -112 322 -112z" />
    <glyph glyph-name="uni04D9" unicode="&#x4d9;" horiz-adv-x="1249" 
d="M66 610h882q-23 124 -120.5 203.5t-229.5 79.5q-180 0 -283 -133l-209 63q74 126 204 197.5t288 71.5q243 0 408 -160q163 -159 163 -400q0 -240 -159 -399q-157 -160 -396 -160q-235 0 -395 160q-158 161 -158 399q0 7 1 18.5t2 28.5t2 31zM946 440h-665
q29 -119 122 -193.5t215 -74.5q118 0 208.5 74.5t119.5 193.5z" />
    <glyph glyph-name="Wgrave" unicode="&#x1e80;" horiz-adv-x="2068" 
d="M702 0h-186l-489 1434h235l344 -1067l336 1067h186l336 -1067l342 1067h236l-490 -1434h-186l-332 1036zM795 1946l397 -252l-74 -131l-422 190z" />
    <glyph glyph-name="wgrave" unicode="&#x1e81;" horiz-adv-x="1595" 
d="M379 0l-354 1065h215l231 -735l231 735h193l229 -735l234 735h215l-354 -1065h-191l-229 711l-232 -711h-188zM559 1599l397 -249l-73 -133l-422 192z" />
    <glyph glyph-name="Wacute" unicode="&#x1e82;" horiz-adv-x="2068" 
d="M702 0h-186l-489 1434h235l344 -1067l336 1067h186l336 -1067l342 1067h236l-490 -1434h-186l-332 1036zM1366 1753l-424 -190l-72 131l398 252z" />
    <glyph glyph-name="wacute" unicode="&#x1e83;" horiz-adv-x="1595" 
d="M379 0l-354 1065h215l231 -735l231 735h193l229 -735l234 735h215l-354 -1065h-191l-229 711l-232 -711h-188zM1130 1409l-423 -192l-72 133l397 249z" />
    <glyph glyph-name="Wdieresis" unicode="&#x1e84;" horiz-adv-x="2068" 
d="M702 0h-186l-489 1434h235l344 -1067l336 1067h186l336 -1067l342 1067h236l-490 -1434h-186l-332 1036zM1153 1591q-37 38 -37 96t37 95q38 38 96.5 38t96.5 -38q38 -37 38 -95t-38 -96t-96.5 -38t-96.5 38zM723 1782q38 38 95.5 38t94.5 -38q38 -37 38 -95t-38 -96
q-37 -38 -94.5 -38t-95.5 38t-38 96t38 95z" />
    <glyph glyph-name="wdieresis" unicode="&#x1e85;" horiz-adv-x="1595" 
d="M567 0h-188l-354 1065h215l231 -735l231 735h193l229 -735l234 735h215l-354 -1065h-191l-29 86l-12 43l-188 582zM1014 1475q59 0 97 -38t38 -96q0 -57 -37.5 -95t-97.5 -38q-57 0 -95 38t-38 95t38 95.5t95 38.5zM584 1475q57 0 95 -38.5t38 -95.5t-38 -95t-95 -38
q-60 0 -97.5 38t-37.5 95q0 58 38 96t97 38z" />
    <glyph glyph-name="Germandbls" unicode="&#x1e9e;" horiz-adv-x="1363" 
d="M360 895v-895h-221v899q0 229 158 381q160 154 399 154h551v-152l-243 -377q120 -44 200 -164q80 -121 80 -262q0 -216 -178 -360q-178 -146 -438 -146l2 222q165 0 274 81q111 82 111 207q0 123 -113 205q-113 84 -280 84l290 449h-260q-142 0 -237 -95
q-95 -92 -95 -231z" />
    <glyph glyph-name="Ygrave" unicode="&#x1ef2;" horiz-adv-x="1390" 
d="M578 0v582l-551 852h264l399 -633l408 633h264l-555 -842v-592h-229zM852 1694l-72 -131l-422 190l97 193z" />
    <glyph glyph-name="ygrave" unicode="&#x1ef3;" horiz-adv-x="1103" 
d="M440 27l-415 1038h219l303 -774l313 774h219l-501 -1227q-63 -155 -165.5 -227t-262.5 -72h-46v205h46q94 0 151 39t92 127zM635 1217l-422 192l98 190l398 -249z" />
    <glyph glyph-name="figuredash" unicode="&#x2012;" 
d="M129 618v197h971v-197h-971z" />
    <glyph glyph-name="endash" unicode="&#x2013;" 
d="M129 434v197h971v-197h-971z" />
    <glyph glyph-name="emdash" unicode="&#x2014;" horiz-adv-x="2048" 
d="M129 434v197h1790v-197h-1790z" />
    <glyph glyph-name="quoteleft" unicode="&#x2018;" horiz-adv-x="462" 
d="M82 1245q0 60 23 117t52.5 94t65 68.5t53.5 43t25 15.5l70 -70l-31 -32q-22 -26 -49 -70q-31 -51 -31 -80q51 -8 86 -48.5t35 -94.5q0 -60 -40.5 -99.5t-102.5 -39.5q-68 0 -112 55t-44 141z" />
    <glyph glyph-name="quoteright" unicode="&#x2019;" horiz-adv-x="462" 
d="M383 1366q0 -28 -5 -55.5t-12.5 -50t-20.5 -46t-24 -40.5t-28 -36t-28.5 -30.5t-29 -26.5t-25.5 -21t-22.5 -16.5t-15.5 -11.5l-8 -4l-70 72l31 33q26 30 47 69q31 51 31 80q-51 8 -85 48t-34 95q0 60 40 99t101 39q69 0 113.5 -55t44.5 -142z" />
    <glyph glyph-name="quotesinglbase" unicode="&#x201a;" horiz-adv-x="462" 
d="M383 59q0 -28 -5 -55.5t-12.5 -50t-20.5 -45.5t-24.5 -40.5t-28 -36t-28 -30.5t-29 -26t-25.5 -20.5t-22 -17t-16 -11.5l-8 -5l-70 72l31 33q24 28 47 70q31 48 31 77q-51 8 -85 49.5t-34 96.5q0 60 39.5 98.5t101.5 38.5q69 0 113.5 -55t44.5 -142z" />
    <glyph glyph-name="quotereversed" unicode="&#x201b;" horiz-adv-x="462" 
d="M82 1374q0 84 44 136.5t112 52.5q62 0 102.5 -39t40.5 -99q0 -55 -34.5 -95t-86.5 -48q0 -27 26 -66.5t58 -68.5l27 -27l-70 -71q-76 51 -121 96q-98 107 -98 229z" />
    <glyph glyph-name="quotedblleft" unicode="&#x201c;" horiz-adv-x="827" 
d="M444 1245q0 35 7.5 68t20 61t28.5 53.5t34.5 46t36 37.5t34.5 30.5t29.5 22t21.5 14.5l8 5l69 -70l-31 -32q-22 -26 -49 -70q-30 -49 -30 -80q51 -8 85.5 -48.5t34.5 -94.5q0 -60 -40.5 -99.5t-100.5 -39.5q-69 0 -113.5 54.5t-44.5 141.5zM82 1245q0 60 23 117t52.5 94
t65 68.5t53.5 43t25 15.5l70 -70l-31 -32q-22 -26 -49 -70q-31 -51 -31 -80q51 -8 86 -48.5t35 -94.5q0 -60 -40.5 -99.5t-102.5 -39.5q-68 0 -112 55t-44 141z" />
    <glyph glyph-name="quotedblright" unicode="&#x201d;" horiz-adv-x="827" 
d="M383 1366q0 -28 -5 -55.5t-12.5 -50t-20.5 -46t-24 -40.5t-28 -36t-28.5 -30.5t-29 -26.5t-25.5 -21t-22.5 -16.5t-15.5 -11.5l-8 -4l-70 72l31 33q26 30 47 69q31 51 31 80q-51 8 -85 48t-34 95q0 60 40 99t101 39q69 0 113.5 -55t44.5 -142zM745 1366q0 -28 -5 -55.5
t-12.5 -50t-20.5 -46t-24 -40.5t-28 -36t-28 -30.5t-29 -26.5t-25.5 -20.5t-22 -17t-15.5 -11.5l-9 -4l-69 72l30 33q28 33 50 69q30 50 30 80q-52 8 -86.5 48t-34.5 95q0 57 41 97.5t101 40.5q69 0 113 -55t44 -142z" />
    <glyph glyph-name="quotedblbase" unicode="&#x201e;" horiz-adv-x="827" 
d="M383 59q0 -28 -5 -55.5t-12.5 -50t-20.5 -45.5t-24.5 -40.5t-28 -36t-28 -30.5t-29 -26t-25.5 -20.5t-22 -17t-16 -11.5l-8 -5l-70 72l31 33q24 28 47 70q31 48 31 77q-51 8 -85 49.5t-34 96.5q0 60 39.5 98.5t101.5 38.5q69 0 113.5 -55t44.5 -142zM745 59
q0 -28 -5 -55.5t-12.5 -50t-20.5 -45.5t-24 -40.5t-28 -36t-28 -30t-28.5 -26.5t-25.5 -21t-22.5 -16.5t-15.5 -11.5l-9 -5l-69 72l30 33q26 30 50 70q30 46 30 77q-51 8 -86 49.5t-35 96.5q0 57 41 97t101 40q69 0 113 -55t44 -142z" />
    <glyph glyph-name="uni201F" unicode="&#x201f;" horiz-adv-x="827" 
d="M444 1374q0 84 44.5 136.5t113.5 52.5q60 0 100.5 -40.5t40.5 -97.5q0 -55 -34 -95t-86 -48q0 -27 25.5 -65.5t56.5 -69.5l28 -27l-69 -71l-9 4q-2 2 -20.5 15t-30.5 22t-33.5 28.5t-36.5 36.5t-33.5 43t-29.5 51.5t-19 58t-8 66.5zM82 1374q0 84 44 136.5t112 52.5
q62 0 102.5 -39t40.5 -99q0 -55 -34.5 -95t-86.5 -48q0 -27 26 -66.5t58 -68.5l27 -27l-70 -71q-76 51 -121 96q-98 107 -98 229z" />
    <glyph glyph-name="dagger" unicode="&#x2020;" horiz-adv-x="954" 
d="M47 842v170h342v422h178v-422h340v-170h-340v-1047h-178v1047h-342z" />
    <glyph glyph-name="daggerdbl" unicode="&#x2021;" horiz-adv-x="954" 
d="M389 217h-342v170h342v455h-342v170h342v422h178v-422h340v-170h-340v-455h340v-170h-340v-422h-178v422z" />
    <glyph glyph-name="bullet" unicode="&#x2022;" horiz-adv-x="735" 
d="M84 532q0 123 81 204t204 81q120 0 202 -82q82 -79 82 -203q0 -120 -82 -202t-202 -82q-123 0 -205 82q-80 83 -80 202z" />
    <glyph glyph-name="ellipsis" unicode="&#x2026;" horiz-adv-x="1351" 
d="M123 12q-38 41 -38 102.5t38 102.5q41 41 102.5 41t102.5 -41t41 -102.5t-41 -102.5q-41 -38 -102.5 -38t-102.5 38zM676 258q62 0 102.5 -41t40.5 -102t-40.5 -101.5t-102.5 -40.5q-60 0 -100.5 40.5t-40.5 101.5t40.5 102t100.5 41zM1126 258q62 0 103 -41t41 -102
t-41 -101.5t-103 -40.5q-60 0 -100.5 40.5t-40.5 101.5t40.5 102t100.5 41z" />
    <glyph glyph-name="perthousand" unicode="&#x2030;" horiz-adv-x="2478" 
d="M334 0l-109 90l1121 1344l110 -95zM170 852q-102 102 -102 254q0 150 102 252t254 102q150 0 252 -102t102 -252q0 -152 -102 -254q-100 -100 -252 -100q-154 0 -254 100zM424 1272q-71 0 -118.5 -48t-47.5 -118q0 -69 48.5 -116.5t117.5 -47.5t116.5 47.5t47.5 116.5
t-47.5 117.5t-116.5 48.5zM1255 682q150 0 252 -102q103 -103 103 -252q0 -151 -103 -254q-101 -101 -252 -101q-153 0 -254 101q-100 100 -100 254q0 149 103 252q102 102 251 102zM1255 162q69 0 116.5 48.5t47.5 117.5t-47.5 117.5t-116.5 48.5t-117 -48.5t-48 -117.5
q0 -70 47 -118t118 -48zM1802 74q-100 100 -100 254q0 152 100 252q102 102 254 102q150 0 252 -102t102 -252q0 -152 -102 -254q-101 -101 -252 -101q-153 0 -254 101zM1937 444q-47 -47 -47 -116.5t47 -118.5q49 -47 119 -47t117 47q49 49 49 118.5t-49 116.5
q-47 50 -117 50t-119 -50z" />
    <glyph glyph-name="guilsinglleft" unicode="&#x2039;" horiz-adv-x="675" 
d="M459 143l-391 389l391 392l125 -127l-267 -265l267 -264z" />
    <glyph glyph-name="guilsinglright" unicode="&#x203a;" horiz-adv-x="675" 
d="M217 924l389 -392l-389 -389l-125 125l264 264l-264 265z" />
    <glyph glyph-name="fraction" unicode="&#x2044;" horiz-adv-x="1187" 
d="M176 0h-176l1010 1434h178z" />
    <glyph glyph-name="Euro" unicode="&#x20ac;" horiz-adv-x="1710" 
d="M231 809h-184v162h219q77 222 264 354q190 135 439 135q215 0 390 -104t269 -285l-223 -82q-67 117 -181.5 183.5t-254.5 66.5q-147 0 -265.5 -71.5t-181.5 -196.5h490v-162h-543q-12 -92 0 -184h543v-162h-490q63 -125 181.5 -196.5t265.5 -71.5q140 0 254.5 66.5
t181.5 182.5l223 -82q-94 -181 -269 -285t-390 -104q-247 0 -439 133q-187 135 -264 357h-219v162h184q-12 92 0 184z" />
    <glyph glyph-name="uni20B4" unicode="&#x20b4;" horiz-adv-x="1310" 
d="M563 784h-485v162h776q86 59 86 127t-75 117t-183 49q-100 0 -174.5 -47.5t-93.5 -118.5l-230 68q41 141 176 227q139 92 326 92q208 0 346 -108q137 -107 137 -256q0 -80 -49 -150h115v-162h-295q-62 -38 -80 -47q-33 -18 -101.5 -51t-76.5 -37h553v-162h-813
q-57 -51 -57 -110q0 -76 86 -129t208 -53q125 0 214 55t108 137l227 -72q-43 -146 -190 -245q-151 -97 -356 -97q-230 0 -379 113q-150 114 -150 274q0 62 35 127h-90v162h244q74 55 241 135z" />
    <glyph glyph-name="uni2113" unicode="&#x2113;" horiz-adv-x="1007" 
d="M244 414l-158 -70v223q78 31 158 76v514q0 174 92 289q92 117 233 117q142 0 236 -113t94 -279q0 -342 -442 -634v-236q0 -55 28.5 -85t81.5 -30q107 0 191 117l8 12l129 -129q-28 -35 -66 -73q-129 -140 -284 -140q-127 0 -215 97q-86 95 -86 241v103zM457 1167v-385
q229 183 229 379q0 80 -33 134.5t-84 54.5q-49 0 -80.5 -51.5t-31.5 -131.5z" />
    <glyph glyph-name="uni2116" unicode="&#x2116;" horiz-adv-x="2328" 
d="M360 1038v-1038h-221v1434h203l821 -1039v1039h221v-1434h-202zM2111 870q-98 -98 -245 -98t-248 98q-98 98 -98 246t98 246q101 98 248 98t245 -98q99 -99 99 -246t-99 -246zM2191 446h-653v187h653v-187zM1753 1227q-44 -44 -44 -110.5t44 -110.5q47 -44 112.5 -44
t108.5 44q44 44 44 110.5t-44 110.5q-43 44 -108.5 44t-112.5 -44z" />
    <glyph glyph-name="uni2117" unicode="&#x2117;" horiz-adv-x="1650" 
d="M307 199q-215 215 -215 518t215 518t518 215q304 0 516 -215q215 -215 215 -518t-215 -518q-212 -215 -516 -215q-303 0 -518 215zM825 76q265 0 453 188t188 453q0 264 -188 452q-189 189 -453 189q-265 0 -454 -189q-187 -187 -187 -452q0 -266 187 -453
q188 -188 454 -188zM723 332h-141v770h344q115 0 192 -74q78 -72 78 -178q0 -107 -78 -182q-78 -72 -192 -72h-203v-264zM926 971h-203v-244h203q54 0 88.5 34.5t34.5 88.5q0 52 -34.5 86.5t-88.5 34.5z" />
    <glyph glyph-name="trademark" unicode="&#x2122;" horiz-adv-x="1574" 
d="M856 717h-123v717h123l266 -467l269 467h122v-717h-122v493l-228 -409h-82l-225 403v-487zM266 717v600h-246v117h617v-117h-246v-600h-125z" />
    <glyph glyph-name="estimated" unicode="&#x212e;" horiz-adv-x="1646" 
d="M1554 717h-1134v-508q178 -141 403 -141q182 0 335.5 93t240.5 255h90q-89 -197 -270 -314q-180 -116 -396 -116q-300 0 -516 213q-215 215 -215 518t213 516q215 215 518 215q304 0 516 -215q215 -212 215 -516zM420 1225v-426h807v426q-179 141 -404 141t-403 -141z
" />
    <glyph glyph-name="uni2150" unicode="&#x2150;" horiz-adv-x="1681" 
d="M242 645v627l-150 -74l-49 117l238 119h96v-789h-135zM1364 1434l-1008 -1434h-186l1008 1434h186zM1206 0l291 664h-401v124h544v-131l-280 -657h-154z" />
    <glyph glyph-name="uni2151" unicode="&#x2151;" horiz-adv-x="1679" 
d="M1341 401q63 0 106.5 38.5t43.5 95.5q4 41 -24 74t-69 47t-88.5 8t-78.5 -35q-33 -27 -39.5 -68t9.5 -77.5t54 -61.5t86 -21zM1051 137l120 58q51 -72 150 -72q75 0 125.5 41t50.5 102v96q-50 -92 -170 -92q-117 0 -199 76q-81 75 -81 191q0 112 83 186q82 76 209 76
t209 -76q86 -74 86 -182v-273q0 -117 -90 -198q-89 -80 -219 -80q-90 0 -163.5 39.5t-110.5 107.5zM242 645v627l-150 -74l-49 117l238 119h96v-789h-135zM1364 1434l-1008 -1434h-186l1008 1434h186z" />
    <glyph glyph-name="uni2152" unicode="&#x2152;" horiz-adv-x="2242" 
d="M1888 666q-72 0 -119 -42.5t-47 -105.5v-246q0 -63 47 -106t119 -43q69 0 117.5 43t48.5 106v246q0 63 -48.5 105.5t-117.5 42.5zM1284 0v627l-147 -74l-52 117l238 118h96v-788h-135zM1583 274v242q0 121 86 201q88 82 219 82q130 0 215 -82q88 -79 88 -201v-242
q0 -120 -88 -202q-85 -82 -215 -82q-131 0 -219 82q-86 83 -86 202zM242 645v627l-150 -74l-49 117l238 119h96v-789h-135zM1364 1434l-1008 -1434h-186l1008 1434h186z" />
    <glyph glyph-name="onethird" unicode="&#x2153;" horiz-adv-x="1679" 
d="M242 645v627l-150 -74l-49 117l238 119h96v-789h-135zM1364 1434l-1008 -1434h-186l1008 1434h186zM1329 666q-106 0 -147 -80l-121 43q33 76 107 123t169 47q117 0 196 -68t79 -168q0 -104 -107 -153q125 -55 125 -177q0 -104 -83 -173.5t-208 -69.5q-101 0 -178 48.5
t-108 127.5l127 47q14 -41 55 -65.5t98 -24.5q67 0 111.5 32.5t44.5 82.5q0 49 -43 80.5t-109 31.5h-59v105h41q63 0 106 31t43 75q0 45 -39.5 75t-99.5 30z" />
    <glyph glyph-name="twothirds" unicode="&#x2154;" horiz-adv-x="1845" 
d="M453 1198q0 45 -40 79t-94 34q-111 0 -157 -119l-127 63q38 87 114.5 138t169.5 51q114 0 195 -72q80 -71 80 -170q0 -121 -168 -270l-164 -156h342v-131h-553v100l289 275q113 107 113 178zM522 0h-186l1007 1434h187zM1495 666q-106 0 -147 -80l-121 43q33 76 107 123
t169 47q117 0 196 -68t79 -168q0 -104 -107 -153q127 -56 127 -177q0 -102 -84 -174q-81 -69 -209 -69q-101 0 -178 48.5t-108 127.5l127 47q13 -41 55 -65.5t98 -24.5q67 0 111.5 32.5t44.5 82.5q0 49 -43 80.5t-109 31.5h-59v105h41q63 0 106 31t43 75q0 45 -39 75
t-100 30z" />
    <glyph glyph-name="uni2155" unicode="&#x2155;" horiz-adv-x="1689" 
d="M242 645v627l-150 -74l-49 117l238 119h96v-789h-135zM1364 1434l-1008 -1434h-186l1008 1434h186zM1642 256q0 -113 -86 -190q-82 -76 -210 -76q-104 0 -184 54t-111 142l137 39q46 -102 155 -102q66 0 112 38t46 95t-50.5 97t-123.5 40h-217l39 395h428v-124h-315
l-15 -146h113q119 0 201 -76q81 -75 81 -186z" />
    <glyph glyph-name="uni2156" unicode="&#x2156;" horiz-adv-x="1855" 
d="M453 1198q0 45 -40 79t-94 34q-111 0 -157 -119l-127 63q38 87 114.5 138t169.5 51q114 0 195 -72q80 -71 80 -170q0 -121 -168 -270l-164 -156h342v-131h-553v100l289 275q113 107 113 178zM522 0h-186l1007 1434h187zM1808 256q0 -113 -86 -190q-82 -76 -211 -76
q-103 0 -183 54t-111 142l137 39q46 -102 155 -102q68 0 113 38t45 95t-50.5 97t-123.5 40h-217l39 395h428v-124h-316l-14 -146h115q119 0 198 -76q82 -76 82 -186z" />
    <glyph glyph-name="uni2157" unicode="&#x2157;" horiz-adv-x="1886" 
d="M317 1311q-106 0 -147 -80l-121 43q33 76 107.5 123t169.5 47q117 0 195.5 -68t78.5 -168q0 -104 -106 -153q124 -55 124 -176q0 -104 -82.5 -173t-207.5 -69q-102 0 -179 47.5t-108 126.5l127 47q13 -41 55 -65.5t99 -24.5q67 0 111 32.5t44 82.5q0 49 -42.5 80.5
t-108.5 31.5h-60v105h41q63 0 106.5 31t43.5 75t-40 74.5t-100 30.5zM553 0h-186l1007 1434h187zM1841 256q0 -113 -86 -190q-85 -76 -213 -76q-103 0 -182.5 53.5t-112.5 142.5l137 39q46 -102 158 -102q66 0 111 38t45 95t-50 97t-122 40h-219l41 395h426v-124h-314
l-16 -146h115q118 0 200 -76t82 -186z" />
    <glyph glyph-name="uni2158" unicode="&#x2158;" horiz-adv-x="1927" 
d="M41 799v131l420 504h129v-504h104v-131h-104v-154h-137v154h-412zM596 0h-188l1007 1434h189zM1290 186l137 39q47 -102 156 -102q66 0 111 38t45 95q0 60 -49 98.5t-123 38.5h-217l39 395h426v-124h-314l-14 -146h112q119 0 201 -76t82 -186q0 -113 -86 -190
q-85 -76 -213 -76q-102 0 -182 54t-111 142zM453 1229l-248 -299h248v299z" />
    <glyph glyph-name="uni2159" unicode="&#x2159;" horiz-adv-x="1683" 
d="M1352 375q-48 3 -86.5 -20t-55.5 -56.5t-10 -72.5t41 -66q32 -29 80 -35t89 7.5t69 45t24 72.5q0 54 -43.5 89.5t-107.5 35.5zM1630 647l-123 -59q-47 78 -147 78q-72 0 -120 -41t-48 -103v-96q59 80 172 80q118 0 201 -74q82 -73 82 -184q0 -108 -86 -185
q-82 -73 -209 -73q-126 0 -211 73q-86 77 -86 185v274q0 120 86 197q89 80 217 80q90 0 162.5 -41t109.5 -111zM242 645v627l-150 -74l-49 117l238 119h96v-789h-135zM1364 1434l-1008 -1434h-186l1008 1434h186z" />
    <glyph glyph-name="uni215A" unicode="&#x215a;" horiz-adv-x="1841" 
d="M1507 375q-64 0 -107.5 -35.5t-43.5 -89.5t44 -90.5t107 -36.5q66 0 109 36t43 91q0 54 -43 89.5t-109 35.5zM1786 647l-123 -59q-47 78 -147 78q-72 0 -119 -41t-47 -103v-96q59 80 172 80q116 0 198 -76q82 -73 82 -182q0 -108 -86 -185q-82 -73 -209 -73
q-126 0 -211 73q-84 78 -84 185v274q0 120 86 197q89 80 218 80q90 0 162 -41t108 -111zM631 901q0 -111 -86 -188q-82 -76 -211 -76q-104 0 -184 53t-111 141l137 39q46 -102 156 -102q66 0 111.5 38t45.5 95t-50.5 97t-123.5 40h-217l39 396h426v-125h-313l-14 -146h112
q119 0 201 -76t82 -186zM1522 1434l-1008 -1434h-188l1007 1434h189z" />
    <glyph glyph-name="oneeighth" unicode="&#x215b;" horiz-adv-x="1685" 
d="M1190 236q0 -50 43 -81.5t110 -31.5q66 0 110 31.5t44 78.5t-44 79t-110 32q-67 0 -110 -30.5t-43 -77.5zM1210 569q0 -43 38 -70.5t95 -27.5t95.5 27.5t38.5 70.5q0 41 -38.5 69t-95.5 28t-95 -28t-38 -69zM1069 582q0 93 78 155t196 62q117 0 196 -62.5t79 -156.5
q0 -107 -98 -168q118 -69 118 -191q0 -98 -86 -166q-83 -65 -209 -65q-128 0 -210 67q-84 69 -84 166q0 122 116 189q-96 66 -96 170zM242 645v627l-150 -74l-49 117l238 119h96v-789h-135zM1364 1434l-1008 -1434h-186l1008 1434h186z" />
    <glyph glyph-name="threeeighths" unicode="&#x215c;" horiz-adv-x="1882" 
d="M1245 223q0 119 119 189q-98 61 -98 170q0 92 78.5 154.5t195.5 62.5q119 0 198 -62.5t79 -156.5q0 -106 -99 -168q119 -70 119 -191q0 -98 -86 -166q-83 -65 -211 -65q-126 0 -211 67q-84 69 -84 166zM1561 1434l-1008 -1434h-186l1007 1434h187zM328 637
q-102 0 -179 47.5t-108 126.5l127 47q13 -41 55 -65.5t99 -24.5q67 0 111 32.5t44 82.5q0 49 -42.5 80.5t-108.5 31.5h-60v105h41q63 0 106.5 31t43.5 75t-40 74.5t-100 30.5q-106 0 -147 -80l-121 43q33 76 107.5 123t169.5 47q117 0 195.5 -68t78.5 -168q0 -104 -106 -153
q124 -55 124 -176q0 -104 -82.5 -173t-207.5 -69zM1389 236q0 -49 42.5 -81t108.5 -32t110 31.5t44 78.5t-44 79t-110 32t-108.5 -30.5t-42.5 -77.5zM1409 569q0 -42 37.5 -70t93.5 -28q57 0 95 27.5t38 70.5q0 41 -38 69t-95 28q-56 0 -93.5 -28t-37.5 -69z" />
    <glyph glyph-name="fiveeighths" unicode="&#x215d;" horiz-adv-x="1841" 
d="M1348 236q0 -49 42.5 -81t108.5 -32t110 31.5t44 78.5t-44 79t-110 32t-108.5 -30.5t-42.5 -77.5zM1368 569q0 -42 37.5 -70t93.5 -28q57 0 95 27.5t38 70.5q0 41 -38 69t-95 28q-56 0 -93.5 -28t-37.5 -69zM1225 582q0 92 78.5 154.5t195.5 62.5q119 0 198 -62.5
t79 -156.5q0 -104 -99 -168q119 -70 119 -191q0 -98 -86 -166q-83 -65 -211 -65q-126 0 -211 67q-84 69 -84 166q0 125 119 189q-98 61 -98 170zM631 901q0 -111 -86 -188q-82 -76 -211 -76q-104 0 -184 53t-111 141l137 39q46 -102 156 -102q66 0 111.5 38t45.5 95
t-50.5 97t-123.5 40h-217l39 396h426v-125h-313l-14 -146h112q119 0 201 -76t82 -186zM1522 1434l-1008 -1434h-188l1007 1434h189z" />
    <glyph glyph-name="seveneighths" unicode="&#x215e;" horiz-adv-x="1753" 
d="M1257 236q0 -50 43.5 -81.5t110.5 -31.5q66 0 110 31.5t44 78.5t-44 79t-110 32q-67 0 -110.5 -30.5t-43.5 -77.5zM1278 569q0 -43 38 -70.5t95 -27.5t95 27.5t38 70.5q0 41 -38 69t-95 28t-95 -28t-38 -69zM1137 582q0 93 78 155t196 62q117 0 196 -62.5t79 -156.5
q0 -106 -99 -168q119 -70 119 -191q0 -98 -86 -166q-83 -65 -209 -65q-129 0 -211 67q-84 69 -84 166q0 121 117 189q-96 66 -96 170zM133 645l291 664h-401v125h544v-131l-280 -658h-154zM1432 1434l-1008 -1434h-186l1007 1434h187z" />
    <glyph glyph-name="uni215F" unicode="&#x215f;" horiz-adv-x="1363" 
d="M242 645v627l-150 -74l-49 117l238 119h96v-789h-135zM1364 1434l-1008 -1434h-186l1008 1434h186z" />
    <glyph glyph-name="arrowleft" unicode="&#x2190;" horiz-adv-x="1419" 
d="M651 195l-522 522l522 522l131 -129l-286 -295h794v-197h-794l286 -294z" />
    <glyph glyph-name="arrowup" unicode="&#x2191;" horiz-adv-x="1419" 
d="M188 774l523 522l522 -522l-131 -129l-295 287v-795h-195v795l-295 -287z" />
    <glyph glyph-name="arrowright" unicode="&#x2192;" horiz-adv-x="1419" 
d="M768 1239l522 -522l-522 -522l-131 129l287 294h-795v197h795l-287 295z" />
    <glyph glyph-name="arrowdown" unicode="&#x2193;" horiz-adv-x="1419" 
d="M1233 659l-522 -522l-523 522l129 129l295 -284v792h195v-792l295 284z" />
    <glyph glyph-name="uni2196" unicode="&#x2196;" horiz-adv-x="1419" 
d="M299 389v737h739v-182l-409 -6l561 -563l-139 -137l-562 561l-6 -410h-184z" />
    <glyph glyph-name="uni2197" unicode="&#x2197;" horiz-adv-x="1419" 
d="M451 1126h739v-737h-184l-7 410l-561 -561l-139 137l561 563l-409 6v182z" />
    <glyph glyph-name="uni2198" unicode="&#x2198;" horiz-adv-x="1419" 
d="M1190 977v-739h-739v184l409 6l-561 561l139 137l561 -561l7 412h184z" />
    <glyph glyph-name="uni2199" unicode="&#x2199;" horiz-adv-x="1419" 
d="M1038 238h-739v739h184l6 -412l562 561l139 -137l-561 -561l409 -6v-184z" />
    <glyph glyph-name="emptyset" unicode="&#x2205;" horiz-adv-x="1671" 
d="M836 1460q184 0 356 -90l63 90h201l-129 -186q120 -106 187 -250.5t67 -306.5q0 -308 -219 -527q-217 -217 -526 -217q-185 0 -357 90l-63 -90h-201l131 185q-122 103 -188 248.5t-66 310.5q0 307 217 524q219 219 527 219zM449 305l641 916q-119 61 -254 61
q-234 0 -400 -166t-166 -399q0 -239 179 -412zM836 152q234 0 399 165q166 166 166 400q0 242 -178 411l-639 -915q119 -61 252 -61z" />
    <glyph glyph-name="product" unicode="&#x220f;" horiz-adv-x="1343" 
d="M360 1229v-1587h-221v1792h1065v-1792h-221v1587h-623z" />
    <glyph glyph-name="summation" unicode="&#x2211;" horiz-adv-x="1038" 
d="M977 -154v-204h-916v170l447 725l-447 727v170h916v-205h-655l426 -692l-426 -691h655z" />
    <glyph glyph-name="minus" unicode="&#x2212;" 
d="M129 618v197h971v-197h-971z" />
    <glyph glyph-name="integral" unicode="&#x222b;" horiz-adv-x="661" 
d="M20 -358v204h62q61 0 102 43.5t41 106.5v1214q0 138 97 232q98 94 241 94h78v-205h-61q-60 0 -101 -43t-41 -106v-1215q0 -140 -98 -231q-98 -94 -242 -94h-78z" />
    <glyph glyph-name="approxequal" unicode="&#x2248;" 
d="M782 760q-89 0 -196 67q-109 68 -150 68q-47 0 -79.5 -36t-32.5 -87h-195q0 135 92 227q96 93 223 93q92 0 199 -70q109 -68 150 -68q47 0 78.5 34.5t31.5 88.5h197q-3 -135 -96 -225q-92 -92 -222 -92zM782 344q-87 0 -196 68q-107 67 -150 67q-47 0 -79.5 -36
t-32.5 -87h-195q0 137 92 226q95 92 223 92q90 0 199 -68q107 -67 150 -67q47 0 78.5 34.5t31.5 88.5h197q-3 -136 -96 -226q-92 -92 -222 -92z" />
    <glyph glyph-name="notequal" unicode="&#x2260;" 
d="M782 856l-129 -278h447v-197h-539l-115 -248h-196l115 248h-236v197h328l129 278h-457v197h549l115 247h196l-115 -247h226v-197h-318z" />
    <glyph glyph-name="lessequal" unicode="&#x2264;" 
d="M1100 393l-971 400v176l971 403v-211l-670 -280l670 -277v-211zM129 84v197h971v-197h-971z" />
    <glyph glyph-name="greaterequal" unicode="&#x2265;" 
d="M1100 969v-176l-971 -400v211l670 277l-670 280v211zM129 281h971v-197h-971v197z" />
    <glyph glyph-name="uni23F4" unicode="&#x23f4;" horiz-adv-x="790" 
d="M606 272l-504 445l504 444v-889z" />
    <glyph glyph-name="uni23F5" unicode="&#x23f5;" horiz-adv-x="790" 
d="M184 1161l504 -444l-504 -445v889z" />
    <glyph glyph-name="uni23F6" unicode="&#x23f6;" horiz-adv-x="929" 
d="M20 465l445 504l444 -504h-889z" />
    <glyph glyph-name="uni23F7" unicode="&#x23f7;" horiz-adv-x="929" 
d="M909 969l-444 -504l-445 504h889z" />
    <glyph glyph-name="filledbox" unicode="&#x25a0;" horiz-adv-x="1712" 
d="M1573 0h-1434v1434h1434v-1434z" />
    <glyph glyph-name="H22073" unicode="&#x25a1;" horiz-adv-x="1712" 
d="M1573 0h-1434v1434h1434v-1434zM1395 178v1077h-1078v-1077h1078z" />
    <glyph glyph-name="uni25A2" unicode="&#x25a2;" horiz-adv-x="1712" 
d="M1573 0h-1434v1434h1434v-1434zM1395 178v1077h-1078v-1077h1078z" />
    <glyph glyph-name="triagup" unicode="&#x25b2;" horiz-adv-x="1826" 
d="M61 0l852 1475l852 -1475h-1704z" />
    <glyph glyph-name="uni25B3" unicode="&#x25b3;" horiz-adv-x="1826" 
d="M913 1475l852 -1475h-1704zM373 178h1083l-543 940z" />
    <glyph glyph-name="triagdn" unicode="&#x25bc;" horiz-adv-x="1826" 
d="M1765 1434l-852 -1475l-852 1475h1704z" />
    <glyph glyph-name="uni25BD" unicode="&#x25bd;" horiz-adv-x="1826" 
d="M61 1434h1704l-852 -1475zM913 315l543 940h-1083z" />
    <glyph glyph-name="uni25C6" unicode="&#x25c6;" horiz-adv-x="1638" 
d="M819 -41l-758 758l758 758l758 -758z" />
    <glyph glyph-name="uni25C7" unicode="&#x25c7;" horiz-adv-x="1638" 
d="M819 -41l-758 758l758 758l758 -758zM819 211l506 506l-506 506l-506 -506z" />
    <glyph glyph-name="lozenge" unicode="&#x25ca;" horiz-adv-x="1075" 
d="M61 717l414 717h125l414 -717l-414 -717h-125zM539 252l268 465l-268 465l-271 -465z" />
    <glyph glyph-name="circle" unicode="&#x25cb;" horiz-adv-x="1671" 
d="M92 717q0 307 217 524q219 219 527 219q307 0 526 -219t219 -524q0 -308 -219 -527q-217 -217 -526 -217q-310 0 -527 217t-217 527zM436 1116q-166 -166 -166 -399q0 -234 166 -400q165 -165 400 -165q234 0 399 165q166 166 166 400q0 233 -166 399t-399 166
q-234 0 -400 -166z" />
    <glyph glyph-name="H18533" unicode="&#x25cf;" horiz-adv-x="1671" 
d="M92 717q0 307 217 524q219 219 527 219q307 0 526 -219t219 -524q0 -308 -219 -527q-217 -217 -526 -217q-310 0 -527 217t-217 527z" />
    <glyph glyph-name="uni25D0" unicode="&#x25d0;" horiz-adv-x="1671" 
d="M92 717q0 307 217 524q219 219 527 219q307 0 526 -219t219 -524q0 -308 -219 -527q-217 -217 -526 -217q-310 0 -527 217t-217 527zM836 1282v-1130q234 0 399 165q166 166 166 400q0 233 -166 399t-399 166z" />
    <glyph glyph-name="uni25D1" unicode="&#x25d1;" horiz-adv-x="1671" 
d="M92 717q0 307 217 524q219 219 527 219q307 0 526 -219t219 -524q0 -308 -219 -527q-217 -217 -526 -217q-310 0 -527 217t-217 527zM836 152v1130q-234 0 -400 -166t-166 -399q0 -234 166 -400q165 -165 400 -165z" />
    <glyph glyph-name="uni25D2" unicode="&#x25d2;" horiz-adv-x="1671" 
d="M836 -27q-310 0 -527 217t-217 527q0 307 217 524q219 219 527 219q307 0 526 -219t219 -524q0 -308 -219 -527q-217 -217 -526 -217zM270 717h1131q0 233 -166 399t-399 166q-234 0 -400 -166t-166 -399z" />
    <glyph glyph-name="uni25D3" unicode="&#x25d3;" horiz-adv-x="1671" 
d="M836 1460q307 0 526 -219t219 -524q0 -308 -219 -527q-217 -217 -526 -217q-310 0 -527 217t-217 527q0 307 217 524q219 219 527 219zM1401 717h-1131q0 -234 166 -400q165 -165 400 -165q234 0 399 165q166 166 166 400z" />
    <glyph glyph-name="uni25D4" unicode="&#x25d4;" horiz-adv-x="1671" 
d="M92 717q0 307 217 524q219 219 527 219q307 0 526 -219t219 -524q0 -308 -219 -527q-217 -217 -526 -217q-310 0 -527 217t-217 527zM1401 717h-565v565q-234 0 -400 -166t-166 -399q0 -234 166 -400q165 -165 400 -165q234 0 399 165q166 166 166 400z" />
    <glyph glyph-name="uni25D5" unicode="&#x25d5;" horiz-adv-x="1671" 
d="M92 717q0 307 217 524q219 219 527 219q307 0 526 -219t219 -524q0 -308 -219 -527q-217 -217 -526 -217q-310 0 -527 217t-217 527zM270 717h566v565q-234 0 -400 -166t-166 -399z" />
    <glyph glyph-name="uni25D6" unicode="&#x25d6;" horiz-adv-x="974" 
d="M92 717q0 307 217 524q219 219 527 219v-1487q-310 0 -527 217t-217 527z" />
    <glyph glyph-name="uni25D7" unicode="&#x25d7;" horiz-adv-x="974" 
d="M883 717q0 -308 -219 -527q-217 -217 -525 -217v1487q306 0 525 -219t219 -524z" />
    <glyph glyph-name="uni25EF" unicode="&#x25ef;" horiz-adv-x="1671" 
d="M92 717q0 307 217 524q219 219 527 219q307 0 526 -219t219 -524q0 -308 -219 -527q-217 -217 -526 -217q-310 0 -527 217t-217 527zM436 1116q-166 -166 -166 -399q0 -234 166 -400q165 -165 400 -165q234 0 399 165q166 166 166 400q0 233 -166 399t-399 166
q-234 0 -400 -166z" />
    <glyph glyph-name="uni2639" unicode="&#x2639;" horiz-adv-x="1617" 
d="M424 938q0 54 36.5 90.5t90.5 36.5q55 0 92 -36.5t37 -90.5q0 -56 -37 -92.5t-92 -36.5q-54 0 -90.5 37t-36.5 92zM942 938q0 54 36.5 90.5t90.5 36.5q55 0 92 -36.5t37 -90.5q0 -56 -37 -92.5t-92 -36.5q-54 0 -90.5 37t-36.5 92zM475 293h-82q0 161 119 268
q121 109 297 109q174 0 295 -109t121 -268h-82q0 125 -96 209t-238 84t-238 -84t-96 -209zM295 203q-213 213 -213 514t213 514t514 213t514 -213t213 -514t-213 -514t-514 -213t-514 213zM350 1176q-190 -190 -190 -459t190 -459t459 -190t459 190t190 459t-190 459
t-459 190t-459 -190z" />
    <glyph glyph-name="smileface" unicode="&#x263a;" horiz-adv-x="1617" 
d="M424 938q0 54 36.5 90.5t90.5 36.5q55 0 92 -36.5t37 -90.5q0 -56 -37 -92.5t-92 -36.5q-54 0 -90.5 37t-36.5 92zM942 938q0 54 36.5 90.5t90.5 36.5q55 0 92 -36.5t37 -90.5q0 -56 -37 -92.5t-92 -36.5q-54 0 -90.5 37t-36.5 92zM393 608h82q0 -125 96 -209t238 -84
t238 84t96 209h82q0 -161 -121 -270q-119 -107 -295 -107q-178 0 -297 107t-119 270zM295 203q-213 213 -213 514t213 514t514 213t514 -213t213 -514t-213 -514t-514 -213t-514 213zM350 1176q-190 -190 -190 -459t190 -459t459 -190t459 190t190 459t-190 459t-459 190
t-459 -190z" />
    <glyph glyph-name="invsmileface" unicode="&#x263b;" horiz-adv-x="1617" 
d="M424 938q0 -55 36.5 -92t90.5 -37q55 0 92 36.5t37 92.5q0 54 -37 90.5t-92 36.5q-54 0 -90.5 -36.5t-36.5 -90.5zM942 938q0 -55 36.5 -92t90.5 -37q55 0 92 36.5t37 92.5q0 54 -37 90.5t-92 36.5q-54 0 -90.5 -36.5t-36.5 -90.5zM475 608h-82q0 -163 119 -270t297 -107
q176 0 295 107q121 109 121 270h-82q0 -125 -96 -209t-238 -84t-238 84t-96 209zM295 203q-213 213 -213 514t213 514t514 213t514 -213t213 -514t-213 -514t-514 -213t-514 213z" />
    <glyph glyph-name="commaaccent" horiz-adv-x="473" 
d="M360 -264q0 -148 -182 -256l-55 57l24 23q19 13 42.5 45t23.5 51q-41 6 -69.5 39.5t-28.5 77.5q0 50 32.5 82t83.5 32q56 0 92.5 -42t36.5 -109z" />
    <glyph glyph-name="zero.fitted" 
d="M74 483v467q0 221 153 365q157 145 387 145q231 0 385 -145q156 -144 156 -365v-467q0 -220 -156 -364q-155 -146 -385 -146q-229 0 -387 146q-153 144 -153 364zM295 954v-473q0 -127 90 -211q93 -84 229 -84q138 0 228 84q92 83 92 211v473q0 126 -92 209
q-90 84 -228 84q-136 0 -229 -84q-90 -84 -90 -209z" />
    <glyph glyph-name="one.fitted" 
d="M592 1157l-307 -153l-95 196l467 234h156v-1221h324v-213h-869v213h324v944z" />
    <glyph glyph-name="two.fitted" 
d="M864 1020q0 94 -78 160q-76 67 -188 67q-101 0 -180 -59.5t-121 -163.5l-205 98q68 156 202.5 247t303.5 91q205 0 350 -127q146 -128 146 -307q0 -113 -72 -229t-231 -267l-332 -317h651v-213h-995v166l534 514q215 209 215 340z" />
    <glyph glyph-name="three.fitted" 
d="M858 1044q0 87 -78.5 145t-199.5 58q-98 0 -173.5 -39.5t-107.5 -105.5l-201 98q62 122 189.5 191t292.5 69q219 0 362 -119q145 -118 145 -288q0 -198 -178 -312q100 -56 157.5 -146.5t57.5 -195.5q0 -182 -153 -305q-151 -121 -379 -121q-183 0 -320 82.5t-192 220.5
l213 76q30 -74 111 -120t188 -46q129 0 215 64t86 162q0 93 -85 156t-210 63h-109v205h76q126 0 209 59q84 60 84 149z" />
    <glyph glyph-name="four.fitted" 
d="M797 0v285h-725v213l737 936h209v-936h188v-213h-188v-285h-221zM797 1090l-463 -592h463v592z" />
    <glyph glyph-name="five.fitted" 
d="M600 -27q-181 0 -320.5 92.5t-201.5 249.5l221 62q42 -89 121.5 -140t181.5 -51q131 0 219 76q90 78 90 191q0 118 -96 196t-237 78h-392l72 707h764v-205h-580l-28 -297h172q240 0 395 -137q160 -139 160 -342q0 -204 -156 -342q-153 -138 -385 -138z" />
    <glyph glyph-name="six.fitted" 
d="M1126 1196l-206 -100q-42 70 -116 110.5t-165 40.5q-135 0 -231 -84q-93 -84 -93 -209v-137q125 101 312 101q227 0 377 -138q153 -135 153 -338q0 -198 -153 -333q-151 -136 -377 -136q-227 0 -381 136q-152 140 -152 337v504q0 221 156 365q157 145 393 145
q157 0 285 -71t198 -193zM627 705q-129 0 -215 -74t-86 -182q0 -112 86 -189q86 -74 215 -74q126 0 213 72q86 74 86 182q0 112 -86 189q-85 76 -213 76z" />
    <glyph glyph-name="seven.fitted" 
d="M344 0l518 1229h-739v205h975v-215l-514 -1219h-240z" />
    <glyph glyph-name="eight.fitted" 
d="M86 395q0 110 59.5 203t165.5 150q-192 116 -192 317q0 167 141 281q144 114 356 114t353 -114q143 -113 143 -283q0 -96 -50.5 -178.5t-141.5 -136.5q106 -57 165.5 -150t59.5 -203q0 -181 -152 -303q-149 -119 -377 -119q-227 0 -378 121q-152 122 -152 301zM315 416
q0 -99 85.5 -164.5t215.5 -65.5q129 0 214 65t85 163q0 96 -86 161q-84 66 -213 66q-128 0 -215 -66q-86 -65 -86 -159zM350 1049q0 -88 75.5 -145.5t190.5 -57.5t190 57.5t75 145.5q0 85 -76 141.5t-189 56.5q-115 0 -190.5 -56.5t-75.5 -141.5z" />
    <glyph glyph-name="nine.fitted" 
d="M86 248l205 100q42 -75 120 -118.5t175 -43.5q143 0 237 82q97 85 97 209v121q-127 -109 -306 -109q-224 0 -376 140q-152 143 -152 348q0 204 152 344q151 139 376 139q224 0 375 -139q152 -140 152 -342v-500q0 -217 -160 -362q-159 -144 -397 -144q-165 0 -297.5 73.5
t-200.5 201.5zM614 702q125 0 209 78q86 80 86 195q0 116 -84 194t-211 78q-126 0 -213 -78q-84 -78 -84 -190q0 -118 84 -199q87 -78 213 -78z" />
    <glyph glyph-name="zero.sup" horiz-adv-x="710" 
d="M51 1022v242q0 120 86 200q88 82 219 82q130 0 215 -82q88 -79 88 -200v-242q0 -121 -88 -203q-86 -80 -215 -80q-130 0 -219 80q-86 83 -86 203zM356 1413q-72 0 -119 -42t-47 -105v-246q0 -63 47.5 -106.5t118.5 -43.5q69 0 117.5 43.5t48.5 106.5v246q0 63 -48 105
t-118 42z" />
    <glyph glyph-name="one.sup" horiz-adv-x="489" 
d="M242 1376l-150 -76l-49 117l238 119h96v-788h-135v628z" />
    <glyph glyph-name="two.sup" horiz-adv-x="655" 
d="M453 1300q0 45 -40 79t-94 34q-111 0 -157 -119l-127 64q38 87 114.5 137.5t169.5 50.5q115 0 195 -71t80 -170q0 -122 -168 -271l-164 -155h342v-131h-553v100l289 274q113 107 113 178z" />
    <glyph glyph-name="three.sup" horiz-adv-x="667" 
d="M317 1413q-106 0 -147 -80l-121 43q33 76 107.5 123t169.5 47q117 0 195.5 -67.5t78.5 -167.5q0 -105 -106 -154q124 -55 124 -176q0 -104 -82.5 -173t-207.5 -69q-102 0 -179 47.5t-108 126.5l127 48q14 -41 55.5 -66t98.5 -25q67 0 111 32.5t44 82.5q0 49 -42.5 81
t-108.5 32h-60v104h41q63 0 106.5 31.5t43.5 75.5t-40 74t-100 30z" />
    <glyph glyph-name="four.sup" horiz-adv-x="729" 
d="M453 748v153h-412v131l420 504h129v-504h104v-131h-104v-153h-137zM453 1331l-248 -299h248v299z" />
    <glyph glyph-name="five.sup" horiz-adv-x="677" 
d="M631 1004q0 -112 -86 -189q-82 -76 -211 -76q-104 0 -184 53.5t-111 141.5l137 39q47 -103 156 -103q66 0 111.5 38.5t45.5 95.5t-50.5 97t-123.5 40h-217l39 395h426v-125h-313l-14 -145h112q119 0 201 -76t82 -186z" />
    <glyph glyph-name="six.sup" horiz-adv-x="681" 
d="M627 1395l-123 -60q-47 78 -146 78q-72 0 -120 -41t-48 -102v-96q58 79 172 79q117 0 199 -73q84 -75 84 -185q0 -108 -86 -182q-83 -74 -209 -74q-127 0 -213 74q-84 75 -84 182v275q0 119 86 196q89 80 217 80q91 0 163 -40.5t108 -110.5zM350 1122q-48 3 -86.5 -20
t-55 -56.5t-9.5 -72.5t41 -66q32 -29 80 -35t89 7.5t69 45t24 72.5q0 53 -44 89t-108 36z" />
    <glyph glyph-name="seven.sup" horiz-adv-x="608" 
d="M133 748l291 663h-401v125h544v-131l-280 -657h-154z" />
    <glyph glyph-name="eight.sup" horiz-adv-x="684" 
d="M47 971q0 124 119 188q-98 61 -98 170q0 93 78 155t196 62q117 0 195.5 -62.5t78.5 -156.5q0 -107 -98 -168q119 -70 119 -190q0 -99 -84 -164.5t-211 -65.5t-211 66q-84 69 -84 166zM188 983q0 -50 43.5 -81.5t110.5 -31.5q66 0 110 32t44 79t-44 79t-110 32
q-67 0 -110.5 -31t-43.5 -78zM209 1317q0 -43 38 -70.5t95 -27.5t95 27.5t38 70.5q0 41 -38 68.5t-95 27.5t-95 -27.5t-38 -68.5z" />
    <glyph glyph-name="nine.sup" horiz-adv-x="677" 
d="M49 885l121 57q51 -72 149 -72q75 0 126 41.5t51 102.5v96q-53 -92 -170 -92t-199 76t-82 190q0 112 84 187t209 75q127 0 209 -76q84 -75 84 -182v-272q0 -120 -88 -199q-90 -78 -219 -78q-91 0 -164.5 39t-110.5 107zM340 1149q63 0 106 38t43 95q4 41 -24 74t-69 47
t-88.5 8t-78.5 -35q-33 -27 -39.5 -68t10 -77t54.5 -61t86 -21z" />
    <glyph glyph-name="zero.sub" horiz-adv-x="710" 
d="M51 70v241q0 121 86 201q88 82 219 82q130 0 215 -82q88 -79 88 -201v-241q0 -121 -88 -203q-85 -82 -215 -82q-131 0 -219 82q-86 83 -86 203zM356 461q-72 0 -119 -42.5t-47 -105.5v-245q0 -63 47.5 -106.5t118.5 -43.5q69 0 117.5 43.5t48.5 106.5v245
q0 63 -48.5 105.5t-117.5 42.5z" />
    <glyph glyph-name="one.sub" horiz-adv-x="489" 
d="M242 424l-150 -76l-49 117l238 119h96v-789h-135v629z" />
    <glyph glyph-name="two.sub" horiz-adv-x="655" 
d="M453 348q0 45 -40 79t-94 34q-111 0 -157 -119l-127 64q38 87 114.5 137.5t169.5 50.5q114 0 195 -72q80 -71 80 -170q0 -121 -168 -270l-164 -156h342v-131h-553v101l289 274q113 107 113 178z" />
    <glyph glyph-name="three.sub" horiz-adv-x="667" 
d="M317 461q-106 0 -147 -80l-121 43q33 76 107.5 123t169.5 47q117 0 195.5 -68t78.5 -168q0 -104 -106 -153q124 -55 124 -176q0 -104 -83 -174t-207 -70q-101 0 -178.5 48.5t-108.5 127.5l127 47q31 -90 154 -90q67 0 111 32.5t44 82.5q0 49 -42.5 80.5t-108.5 31.5h-60
v105h41q63 0 106.5 31t43.5 75t-40 74.5t-100 30.5z" />
    <glyph glyph-name="four.sub" horiz-adv-x="729" 
d="M453 -205v154h-412v131l420 504h129v-504h104v-131h-104v-154h-137zM453 379l-248 -299h248v299z" />
    <glyph glyph-name="five.sub" horiz-adv-x="677" 
d="M631 51q0 -111 -86 -188q-84 -78 -211 -78q-103 0 -183.5 54t-111.5 143l137 38q46 -102 156 -102q66 0 111.5 38t45.5 95t-50.5 97t-123.5 40h-217l39 396h426v-125h-313l-14 -146h112q120 0 201 -75q82 -76 82 -187z" />
    <glyph glyph-name="six.sub" horiz-adv-x="681" 
d="M627 442l-123 -59q-47 78 -146 78q-72 0 -120 -41t-48 -103v-96q59 80 172 80q116 0 199 -74q84 -75 84 -184q0 -108 -86 -182q-82 -76 -209 -76q-126 0 -211 76q-86 74 -86 182v274q0 120 86 197q89 80 217 80q91 0 163 -41t108 -111zM350 170q-48 3 -86.5 -20
t-55 -56.5t-9.5 -72.5t41 -66q32 -29 80 -35t89 7.5t69 45t24 72.5q0 53 -44 89t-108 36z" />
    <glyph glyph-name="seven.sub" horiz-adv-x="608" 
d="M133 -205l291 664h-401v125h544v-131l-280 -658h-154z" />
    <glyph glyph-name="eight.sub" horiz-adv-x="684" 
d="M342 -215q-128 0 -211 68q-84 66 -84 165q0 125 119 189q-98 61 -98 170q0 93 78 155t196 62q117 0 195.5 -62.5t78.5 -156.5q0 -107 -98 -168q119 -70 119 -191q0 -98 -86 -163q-83 -68 -209 -68zM188 31q0 -50 43.5 -81.5t110.5 -31.5q66 0 110 32t44 79t-44 78.5
t-110 31.5q-67 0 -110.5 -30.5t-43.5 -77.5zM209 365q0 -43 38 -71t95 -28t95 28t38 71q0 41 -38 68.5t-95 27.5t-95 -27.5t-38 -68.5z" />
    <glyph glyph-name="nine.sub" horiz-adv-x="677" 
d="M49 -68l121 58q51 -72 149 -72q75 0 126 41t51 102v97q-53 -92 -170 -92q-118 0 -199 75q-82 76 -82 191q0 112 84 187t209 75q127 0 209 -76q84 -75 84 -182v-273q0 -119 -88 -198q-89 -80 -219 -80q-90 0 -164 39.5t-111 107.5zM340 197q63 0 106 38t43 95q4 41 -24 74
t-69 47t-88.5 8t-78.5 -35q-33 -27 -39.5 -68t10 -77t54.5 -61t86 -21z" />
    <glyph glyph-name="exclamdown.case" horiz-adv-x="507" 
d="M252 1460q62 0 102.5 -40t40.5 -101t-40.5 -102t-102.5 -41q-60 0 -100.5 41t-40.5 102t40.5 101t100.5 40zM139 0l23 993h184l23 -993h-230z" />
    <glyph glyph-name="questiondown.case" horiz-adv-x="1136" 
d="M299 408q0 -93 83.5 -157.5t205.5 -64.5q102 0 178 47.5t106 126.5l222 -63q-48 -148 -185 -236t-317 -88q-220 0 -369 125q-147 126 -147 312q0 74 27.5 140t65.5 109.5t90.5 81t90.5 56.5t76 34l39 15l10 147h187l22 -270q-54 -14 -135 -51q-62 -26 -117 -62t-94 -91
t-39 -111zM569 1176q-60 0 -100.5 41t-40.5 102t40.5 101t100.5 40q62 0 103 -40t41 -101t-41 -102t-103 -41z" />
    <glyph glyph-name="dagger.case" horiz-adv-x="954" 
d="M47 842v170h342v422h178v-422h340v-170h-340v-842h-178v842h-342z" />
    <glyph glyph-name="daggerdbl.case" horiz-adv-x="954" 
d="M389 387h-342v170h342v320h-342v170h342v387h178v-387h340v-170h-340v-320h340v-170h-340v-387h-178v387z" />
    <glyph glyph-name="slash.case" horiz-adv-x="1054" 
d="M197 -205h-197l858 1841h197z" />
    <glyph glyph-name="backslash.case" horiz-adv-x="1054" 
d="M197 1636l858 -1841h-197l-858 1841h197z" />
    <glyph glyph-name="parenleft.case" horiz-adv-x="622" 
d="M369 1606l30 32h197l-35 -41q-22 -28 -74 -116q-57 -96 -95.5 -196t-72.5 -251q-65 -315 -2 -635q22 -104 54.5 -197t71.5 -166.5t63.5 -113.5t58.5 -88l31 -39h-197l-2 2q-164 176 -247 479q-58 207 -58 443q0 168 31 327t78 269q42 98 88 175.5t80 115.5z" />
    <glyph glyph-name="parenright.case" horiz-adv-x="622" 
d="M57 1599l-30 39h198l33 -36q16 -16 74 -107q55 -86 94 -182q39 -90 74 -258q32 -147 32 -336q0 -158 -28.5 -312.5t-69.5 -259.5q-43 -109 -88 -182q-59 -95 -76 -115q-23 -33 -43 -53l-2 -2h-198l32 41q28 36 76 117q58 97 96.5 198t69.5 248q70 309 2 633
q-21 106 -52.5 199t-71.5 167.5t-63 112t-59 88.5z" />
    <glyph glyph-name="bracketleft.case" horiz-adv-x="610" 
d="M236 -207v2h-121v1843h469v-178h-273v-1489h273v-178h-348z" />
    <glyph glyph-name="bracketright.case" horiz-adv-x="610" 
d="M496 -205h-469v178h272v1487h-272v178h469v-1843z" />
    <glyph glyph-name="braceleft.case" horiz-adv-x="679" 
d="M506 1638h145v-178h-127q-54 0 -89.5 -36.5t-35.5 -90.5v-364q0 -100 -51.5 -165.5t-140.5 -86.5q88 -21 140 -86.5t52 -163.5v-367q0 -54 35.5 -90.5t89.5 -36.5h127v-178h-145q-129 0 -217 88q-86 86 -86 217v367q0 52 -41.5 92.5t-91.5 54.5l-45 15v180q23 3 49 12
q28 8 80 51q49 40 49 97l2 364q-3 130 84 217q88 88 217 88z" />
    <glyph glyph-name="braceright.case" horiz-adv-x="677" 
d="M27 1460v178h145q132 0 217 -88q86 -86 86 -217v-364q0 -51 42.5 -92.5t92.5 -55.5l45 -12v-180q-15 -3 -63 -23q-48 -18 -82.5 -53.5t-34.5 -85.5v-367q0 -132 -88 -217q-85 -88 -215 -88h-145v178h129q51 0 87 36.5t36 90.5v367q0 101 52 166t140 84
q-89 21 -140.5 86.5t-51.5 165.5v364q0 54 -36 90.5t-87 36.5h-129z" />
    <glyph glyph-name="guillemotleft.case" horiz-adv-x="1112" 
d="M459 328l-391 389l391 391l125 -127l-267 -264l267 -264zM895 328l-391 389l391 391l125 -127l-266 -264l266 -264z" />
    <glyph glyph-name="guillemotright.case" horiz-adv-x="1112" 
d="M653 1108l389 -391l-389 -389l-125 125l265 264l-265 264zM217 1108l389 -391l-389 -389l-125 125l264 264l-264 264z" />
    <glyph glyph-name="guilsinglleft.case" horiz-adv-x="675" 
d="M459 328l-391 389l391 391l125 -127l-267 -264l267 -264z" />
    <glyph glyph-name="guilsinglright.case" horiz-adv-x="675" 
d="M217 1108l389 -391l-389 -389l-125 125l264 264l-264 264z" />
    <glyph glyph-name="hyphen.case" horiz-adv-x="819" 
d="M129 618v197h561v-197h-561z" />
    <glyph glyph-name="endash.case" 
d="M129 618v197h971v-197h-971z" />
    <glyph glyph-name="emdash.case" horiz-adv-x="2048" 
d="M129 618v197h1790v-197h-1790z" />
    <glyph glyph-name="bar.case" horiz-adv-x="409" 
d="M295 -205h-180v1843h180v-1843z" />
    <glyph glyph-name="brokenbar.case" horiz-adv-x="409" 
d="M295 1638v-753h-180v753h180zM115 -205v756h180v-756h-180z" />
    <glyph glyph-name="zero.dnom" horiz-adv-x="710" 
d="M51 274v242q0 121 86 201q88 82 219 82q130 0 215 -82q88 -79 88 -201v-242q0 -120 -88 -202q-85 -82 -215 -82q-131 0 -219 82q-86 83 -86 202zM356 666q-72 0 -119 -42.5t-47 -105.5v-246q0 -63 47 -106t119 -43q69 0 117.5 43t48.5 106v246q0 63 -48.5 105.5
t-117.5 42.5z" />
    <glyph glyph-name="one.dnom" horiz-adv-x="489" 
d="M242 629l-150 -76l-49 117l238 118h96v-788h-135v629z" />
    <glyph glyph-name="two.dnom" horiz-adv-x="655" 
d="M453 553q0 45 -40 79t-94 34q-111 0 -157 -119l-127 63q38 87 114.5 138t169.5 51q114 0 195 -72q80 -71 80 -170q0 -121 -168 -270l-164 -156h342v-131h-553v100l289 275q113 107 113 178z" />
    <glyph glyph-name="three.dnom" horiz-adv-x="667" 
d="M317 666q-106 0 -147 -80l-121 43q33 76 107.5 123t169.5 47q117 0 195.5 -68t78.5 -168q0 -104 -106 -153q124 -55 124 -177q0 -104 -83 -173.5t-207 -69.5q-101 0 -178.5 48.5t-108.5 127.5l127 47q13 -41 55 -65.5t99 -24.5q67 0 111 32.5t44 82.5q0 49 -42.5 80.5
t-108.5 31.5h-60v105h41q63 0 106.5 31t43.5 75t-40 74.5t-100 30.5z" />
    <glyph glyph-name="four.dnom" horiz-adv-x="729" 
d="M453 0v154h-412v131l420 503h129v-503h104v-131h-104v-154h-137zM453 584l-248 -299h248v299z" />
    <glyph glyph-name="five.dnom" horiz-adv-x="677" 
d="M631 256q0 -113 -86 -190q-82 -76 -211 -76q-104 0 -184 54t-111 142l137 39q46 -102 156 -102q66 0 111.5 38t45.5 95t-50.5 97t-123.5 40h-217l39 395h426v-124h-313l-14 -146h112q119 0 201 -76t82 -186z" />
    <glyph glyph-name="six.dnom" horiz-adv-x="681" 
d="M627 647l-123 -59q-47 78 -146 78q-72 0 -120 -41t-48 -103v-96q59 80 172 80q116 0 199 -74q84 -75 84 -184q0 -108 -86 -185q-82 -73 -209 -73q-126 0 -211 73q-86 77 -86 185v274q0 120 86 197q89 80 217 80q91 0 163 -41t108 -111zM350 375q-48 3 -86.5 -20
t-55 -56.5t-9.5 -72.5t41 -66q32 -29 80 -35t89 7.5t69 45t24 72.5q0 53 -44 89t-108 36z" />
    <glyph glyph-name="seven.dnom" horiz-adv-x="608" 
d="M133 0l291 664h-401v124h544v-131l-280 -657h-154z" />
    <glyph glyph-name="eight.dnom" horiz-adv-x="684" 
d="M342 -10q-129 0 -211 67q-84 69 -84 166q0 125 119 189q-98 61 -98 170q0 93 78 155t196 62q117 0 195.5 -62.5t78.5 -156.5q0 -107 -98 -168q119 -70 119 -191q0 -98 -86 -166q-83 -65 -209 -65zM188 236q0 -50 43.5 -81.5t110.5 -31.5q66 0 110 31.5t44 78.5t-44 79
t-110 32q-67 0 -110.5 -30.5t-43.5 -77.5zM209 569q0 -43 38 -70.5t95 -27.5t95 27.5t38 70.5q0 41 -38 69t-95 28t-95 -28t-38 -69z" />
    <glyph glyph-name="nine.dnom" horiz-adv-x="677" 
d="M49 137l121 58q51 -72 149 -72q75 0 126 41t51 102v96q-53 -92 -170 -92t-199 76t-82 191q0 112 84 187t209 75q127 0 209 -76q84 -75 84 -182v-273q0 -119 -88 -198q-89 -80 -219 -80q-90 0 -164 39.5t-111 107.5zM340 401q63 0 106 38.5t43 95.5q4 41 -24 74t-69 47
t-88.5 8t-78.5 -35q-33 -27 -39.5 -68t10 -77.5t54.5 -61.5t86 -21z" />
    <glyph glyph-name="logo" horiz-adv-x="880" 
d="M41 1061v209h47q145 0 248 -103q102 -102 102 -247q0 -146 -102 -248q-103 -103 -248 -103h-47v211q186 0 186 140q0 141 -186 141zM442 1061v209h47q145 0 248 -103t103 -247q0 -145 -103 -248t-248 -103h-47v211q189 0 189 140q0 141 -189 141zM109 442h-56v41h152v-41
h-55v-237h-41v237zM285 328l-74 155h47l47 -102l49 102h47l-73 -155v-123h-43v123zM467 205h-41v278h78q37 0 63.5 -25.5t26.5 -62.5t-26.5 -62.5t-63.5 -25.5h-37v-102zM504 442h-37v-94h37q20 0 33.5 13.5t13.5 33.5q0 19 -13.5 33t-33.5 14zM743 205h-122v278h122v-41
h-79v-98h63v-41h-63v-57h79v-41z" />
    <glyph glyph-name="bullet.case" horiz-adv-x="735" 
d="M84 717q0 123 81 203.5t204 80.5q121 0 202 -81q82 -79 82 -203q0 -121 -82 -203t-202 -82q-123 0 -205 82q-80 83 -80 203z" />
    <glyph glyph-name="zero.num" horiz-adv-x="710" 
d="M51 920v241q0 121 86 201q88 82 219 82q130 0 215 -82q88 -79 88 -201v-241q0 -121 -88 -203q-86 -80 -215 -80q-130 0 -219 80q-86 83 -86 203zM356 1311q-72 0 -119 -42.5t-47 -105.5v-245q0 -63 47.5 -106.5t118.5 -43.5q69 0 117.5 43.5t48.5 106.5v245
q0 63 -48.5 105.5t-117.5 42.5z" />
    <glyph glyph-name="one.num" horiz-adv-x="489" 
d="M242 1274l-150 -76l-49 117l238 119h96v-789h-135v629z" />
    <glyph glyph-name="two.num" horiz-adv-x="655" 
d="M453 1198q0 45 -40 79t-94 34q-111 0 -157 -119l-127 63q38 87 114.5 138t169.5 51q114 0 195 -72q80 -71 80 -170q0 -121 -168 -270l-164 -156h342v-131h-553v100l289 275q113 107 113 178z" />
    <glyph glyph-name="three.num" horiz-adv-x="667" 
d="M317 1311q-106 0 -147 -80l-121 43q33 76 107.5 123t169.5 47q117 0 195.5 -68t78.5 -168q0 -104 -106 -153q124 -55 124 -176q0 -104 -82.5 -173t-207.5 -69q-102 0 -179 47.5t-108 126.5l127 47q13 -41 55 -65.5t99 -24.5q67 0 111 32.5t44 82.5q0 49 -42.5 80.5
t-108.5 31.5h-60v105h41q63 0 106.5 31t43.5 75t-40 74.5t-100 30.5z" />
    <glyph glyph-name="four.num" horiz-adv-x="729" 
d="M453 645v154h-412v131l420 504h129v-504h104v-131h-104v-154h-137zM453 1229l-248 -299h248v299z" />
    <glyph glyph-name="five.num" horiz-adv-x="677" 
d="M631 901q0 -111 -86 -188q-82 -76 -211 -76q-104 0 -184 53t-111 141l137 39q46 -102 156 -102q66 0 111.5 38t45.5 95t-50.5 97t-123.5 40h-217l39 396h426v-125h-313l-14 -146h112q119 0 201 -76t82 -186z" />
    <glyph glyph-name="six.num" horiz-adv-x="681" 
d="M627 1292l-123 -59q-47 78 -146 78q-72 0 -120 -41t-48 -103v-96q59 80 172 80q116 0 199 -74q84 -75 84 -184q0 -108 -86 -182q-83 -74 -209 -74q-127 0 -213 74q-84 75 -84 182v274q0 120 86 197q89 80 217 80q91 0 163 -41t108 -111zM350 1020q-48 3 -86.5 -20
t-55 -56.5t-9.5 -72.5t41 -66q32 -29 80 -35t89 7.5t69 45t24 72.5q0 53 -44 89t-108 36z" />
    <glyph glyph-name="seven.num" horiz-adv-x="608" 
d="M133 645l291 664h-401v125h544v-131l-280 -658h-154z" />
    <glyph glyph-name="eight.num" horiz-adv-x="684" 
d="M47 868q0 125 119 189q-98 61 -98 170q0 93 78 155t196 62q117 0 195.5 -62.5t78.5 -156.5q0 -107 -98 -168q119 -70 119 -191q0 -98 -84 -163.5t-211 -65.5q-128 0 -211 65q-84 69 -84 166zM188 881q0 -50 43.5 -81.5t110.5 -31.5q66 0 110 32t44 79t-44 78.5t-110 31.5
q-67 0 -110.5 -30.5t-43.5 -77.5zM209 1214q0 -43 38 -70.5t95 -27.5t95 27.5t38 70.5q0 41 -38 69t-95 28t-95 -28t-38 -69z" />
    <glyph glyph-name="nine.num" horiz-adv-x="677" 
d="M49 782l121 58q51 -72 149 -72q75 0 126 41t51 102v97q-53 -93 -170 -93t-199 76t-82 191q0 112 84 187t209 75q127 0 209 -76q84 -75 84 -182v-273q0 -119 -88 -198q-90 -78 -219 -78q-91 0 -164.5 39t-110.5 106zM340 1047q63 0 106 38t43 95q4 41 -24 74t-69 47
t-88.5 8t-78.5 -35q-33 -27 -39.5 -68t10 -77t54.5 -61t86 -21z" />
    <glyph glyph-name="afii10021.1" horiz-adv-x="1691" 
d="M1647 0h-1602v213h162q162 52 162 518v703h1048v-1221h230v-213zM496 213h690v1008h-588v-480q0 -347 -102 -528z" />
    <glyph glyph-name="afii10040.1" horiz-adv-x="1622" 
d="M139 1434h230v-1221h749v1221h230v-1221h231v-213h-1440v1434z" />
    <glyph glyph-name="afii10043.1" horiz-adv-x="2314" 
d="M139 0v1434h230v-1221h598v1221h229v-1221h614v1221h230v-1221h231v-213h-2132z" />
    <glyph glyph-name="germandbls.1" horiz-adv-x="1193" 
d="M340 868v-868h-213v1194q0 156 123 258q126 102 311 102h49v-213h-49q-94 0 -157.5 -43.5t-63.5 -109.5v-123h686v-162l-221 -315q147 -63 233 -202.5t86 -315.5q0 -239 -166 -398q-167 -159 -409 -159v213q155 0 258 100q104 98 104 246q0 147 -104 245q-105 99 -258 99
v162l205 290h-414z" />
    <glyph glyph-name="R.1" horiz-adv-x="1366" 
d="M139 1434h656q204 0 342 -123q139 -124 139 -305q0 -115 -58 -211t-159 -152q133 -103 168 -262l84 -381h-228l-69 322q-20 97 -101.5 162t-181.5 65h-362v-549h-230v1434zM795 1221h-426v-459h426q103 0 172 65.5t69 163.5t-69 164t-172 66z" />
    <glyph glyph-name="Racute.1" horiz-adv-x="1386" 
d="M369 0h-230v1434h656q204 0 342 -123q139 -124 139 -305q0 -115 -58 -211t-159 -152q133 -103 168 -262l84 -381h-228l-69 322q-20 97 -101.5 162t-181.5 65h-362v-549zM795 1221h-426v-459h426q103 0 172 65.5t69 163.5t-69 164t-172 66zM938 1753l-422 -190l-72 131
l396 252z" />
    <glyph glyph-name="Rcaron.1" horiz-adv-x="1386" 
d="M369 549v-549h-230v1434h656q204 0 342 -123q139 -124 139 -305q0 -115 -58 -211t-159 -152q133 -103 168 -262l84 -381h-228l-69 322q-20 97 -101.5 162t-181.5 65h-362zM795 1221h-426v-459h426q103 0 172 65.5t69 163.5t-69 164t-172 66zM596 1563h-12l-344 254
l90 120l260 -159l260 157l90 -118z" />
    <glyph glyph-name="Rcommaaccent.1" horiz-adv-x="1386" 
d="M369 0h-230v1434h656q204 0 342 -123q139 -124 139 -305q0 -115 -58 -211t-159 -152q133 -103 168 -262l84 -381h-228l-69 322q-20 97 -101.5 162t-181.5 65h-362v-549zM795 1221h-426v-459h426q103 0 172 65.5t69 163.5t-69 164t-172 66zM610 -227q0 49 34 81.5t85 32.5
q56 0 92.5 -42t36.5 -109q0 -48 -20 -92t-52.5 -76t-54 -49t-43.5 -31l-12 -8l-55 57l24 23q19 13 42.5 45t23.5 51q-43 6 -72 40t-29 77z" />
    <glyph glyph-name="u.1" horiz-adv-x="1245" 
d="M125 477v588h213v-571q0 -134 82 -222q83 -86 205 -86q120 0 200 86q82 88 82 222v571h213v-588q0 -217 -143 -360q-141 -144 -354 -144t-357 144q-141 144 -141 360z" />
    <glyph glyph-name="uacute.1" horiz-adv-x="1245" 
d="M125 477v588h213v-571q0 -134 82 -222q83 -86 205 -86q120 0 200 86q82 88 82 222v571h213v-588q0 -217 -143 -360q-141 -144 -354 -144t-357 144q-141 144 -141 360zM537 1217l-74 133l397 249l98 -190z" />
    <glyph glyph-name="ubreve.1" horiz-adv-x="1245" 
d="M125 477v588h213v-571q0 -134 82 -222q83 -86 205 -86q120 0 200 86q82 88 82 222v571h213v-588q0 -217 -143 -360q-141 -144 -354 -144t-357 144q-141 144 -141 360zM307 1511h170q0 -69 43 -116t109 -47t107.5 45.5t41.5 117.5h170q0 -135 -92 -227q-93 -90 -229 -90
q-137 0 -230 90q-90 93 -90 227z" />
    <glyph glyph-name="ucircumflex.1" horiz-adv-x="1245" 
d="M125 477v588h213v-571q0 -134 82 -222q83 -86 205 -86q120 0 200 86q82 88 82 222v571h213v-588q0 -217 -143 -360q-141 -144 -354 -144t-357 144q-141 144 -141 360zM627 1376l-260 -159l-91 120l345 254h12l344 -254l-90 -118z" />
    <glyph glyph-name="udieresis.1" horiz-adv-x="1245" 
d="M125 477v588h213v-571q0 -134 82 -222q83 -86 205 -86q120 0 200 86q82 88 82 222v571h213v-588q0 -217 -143 -360q-141 -144 -354 -144t-357 144q-141 144 -141 360zM315 1245q-38 38 -38 96t38 95q38 38 96.5 38t96.5 -38q38 -37 38 -95t-38 -96q-38 -37 -96.5 -37
t-96.5 37zM842 1475q59 0 97 -38t38 -96q0 -57 -37.5 -95t-97.5 -38q-57 0 -95 38t-38 95t38 95.5t95 38.5z" />
    <glyph glyph-name="ugrave.1" horiz-adv-x="1245" 
d="M125 477v588h213v-571q0 -134 82 -222q83 -86 205 -86q120 0 200 86q82 88 82 222v571h213v-588q0 -217 -143 -360q-141 -144 -354 -144t-357 144q-141 144 -141 360zM711 1217l-422 192l98 190l397 -249z" />
    <glyph glyph-name="uhungarumlaut.1" horiz-adv-x="1245" 
d="M125 477v588h213v-571q0 -134 82 -222q83 -86 205 -86q120 0 200 86q82 88 82 222v571h213v-588q0 -217 -143 -360q-141 -144 -354 -144t-357 144q-141 144 -141 360zM430 1190l-108 104l284 336l152 -153zM831 1190l-108 104l285 336l151 -153z" />
    <glyph glyph-name="umacron.1" horiz-adv-x="1245" 
d="M125 477v588h213v-571q0 -134 82 -222q83 -86 205 -86q120 0 200 86q82 88 82 222v571h213v-588q0 -217 -143 -360q-141 -144 -354 -144t-357 144q-141 144 -141 360zM936 1268h-617v178h617v-178z" />
    <glyph glyph-name="uogonek.1" horiz-adv-x="1245" 
d="M125 477v588h213v-571q0 -134 82 -222q83 -86 205 -86q120 0 200 86q82 88 82 222v571h213v-588q0 -192 -112 -325q-111 -135 -287 -170q-105 -99 -105 -183q0 -36 22.5 -57t55.5 -21q24 0 53 12t44 25l12 15l76 -90q-11 -15 -31 -29q-21 -21 -80 -47q-60 -31 -119 -31
q-85 0 -141.5 52t-56.5 130q0 107 106 219q-185 21 -311 162q-121 139 -121 338z" />
    <glyph glyph-name="uring.1" horiz-adv-x="1245" 
d="M125 477v588h213v-571q0 -134 82 -222q83 -86 205 -86q120 0 200 86q82 88 82 222v571h213v-588q0 -217 -143 -360q-141 -144 -354 -144t-357 144q-141 144 -141 360zM397 1421q0 96 68 164q67 68 161.5 67.5t161.5 -69.5q70 -67 70 -162q0 -94 -67 -161
q-68 -68 -164 -68q-94 0 -162 68t-68 161zM627 1341q49 -4 69.5 38t0 84t-69.5 38q-47 4 -66.5 -38t0 -84t66.5 -38z" />
    <glyph glyph-name="utilde.1" horiz-adv-x="1245" 
d="M125 477v588h213v-571q0 -134 82 -222q83 -86 205 -86q120 0 200 86q82 88 82 222v571h213v-588q0 -217 -143 -360q-141 -144 -354 -144t-357 144q-141 144 -141 360zM467 1247h-168q0 97 63 160q65 68 156 68q63 0 121 -43t82 -43q27 0 46 21.5t19 55.5h168
q0 -97 -63 -163t-154 -66q-63 0 -121 43t-81 43q-29 0 -48.5 -22t-19.5 -54z" />
    <glyph glyph-name="y.1" horiz-adv-x="1103" 
d="M440 29l-415 1036h219l303 -774l313 774h219l-624 -1526h-213z" />
    <glyph glyph-name="yacute.1" horiz-adv-x="1103" 
d="M440 29l-415 1036h219l303 -774l313 774h219l-624 -1526h-213zM883 1409l-422 -192l-74 133l397 249z" />
    <glyph glyph-name="ycircumflex.1" horiz-adv-x="1103" 
d="M242 -461l198 490l-415 1036h219l303 -774l313 774h219l-624 -1526h-213zM551 1376l-260 -159l-90 120l344 254h12l344 -254l-90 -118z" />
    <glyph glyph-name="ydieresis.1" horiz-adv-x="1103" 
d="M440 29l-415 1036h219l303 -774l313 774h219l-624 -1526h-213zM766 1208q-56 0 -94.5 38t-38.5 95t38.5 95.5t94.5 38.5q60 0 98.5 -38.5t38.5 -95.5t-38.5 -95t-98.5 -38zM432 1245q-38 -37 -96 -37t-96 37q-38 38 -38 96t38 95q38 38 96 38t96 -38q38 -37 38 -95
t-38 -96z" />
    <glyph glyph-name="ygrave.1" horiz-adv-x="1103" 
d="M440 29l-415 1036h219l303 -774l313 774h219l-624 -1526h-213zM635 1217l-422 192l98 190l398 -249z" />
    <glyph glyph-name="afii10085.1" horiz-adv-x="1103" 
d="M440 29l-415 1036h219l303 -774l313 774h219l-624 -1526h-213z" />
    <glyph glyph-name="afii10110.1" horiz-adv-x="1103" 
d="M242 -461l198 490l-415 1036h219l303 -774l313 774h219l-624 -1526h-213zM201 1511h178q0 -69 50 -116t124 -47q73 0 122.5 47t49.5 116h178q0 -146 -100 -239q-101 -94 -250 -94q-151 0 -252 94q-100 93 -100 239z" />
    <glyph glyph-name="g.1" horiz-adv-x="1298" 
d="M604 1092q206 0 354 -142v115h213v-1028q0 -224 -155 -373q-154 -151 -377 -151q-106 0 -207 36l80 195q56 -18 119 -18q137 0 233 90q94 88 94 221v78q-148 -142 -354 -142q-224 0 -375 160q-149 158 -149 399q0 242 149 400q151 160 375 160zM627 186q139 0 233 99
q94 101 94 247q0 148 -94 246q-94 101 -233 101q-138 0 -232 -101q-94 -98 -94 -246q0 -146 94 -247q95 -99 232 -99z" />
    <glyph glyph-name="gbreve.1" horiz-adv-x="1298" 
d="M604 -27q-224 0 -375 160q-149 158 -149 399q0 242 149 400q151 160 375 160q206 0 354 -142v115h213v-1028q0 -224 -155 -373q-154 -151 -377 -151q-106 0 -207 36l80 195q56 -18 119 -18q137 0 233 90q94 88 94 221v78q-148 -142 -354 -142zM627 879q-138 0 -232 -101
q-94 -98 -94 -246q0 -146 94 -247q95 -99 232 -99q139 0 233 99q94 101 94 247q0 148 -94 246q-94 101 -233 101zM311 1511h170q0 -69 43 -116t109 -47q63 0 105 46t42 117h170q0 -135 -92 -227q-90 -90 -227 -90t-230 90q-90 93 -90 227z" />
    <glyph glyph-name="gcircumflex.1" horiz-adv-x="1298" 
d="M604 -27q-224 0 -375 160q-149 158 -149 399q0 242 149 400q151 160 375 160q206 0 354 -142v115h213v-1028q0 -224 -155 -373q-154 -151 -377 -151q-106 0 -207 36l80 195q56 -18 119 -18q137 0 233 90q94 88 94 221v78q-148 -142 -354 -142zM627 879q-138 0 -232 -101
q-94 -98 -94 -246q0 -146 94 -247q95 -99 232 -99q139 0 233 99q94 101 94 247q0 148 -94 246q-94 101 -233 101zM631 1376l-260 -159l-90 120l344 254h12l342 -254l-88 -118z" />
    <glyph glyph-name="gcommaaccent.1" horiz-adv-x="1298" 
d="M604 1092q206 0 354 -142v115h213v-1028q0 -224 -155 -373q-154 -151 -377 -151q-106 0 -207 36l80 195q56 -18 119 -18q137 0 233 90q94 88 94 221v78q-148 -142 -354 -142q-224 0 -375 160q-149 158 -149 399q0 242 149 400q151 160 375 160zM627 879q-138 0 -232 -101
q-94 -98 -94 -246q0 -146 94 -247q95 -99 232 -99q139 0 233 99q94 101 94 247q0 148 -94 246q-94 101 -233 101zM504 1341q0 45 18.5 88t43.5 71.5t53.5 51.5t45 33t21.5 12l55 -57q-3 -3 -12.5 -10t-13.5 -10q-19 -17 -41.5 -48t-22.5 -51q42 -6 70.5 -39t28.5 -77
q0 -48 -33.5 -81.5t-83.5 -33.5q-56 0 -92.5 42t-36.5 109z" />
    <glyph glyph-name="gdotaccent.1" horiz-adv-x="1298" 
d="M604 -27q-224 0 -375 160q-149 158 -149 399q0 242 149 400q151 160 375 160q206 0 354 -142v115h213v-1028q0 -224 -155 -373q-154 -151 -377 -151q-106 0 -207 36l80 195q56 -18 119 -18q137 0 233 90q94 88 94 221v78q-148 -142 -354 -142zM627 879q-138 0 -232 -101
q-94 -98 -94 -246q0 -146 94 -247q95 -99 232 -99q139 0 233 99q94 101 94 247q0 148 -94 246q-94 101 -233 101zM489 1350q0 61 41 101t101 40t100.5 -40t40.5 -101q0 -60 -40.5 -100t-100.5 -40t-101 40t-41 100z" />
    <glyph glyph-name="t.1" horiz-adv-x="741" 
d="M25 879v114l251 273h123v-201h283v-186h-283v-525q0 -63 41.5 -106t102.5 -43h139v-205h-156q-141 0 -241 92q-99 95 -99 234v553h-161z" />
    <glyph glyph-name="tbar.1" horiz-adv-x="741" 
d="M186 879h-161v114l251 273h123v-201h283v-186h-283v-217h195v-162h-195v-146q0 -63 41.5 -106t102.5 -43h139v-205h-156q-141 0 -241 92q-99 95 -99 234v174h-129v162h129v217z" />
    <glyph glyph-name="tcaron.1" horiz-adv-x="780" 
d="M25 879v114l251 273h123v-201h283v-186h-283v-525q0 -63 41.5 -106t102.5 -43h139v-205h-156q-141 0 -241 92q-99 95 -99 234v553h-161zM743 1374q0 -153 -180 -254l-2 -2l-55 58l24 20q20 16 43 47.5t23 50.5q-43 7 -70.5 41t-27.5 78q0 47 33.5 80t82.5 33
q57 0 93 -42.5t36 -109.5z" />
    <glyph glyph-name="tcommaaccent.1" horiz-adv-x="741" 
d="M25 879v114l251 273h123v-201h283v-186h-283v-525q0 -63 41.5 -106t102.5 -43h139v-205h-156q-141 0 -241 92q-99 95 -99 234v553h-161zM557 -264q0 -48 -20.5 -93t-51 -76t-55.5 -50t-45 -29l-10 -8l-56 57l25 23q19 13 42.5 45t23.5 51q-42 6 -70.5 39.5t-28.5 77.5
q0 50 33 82t84 32q56 0 92.5 -42t36.5 -109z" />
    <glyph glyph-name="uni021B.1" horiz-adv-x="741" 
d="M25 879v114l251 273h123v-201h283v-186h-283v-525q0 -63 41.5 -106t102.5 -43h139v-205h-156q-141 0 -241 92q-99 95 -99 234v553h-161zM557 -264q0 -48 -20.5 -93t-51 -76t-55.5 -50t-45 -29l-10 -8l-56 57l25 23q19 13 42.5 45t23.5 51q-42 6 -70.5 39.5t-28.5 77.5
q0 50 33 82t84 32q56 0 92.5 -42t36.5 -109z" />
    </font>
</defs>
</svg>
