<?xml version="1.0" standalone="no"?>
<!DOCTYPE svg PUBLIC "-//W3C//DTD SVG 1.1//EN" "http://www.w3.org/Graphics/SVG/1.1/DTD/svg11.dtd" >
<svg xmlns="http://www.w3.org/2000/svg" xmlns:xlink="http://www.w3.org/1999/xlink" version="1.1">
<metadata>
Created by FontForge 20170731 at Fri Nov  6 18:23:30 2020
 By Aleksey,,,
Copyright (c) 2019 by Oleh Lishchuk. All rights reserved. |DCNT
</metadata>
<defs>
<font id="MazzardH-Regular" horiz-adv-x="1265" >
  <font-face 
    font-family="Mazzard H"
    font-weight="400"
    font-stretch="semi-condensed"
    units-per-em="2048"
    panose-1="0 0 0 0 0 0 0 0 0 0"
    ascent="1546"
    descent="-502"
    x-height="1065"
    cap-height="1434"
    bbox="-229 -498 2429 2011"
    underline-thickness="102"
    underline-position="-358"
    unicode-range="U+000D-FB04"
  />
<missing-glyph horiz-adv-x="681" 
 />
    <glyph glyph-name="f_f" unicode="ff" horiz-adv-x="1347" 
d="M213 913h-178v152h178v158q0 133 90 223t223 90h142v-166h-129q-66 0 -110 -48t-44 -120v-137h471v158q0 133 90 223t223 90h142v-166h-129q-66 0 -110 -48t-44 -120v-137h285v-152h-285v-913h-172v913h-471v-913h-172v913z" />
    <glyph glyph-name="fi" unicode="fi" horiz-adv-x="1167" 
d="M385 1202v-137h285v-152h-285v-913h-172v913h-178v152h178v158q0 133 90 223t223 90h142v-166h-129q-66 0 -110 -48t-44 -120zM1022 0h-172v1065h172v-1065zM850 1239q-32 35 -32 86.5t32 83.5q35 35 86.5 35t83.5 -35q35 -32 35 -83.5t-35 -86.5q-32 -32 -83.5 -32
t-86.5 32z" />
    <glyph glyph-name="fl" unicode="fl" horiz-adv-x="1167" 
d="M385 1202v-137h285v-152h-285v-913h-172v913h-178v152h178v158q0 133 90 223t223 90h142v-166h-129q-66 0 -110 -48t-44 -120zM1022 0h-172v1536h172v-1536z" />
    <glyph glyph-name="f_f_i" unicode="ffi" horiz-adv-x="1810" 
d="M213 0v913h-178v152h178v158q0 133 90 223t223 90h142v-166h-129q-66 0 -110 -48t-44 -120v-137h471v158q0 133 90 223t223 90h142v-166h-129q-66 0 -110 -48t-44 -120v-137h637v-1065h-172v913h-465v-913h-172v913h-471v-913h-172zM1493 1239q-32 35 -32 86.5t32 83.5
q35 35 86.5 35t83.5 -35q35 -32 35 -83.5t-35 -86.5q-32 -32 -83.5 -32t-86.5 32z" />
    <glyph glyph-name="f_f_l" unicode="ffl" horiz-adv-x="1810" 
d="M213 0v913h-178v152h178v158q0 133 90 223t223 90h142v-166h-129q-66 0 -110 -48t-44 -120v-137h471v158q0 133 90 223t223 90h142v-166h-129q-66 0 -110 -48t-44 -120v-137h285v-152h-285v-913h-172v913h-471v-913h-172zM1493 0v1536h172v-1536h-172z" />
    <glyph glyph-name="afii10104_afii10104" unicode="&#x457;&#x457;" horiz-adv-x="927" 
d="M317 0h-172v1065h172v-1065zM-76 1337q0 49 32.5 81t82.5 32t82.5 -32t32.5 -81t-32.5 -81.5t-82.5 -32.5t-82.5 31.5t-32.5 82.5zM782 0h-172v1065h172v-1065zM350 1337q0 49 32.5 81t82.5 32t82.5 -32t32.5 -81t-32.5 -81.5t-82.5 -32.5t-82.5 31.5t-32.5 82.5z
M774 1337q0 49 32.5 81t82.5 32t82.5 -32t32.5 -81t-32.5 -81.5t-82.5 -32.5t-82.5 31.5t-32.5 82.5z" />
    <glyph glyph-name=".notdef" horiz-adv-x="681" 
 />
    <glyph glyph-name="uni0000" horiz-adv-x="0" 
 />
    <glyph glyph-name="uni0000" horiz-adv-x="0" 
 />
    <glyph glyph-name="uni000D" unicode="&#xd;" horiz-adv-x="512" 
 />
    <glyph glyph-name="space" unicode=" " horiz-adv-x="561" 
 />
    <glyph glyph-name="exclam" unicode="!" horiz-adv-x="503" 
d="M252 223q51 0 87 -36t36 -87q4 -39 -19 -70t-56.5 -44t-72 -7t-63.5 33q-27 25 -33 63.5t7 72t44 56.5t70 19zM328 428h-150l-18 1006h184z" />
    <glyph glyph-name="quotedbl" unicode="&#x22;" horiz-adv-x="753" 
d="M283 961h-136l-16 473h166zM608 961h-137l-14 473h166z" />
    <glyph glyph-name="numbersign" unicode="#" horiz-adv-x="1445" 
d="M352 391h-303v146h328l63 360h-305l2 145h328l70 392h149l-70 -392h332l70 392h149l-69 -392h303v-145h-328l-65 -360h305l2 -146h-332l-70 -391h-147l70 391h-334l-70 -391h-147zM590 897l-66 -360h334l64 360h-332z" />
    <glyph glyph-name="dollar" unicode="$" 
d="M567 -258v240q-177 17 -301.5 109t-161.5 228l185 56q18 -94 116 -156.5t236 -62.5q145 0 240 65q96 69 96 172q0 107 -103 160q-90 46 -206 76l-86 22l-80 25l-84 29q-9 3 -34.5 14.5t-39.5 17.5q-15 8 -28 15.5t-21 12t-19.5 14t-15.5 13t-18 16.5t-19 17
q-41 41 -58 92t-24 130q0 167 117 278q117 114 303 129v238h133v-240q160 -17 275 -103.5t147 -211.5l-182 -54q-19 83 -105.5 139t-203.5 56q-128 0 -213 -64q-84 -63 -84 -155q0 -103 114 -160q87 -42 277 -90q65 -17 88 -23.5t64 -21.5t83 -35q98 -46 149.5 -122.5
t57.5 -198.5q0 -180 -129 -297q-128 -116 -332 -131v-238h-133z" />
    <glyph glyph-name="percent" unicode="%" horiz-adv-x="1671" 
d="M315 0l-90 76l1133 1358l92 -78zM424 1456q150 0 250 -100q100 -97 100 -248q0 -150 -100 -250q-101 -98 -250 -98q-147 0 -248 98q-100 100 -100 250q0 151 100 248q100 100 248 100zM424 913q85 0 139.5 55t54.5 140t-54.5 140t-139.5 55q-82 0 -137.5 -56.5
t-55.5 -138.5t55.5 -138.5t137.5 -56.5zM899 326q0 146 98 247q101 101 250 101q150 0 248 -101q100 -100 100 -247q0 -150 -100 -250q-99 -99 -248 -99q-148 0 -250 99q-98 101 -98 250zM1247 131q82 0 138.5 55.5t56.5 137.5q0 84 -56.5 140t-138.5 56q-85 0 -139.5 -54.5
t-54.5 -139.5t54.5 -140t139.5 -55z" />
    <glyph glyph-name="ampersand" unicode="&#x26;" horiz-adv-x="1429" 
d="M588 -23q-209 0 -346 125q-138 126 -138 308q0 127 68.5 218.5t206.5 174.5q-127 177 -127 325q0 145 98 236q100 92 250 92q155 0 258 -92t103 -231q0 -116 -74.5 -198.5t-237.5 -174.5q16 -21 29 -31l307 -313q68 139 68 305h174q0 -245 -115 -434l283 -287h-250
l-144 145q-177 -168 -413 -168zM881 270l-320 324q-58 58 -72 74q-103 -63 -153.5 -125.5t-50.5 -139.5q0 -106 86 -180q88 -73 219 -73q165 0 291 120zM537 889q138 71 194.5 122t56.5 119q0 66 -52 110t-130 44t-126 -43.5t-48 -116.5q0 -103 105 -235z" />
    <glyph glyph-name="quotesingle" unicode="'" horiz-adv-x="430" 
d="M283 961h-136l-16 473h166z" />
    <glyph glyph-name="parenleft" unicode="(" horiz-adv-x="608" 
d="M381 1602l31 36h161l-34 -43q-21 -27 -74 -127q-58 -106 -97.5 -214t-72.5 -269q-66 -341 -2 -688q38 -182 78 -281q99 -236 170 -331l32 -43h-161l-2 2q-168 201 -250 526q-56 227 -56 471q0 178 31 351t78 290q43 107 89 194t79 126z" />
    <glyph glyph-name="parenright" unicode=")" horiz-adv-x="608" 
d="M66 1597l-31 41h164l32 -41q23 -26 74 -118q56 -97 94 -199q39 -105 74 -281q33 -165 33 -358q0 -168 -28 -333.5t-70 -280.5q-39 -109 -89 -199q-47 -89 -73 -127q-27 -39 -45 -57l-2 -2h-164l33 45q24 31 75 127q58 105 98 214t70 267q70 338 2 688q-29 163 -77 281
q-84 219 -170 333z" />
    <glyph glyph-name="asterisk" unicode="*" horiz-adv-x="983" 
d="M442 981l-227 -170l-84 143l264 113l-264 111l84 143l229 -172l-34 285h165l-34 -285l229 172l82 -143l-262 -113l262 -111l-82 -143l-229 170l34 -283h-165z" />
    <glyph glyph-name="plus" unicode="+" horiz-adv-x="1228" 
d="M535 657h-398v160h398v397h159v-397h398v-160h-398v-397h-159v397z" />
    <glyph glyph-name="comma" unicode="," horiz-adv-x="448" 
d="M356 47q0 -55 -20.5 -107.5t-47 -86t-58.5 -62t-48 -39.5t-22 -14l-58 57q15 11 29 31q22 22 47 68q30 51 27 83q-45 6 -76 42t-31 83q0 51 34.5 85t88.5 34q60 0 97.5 -48t37.5 -126z" />
    <glyph glyph-name="hyphen" unicode="-" horiz-adv-x="819" 
d="M137 453v159h545v-159h-545z" />
    <glyph glyph-name="period" unicode="." horiz-adv-x="440" 
d="M344 100q0 -54 -34.5 -88.5t-88.5 -34.5t-88.5 34.5t-34.5 88.5t34.5 88.5t88.5 34.5q53 0 88 -35.5t35 -87.5z" />
    <glyph glyph-name="slash" unicode="/" horiz-adv-x="1091" 
d="M160 -358h-160l932 1994h160z" />
    <glyph glyph-name="zero" unicode="0" horiz-adv-x="1325" 
d="M121 483v467q0 217 153 361q157 145 388 145t385 -145q155 -143 155 -361v-467q0 -217 -155 -360q-155 -146 -385 -146q-228 0 -386 146q-155 143 -155 360zM299 952v-471q0 -143 104 -237t259 -94q154 0 258 94t104 237v471q0 142 -104 236q-107 96 -258 96
q-152 0 -259 -96q-104 -94 -104 -236z" />
    <glyph glyph-name="one" unicode="1" horiz-adv-x="894" 
d="M469 1206l-289 -151l-78 157l422 222h123v-1434h-178v1206z" />
    <glyph glyph-name="two" unicode="2" horiz-adv-x="1193" 
d="M879 1022q0 108 -88 184q-90 78 -213 78q-109 0 -196 -64.5t-130 -175.5l-166 80q63 153 195 242.5t297 89.5q204 0 344 -125q141 -126 141 -303q0 -115 -70 -226t-229 -263l-383 -367h702v-172h-981v133l543 524q127 125 180.5 204.5t53.5 160.5z" />
    <glyph glyph-name="three" unicode="3" horiz-adv-x="1206" 
d="M883 1053q0 100 -88 164q-88 67 -222 67q-108 0 -189 -44t-118 -120l-162 78q60 119 185 188.5t284 69.5q211 0 353 -115q141 -114 141 -282q0 -100 -55 -184t-152 -134q113 -51 177.5 -143.5t64.5 -204.5q0 -177 -150 -297q-149 -119 -370 -119q-175 0 -308.5 77.5
t-189.5 207.5l174 64q32 -80 120 -128t204 -48q144 0 239 71q97 72 97 180q0 106 -95 177t-233 71h-109v166h78q137 0 229 68q95 68 95 170z" />
    <glyph glyph-name="four" unicode="4" horiz-adv-x="1339" 
d="M877 0v295h-791v172l803 967h168v-965h205v-174h-205v-295h-180zM877 1159l-574 -690h574v690z" />
    <glyph glyph-name="five" unicode="5" horiz-adv-x="1236" 
d="M600 -23q-173 0 -308.5 85.5t-197.5 232.5l176 51q44 -91 132 -143.5t198 -52.5q145 0 248 86q100 84 100 213q0 132 -104 217q-104 88 -262 88h-383l69 680h750v-166h-600l-35 -348h205q232 0 389 -136q156 -135 156 -335t-154 -336t-379 -136z" />
    <glyph glyph-name="six" unicode="6" horiz-adv-x="1257" 
d="M1133 1204l-164 -82q-48 76 -129.5 119t-180.5 43q-151 0 -258 -96q-102 -94 -102 -236v-180q132 141 346 141q223 0 373 -135q149 -134 149 -336q0 -197 -149 -331q-152 -134 -373 -134q-224 0 -375 136q-149 134 -149 333v504q0 217 153 361q157 145 388 145
q153 0 278 -67.5t193 -184.5zM307 446q0 -126 96 -213q100 -83 242 -83q145 0 240 83q98 82 98 209q0 128 -98 213q-95 86 -240 86q-142 0 -242 -86q-96 -84 -96 -209z" />
    <glyph glyph-name="seven" unicode="7" horiz-adv-x="1081" 
d="M291 0l520 1268h-762v166h948v-174l-512 -1260h-194z" />
    <glyph glyph-name="eight" unicode="8" horiz-adv-x="1249" 
d="M104 391q0 115 66 209t182 148q-99 54 -155 139t-56 184q0 162 140 275q137 110 346 110q205 0 342 -110q139 -112 139 -277q0 -99 -55.5 -183.5t-153.5 -135.5q116 -56 182 -150t66 -209q0 -175 -150 -295q-146 -119 -370 -119t-373 119q-150 120 -150 295zM289 408
q0 -110 96 -185q94 -73 242 -73q142 0 237 71q97 75 97 185t-97 182q-95 74 -237 74q-147 0 -242 -74q-96 -72 -96 -180zM328 1057q0 -98 85 -164t214 -66q127 0 211 66q86 65 86 164q0 97 -86 162q-83 65 -211 65q-129 0 -215 -65q-84 -66 -84 -162z" />
    <glyph glyph-name="nine" unicode="9" horiz-adv-x="1249" 
d="M113 238l166 81q44 -78 128.5 -123.5t188.5 -45.5q158 0 262 94q107 94 107 235v168q-128 -155 -342 -155q-218 0 -369 139q-150 138 -150 344q0 204 150 342q151 139 369 139q224 0 370 -137q150 -135 150 -338v-500q0 -214 -158 -360q-156 -144 -389 -144
q-159 0 -287 69.5t-196 191.5zM623 664q145 0 239 88q96 90 96 221t-96 221t-239 90q-144 0 -238 -88q-96 -90 -96 -219q0 -133 96 -223t238 -90z" />
    <glyph glyph-name="colon" unicode=":" horiz-adv-x="440" 
d="M344 100q0 -54 -34.5 -88.5t-88.5 -34.5t-88.5 34.5t-34.5 88.5t34.5 88.5t88.5 34.5q53 0 88 -35.5t35 -87.5zM344 965q0 -52 -35 -87.5t-88 -35.5q-54 0 -88.5 34.5t-34.5 88.5t34.5 88t88.5 34t88.5 -34t34.5 -88z" />
    <glyph glyph-name="semicolon" unicode=";" horiz-adv-x="440" 
d="M344 965q0 -52 -35 -87.5t-88 -35.5q-54 0 -88.5 34.5t-34.5 88.5t34.5 88t88.5 34t88.5 -34t34.5 -88zM356 47q0 -55 -20.5 -107.5t-47 -86t-58.5 -62t-48 -39.5t-22 -14l-58 57q15 11 29 31q22 22 47 68q30 51 27 83q-45 6 -76 42t-31 83q0 51 34.5 85t88.5 34
q60 0 97.5 -48t37.5 -126z" />
    <glyph glyph-name="less" unicode="&#x3c;" horiz-adv-x="1228" 
d="M1071 203l-954 442v143l954 447v-174l-733 -344l733 -342v-172z" />
    <glyph glyph-name="equal" unicode="=" horiz-adv-x="1228" 
d="M137 874v158h955v-158h-955zM137 401v158h955v-158h-955z" />
    <glyph glyph-name="greater" unicode="&#x3e;" horiz-adv-x="1228" 
d="M1112 788v-143l-954 -442v172l733 342l-733 344v174z" />
    <glyph glyph-name="question" unicode="?" horiz-adv-x="1124" 
d="M850 1038q0 103 -92 174q-90 72 -223 72q-111 0 -195 -51t-115 -137l-176 51q47 141 176 223q133 86 305 86q210 0 355 -121t145 -297q0 -86 -38.5 -165.5t-100.5 -127.5q-123 -102 -211 -133l-41 -14l-8 -170h-150l-18 270q39 10 133 54q79 40 119 69q56 40 95.5 99
t39.5 118zM432 100q0 51 36 87t87 36t87 -36t36 -87q0 -54 -34.5 -88.5t-88.5 -34.5t-88.5 34.5t-34.5 88.5z" />
    <glyph glyph-name="at" unicode="@" horiz-adv-x="2031" 
d="M1016 1456q390 0 657 -258q269 -257 269 -618q0 -218 -101 -361q-102 -141 -258 -141q-90 0 -161 46t-103 124q-126 -170 -340 -170q-182 0 -305 129q-123 132 -123 325q0 195 123 324q122 131 305 131q191 0 317 -141v121h140v-609q0 -63 44 -105t107 -42
q94 0 154.5 100t60.5 258q0 312 -227 529q-230 219 -561 219q-334 0 -559 -225q-226 -226 -226 -560q0 -335 224 -559q225 -225 555 -225q199 0 358 90l47 -125q-183 -104 -412 -104q-385 0 -649 264q-262 265 -262 659q0 396 264 660q267 264 662 264zM995 219
q128 0 215 90q86 89 86 223q0 135 -86 224q-87 90 -215 90q-126 0 -213 -90q-86 -89 -86 -224q0 -134 86 -223q87 -90 213 -90z" />
    <glyph glyph-name="A" unicode="A" horiz-adv-x="1476" 
d="M229 0h-194l629 1434h149l629 -1434h-195l-139 322h-739zM1032 494l-293 675l-295 -675h588z" />
    <glyph glyph-name="B" unicode="B" horiz-adv-x="1415" 
d="M881 0h-721v1434h680q172 0 290 -109q119 -107 119 -266q0 -194 -162 -301q107 -50 169.5 -145t62.5 -212q0 -168 -127 -286q-127 -115 -311 -115zM881 659h-537v-487h537q104 0 174.5 70t70.5 174q0 101 -71 172t-174 71zM840 1262h-496v-431h496q94 0 156.5 62
t62.5 154t-62.5 153.5t-156.5 61.5z" />
    <glyph glyph-name="C" unicode="C" horiz-adv-x="1589" 
d="M844 1456q209 0 380 -99.5t269 -273.5l-180 -67q-73 123 -195.5 192.5t-273.5 69.5q-236 0 -391 -162q-158 -161 -158 -399q0 -236 158 -402q156 -159 391 -159q151 0 273.5 69.5t195.5 192.5l180 -68q-98 -174 -269 -273.5t-380 -99.5q-318 0 -529 211t-211 529
q0 315 211 526q213 213 529 213z" />
    <glyph glyph-name="D" unicode="D" horiz-adv-x="1570" 
d="M727 0h-567v1434h567q313 0 526 -207t213 -510t-213 -510t-526 -207zM727 1262h-383v-1090h383q231 0 389 158t158 387q0 231 -158 389q-156 156 -389 156z" />
    <glyph glyph-name="E" unicode="E" horiz-adv-x="1282" 
d="M160 1434h1032v-172h-848v-451h743v-172h-743v-467h858v-172h-1042v1434z" />
    <glyph glyph-name="F" unicode="F" 
d="M160 1434h1032v-172h-848v-443h743v-172h-743v-647h-184v1434z" />
    <glyph glyph-name="G" unicode="G" horiz-adv-x="1677" 
d="M104 717q0 316 215 528q214 211 537 211q213 0 386 -99.5t271 -273.5l-180 -67q-73 122 -198.5 192t-278.5 70q-237 0 -399 -162q-162 -158 -162 -399q0 -239 156 -402q156 -159 383 -159q196 0 346 120q149 122 184 314h-569v172h776q4 -50 4 -62q-6 -308 -217 -516
q-213 -207 -518 -207q-314 0 -525 211t-211 529z" />
    <glyph glyph-name="H" unicode="H" horiz-adv-x="1540" 
d="M344 0h-184v1434h184v-623h850v623h186v-1434h-186v639h-850v-639z" />
    <glyph glyph-name="I" unicode="I" horiz-adv-x="503" 
d="M344 0h-184v1434h184v-1434z" />
    <glyph glyph-name="J" unicode="J" horiz-adv-x="1218" 
d="M1071 1434v-920q0 -228 -158 -383q-157 -154 -393 -154q-148 0 -271 65t-196 179l154 101q48 -80 130.5 -126t184.5 -46q157 0 264 104t107 260v920h178z" />
    <glyph glyph-name="K" unicode="K" horiz-adv-x="1316" 
d="M1282 0h-238l-673 731l633 703h237l-633 -703zM160 0v1434h184v-1434h-184z" />
    <glyph glyph-name="L" unicode="L" horiz-adv-x="1181" 
d="M160 1434h184v-1262h776v-172h-960v1434z" />
    <glyph glyph-name="M" unicode="M" horiz-adv-x="1841" 
d="M344 0h-184v1434h184l578 -1008l575 1008h184v-1434h-184v1083l-516 -905h-121l-516 903v-1081z" />
    <glyph glyph-name="N" unicode="N" horiz-adv-x="1546" 
d="M338 0h-178v1434h162l886 -1115v1115h178v-1434h-161l-887 1114v-1114z" />
    <glyph glyph-name="O" unicode="O" horiz-adv-x="1687" 
d="M844 1456q315 0 528 -213t213 -526q0 -316 -213 -529q-211 -211 -528 -211q-318 0 -529 211t-211 529q0 315 211 526q213 213 529 213zM844 156q235 0 391 159q158 166 158 402q0 238 -158 399q-155 162 -391 162t-391 -162q-158 -161 -158 -399q0 -236 158 -402
q156 -159 391 -159z" />
    <glyph glyph-name="P" unicode="P" horiz-adv-x="1345" 
d="M344 549v-549h-184v1434h628q199 0 332 -127t133 -316q0 -188 -133 -315t-332 -127h-444zM788 1262h-444v-541h444q117 0 195 78t78 192q0 117 -78 194t-195 77z" />
    <glyph glyph-name="Q" unicode="Q" horiz-adv-x="1687" 
d="M844 -23q-318 0 -529 211t-211 529q0 315 211 526q213 213 529 213q315 0 528 -213t213 -526q0 -296 -186 -500l194 -194l-127 -125l-202 202q-188 -123 -420 -123zM844 1278q-236 0 -391 -162q-158 -161 -158 -399q0 -236 158 -402q156 -159 391 -159q156 0 286 77
l-245 246l125 125l256 -254q127 154 127 367q0 238 -158 399q-155 162 -391 162z" />
    <glyph glyph-name="R" unicode="R" horiz-adv-x="1390" 
d="M160 1434h649q199 0 332 -127t133 -316q0 -145 -81.5 -256.5t-217.5 -159.5l352 -575h-207l-336 549h-440v-549h-184v1434zM809 1262h-465v-541h465q117 0 195 78q77 77 77 192q0 117 -77.5 194t-194.5 77z" />
    <glyph glyph-name="S" unicode="S" 
d="M1116 1137l-182 -54q-19 83 -105.5 139t-203.5 56q-128 0 -213 -64q-84 -63 -84 -155q0 -103 114 -160q87 -42 277 -90q65 -17 88 -23.5t64 -21.5t83 -35q98 -46 149.5 -122.5t57.5 -198.5q0 -192 -147 -312q-143 -119 -373 -119q-204 0 -352 97q-144 95 -185 245l185 56
q18 -94 116 -156.5t236 -62.5q145 0 240 65q96 69 96 172q0 107 -103 160q-90 46 -206 76l-86 22l-80 25l-84 29q-9 3 -34.5 14.5t-39.5 17.5q-15 8 -28 15.5t-21 12t-19.5 14t-15.5 13t-18 16.5t-19 17q-41 41 -58 92t-24 130q0 180 135 294q136 115 347 115q187 0 321 -90
q134 -88 172 -229z" />
    <glyph glyph-name="T" unicode="T" horiz-adv-x="1368" 
d="M592 1262h-537v172h1258v-172h-537v-1262h-184v1262z" />
    <glyph glyph-name="U" unicode="U" horiz-adv-x="1499" 
d="M1174 573v861h186v-861q0 -253 -176 -426q-176 -170 -434 -170q-261 0 -437 170q-174 171 -174 426v861h185v-861q0 -183 120 -303q123 -120 306 -120q181 0 301 120q123 123 123 303z" />
    <glyph glyph-name="V" unicode="V" horiz-adv-x="1456" 
d="M803 0h-150l-618 1434h194l500 -1168l47 115l451 1053h194z" />
    <glyph glyph-name="W" unicode="W" horiz-adv-x="2078" 
d="M676 0h-148l-493 1434h190l375 -1139l367 1139h147l367 -1135l374 1135h189l-492 -1434h-149l-363 1114z" />
    <glyph glyph-name="X" unicode="X" horiz-adv-x="1386" 
d="M582 731l-527 703h221l418 -555l416 555h221l-526 -703l547 -731h-222l-436 582l-438 -582h-221z" />
    <glyph glyph-name="Y" unicode="Y" horiz-adv-x="1374" 
d="M592 584l-557 850h213l436 -674l440 674h213l-559 -842v-592h-186v584z" />
    <glyph glyph-name="Z" unicode="Z" horiz-adv-x="1310" 
d="M1231 172v-172h-1139v141l877 1121h-871v172h1129v-142l-875 -1120h879z" />
    <glyph glyph-name="bracketleft" unicode="[" horiz-adv-x="606" 
d="M291 -213h280v-145h-440v1996h440v-145h-280v-1706z" />
    <glyph glyph-name="backslash" unicode="\" horiz-adv-x="1091" 
d="M160 1636l932 -1994h-162l-930 1994h160z" />
    <glyph glyph-name="bracketright" unicode="]" horiz-adv-x="606" 
d="M475 -358h-440v145h280v1706h-280v145h440v-1996z" />
    <glyph glyph-name="asciicircum" unicode="^" horiz-adv-x="1228" 
d="M137 846l406 588h143l406 -586h-187l-291 401l-290 -403h-187z" />
    <glyph glyph-name="underscore" unicode="_" horiz-adv-x="561" 
d="M0 -262v160h561v-160h-561z" />
    <glyph glyph-name="grave" unicode="`" horiz-adv-x="677" 
d="M506 1450l-395 197l82 151l374 -242z" />
    <glyph glyph-name="a" unicode="a" horiz-adv-x="1320" 
d="M614 1087q241 0 390 -174v152h172v-1065h-172v152q-150 -175 -390 -175q-222 0 -374 158q-150 159 -150 397q0 240 150 396q150 159 374 159zM633 915q-153 0 -260 -110q-105 -108 -105 -273q0 -163 105 -274q108 -108 260 -108q155 0 260 108q106 109 106 274
q0 167 -106 273q-104 110 -260 110z" />
    <glyph glyph-name="b" unicode="b" horiz-adv-x="1320" 
d="M145 0v1536h172v-623q149 174 388 174q224 0 374 -159q152 -158 152 -396q0 -236 -152 -397q-152 -158 -374 -158q-238 0 -388 175v-152h-172zM686 915q-153 0 -260 -110q-104 -107 -104 -273q0 -164 104 -274q108 -108 260 -108q155 0 260 108q107 110 107 274
q0 166 -107 273q-104 110 -260 110z" />
    <glyph glyph-name="c" unicode="c" horiz-adv-x="1226" 
d="M1153 766l-172 -51q-48 93 -137 146.5t-199 53.5q-161 0 -268 -110q-109 -109 -109 -273q0 -162 109 -274q108 -108 268 -108q110 0 199 53.5t137 146.5l172 -51q-66 -149 -201.5 -235.5t-306.5 -86.5q-236 0 -397 158q-158 161 -158 397q0 238 158 396q159 159 397 159
q171 0 306.5 -86t201.5 -235z" />
    <glyph glyph-name="d" unicode="d" horiz-adv-x="1320" 
d="M614 1087q241 0 390 -174v623h172v-1536h-172v152q-150 -175 -390 -175q-222 0 -374 158q-150 159 -150 397q0 240 150 396q150 159 374 159zM633 915q-153 0 -260 -110q-105 -108 -105 -273q0 -163 105 -274q108 -108 260 -108q155 0 260 108q106 109 106 274
q0 167 -106 273q-104 110 -260 110z" />
    <glyph glyph-name="e" unicode="e" horiz-adv-x="1261" 
d="M1184 473h-916q18 -145 127 -240q107 -94 262 -94q201 0 316 154l168 -53q-74 -123 -202 -193t-282 -70q-239 0 -405 158q-162 158 -162 397q0 238 158 396q156 159 391 159t391 -159q158 -158 158 -396q0 -5 -4 -59zM270 612h740q-24 140 -129 228q-104 88 -246 88
q-139 0 -240 -88q-101 -87 -125 -228z" />
    <glyph glyph-name="f" unicode="f" horiz-adv-x="704" 
d="M385 1202v-137h285v-152h-285v-913h-172v913h-178v152h178v158q0 133 90 223t223 90h142v-166h-129q-66 0 -110 -48t-44 -120z" />
    <glyph glyph-name="g" unicode="g" horiz-adv-x="1320" 
d="M614 -23q-222 0 -374 158q-150 159 -150 397q0 240 150 396q150 159 374 159q241 0 390 -174v152h172v-1020q0 -227 -156 -377q-157 -151 -383 -151q-157 0 -293 77q-132 77 -194 197l172 55q43 -70 127.5 -113.5t181.5 -43.5q158 0 266 102q110 104 107 254v107
q-150 -175 -390 -175zM633 915q-153 0 -260 -110q-105 -108 -105 -273q0 -163 105 -274q108 -108 260 -108q155 0 260 108q106 109 106 274q0 167 -106 273q-104 110 -260 110z" />
    <glyph glyph-name="h" unicode="h" horiz-adv-x="1271" 
d="M145 0v1536h172v-649q126 200 381 200q187 0 310 -120q122 -119 122 -303v-664h-172v618q0 130 -88 218t-219 88q-141 0 -237 -90q-97 -91 -97 -220v-614h-172z" />
    <glyph glyph-name="i" unicode="i" horiz-adv-x="462" 
d="M317 0h-172v1065h172v-1065zM145 1239q-32 35 -32 86.5t32 83.5q35 35 86 35t86 -35q35 -32 35 -83.5t-35 -86.5q-35 -32 -86 -32t-86 32z" />
    <glyph glyph-name="j" unicode="j" horiz-adv-x="479" 
d="M162 1065h172v-1212q0 -134 -90 -224t-224 -90h-86v166h74q66 0 110 48t44 120v1192zM162 1239q-35 35 -35 86.5t35 83.5q35 35 86.5 35t83.5 -35q35 -32 35 -83.5t-35 -86.5q-32 -32 -83.5 -32t-86.5 32z" />
    <glyph glyph-name="k" unicode="k" horiz-adv-x="1054" 
d="M145 0v1536h172v-1536h-172zM1020 0h-215l-479 551l438 514h211l-436 -514z" />
    <glyph glyph-name="l" unicode="l" horiz-adv-x="462" 
d="M317 0h-172v1536h172v-1536z" />
    <glyph glyph-name="m" unicode="m" horiz-adv-x="1961" 
d="M145 0v1065h172v-156q120 178 351 178q116 0 210.5 -54.5t145.5 -149.5q35 62 109 123q98 81 268 81q181 0 299 -112q119 -113 119 -283v-692h-172v645q0 119 -78.5 199t-196.5 80q-129 0 -217 -82q-86 -80 -86 -199v-643h-172v645q0 119 -79 199t-197 80
q-130 0 -218 -82q-86 -80 -86 -199v-643h-172z" />
    <glyph glyph-name="n" unicode="n" 
d="M145 0v1065h172v-178q126 200 379 200q185 0 305 -120q123 -120 123 -303v-664h-172v618q0 130 -88 218q-85 88 -215 88q-139 0 -235 -90q-97 -91 -97 -220v-614h-172z" />
    <glyph glyph-name="o" unicode="o" horiz-adv-x="1292" 
d="M248 135q-158 161 -158 397q0 238 158 396q159 159 397 159t397 -159q160 -157 160 -396q0 -237 -160 -397q-161 -158 -397 -158t-397 158zM645 150q162 0 270 108q109 112 109 274q0 164 -109 273q-107 110 -270 110q-161 0 -268 -110q-109 -109 -109 -273
q0 -162 109 -274q108 -108 268 -108z" />
    <glyph glyph-name="p" unicode="p" horiz-adv-x="1320" 
d="M317 -461h-172v1526h172v-152q149 174 388 174q224 0 374 -159q152 -158 152 -396q0 -236 -152 -397q-152 -158 -374 -158q-238 0 -388 175v-613zM686 915q-153 0 -260 -110q-104 -107 -104 -273q0 -164 104 -274q108 -108 260 -108q155 0 260 108q107 110 107 274
q0 166 -107 273q-104 110 -260 110z" />
    <glyph glyph-name="q" unicode="q" horiz-adv-x="1320" 
d="M614 1087q241 0 390 -174v152h172v-1526h-172v613q-150 -175 -390 -175q-222 0 -374 158q-150 159 -150 397q0 240 150 396q150 159 374 159zM633 915q-153 0 -260 -110q-105 -108 -105 -273q0 -163 105 -274q108 -108 260 -108q155 0 260 108q106 109 106 274
q0 167 -106 273q-104 110 -260 110z" />
    <glyph glyph-name="r" unicode="r" horiz-adv-x="768" 
d="M317 602v-602h-172v1065h172v-180q120 202 379 202h29v-190q-35 12 -76 12q-141 0 -235 -88q-97 -91 -97 -219z" />
    <glyph glyph-name="s" unicode="s" horiz-adv-x="976" 
d="M868 834l-161 -29q-17 61 -78 96t-152 35q-89 0 -147 -38.5t-58 -100.5q0 -85 113 -125l260 -92q244 -89 244 -291q0 -145 -111.5 -228.5t-288.5 -83.5q-170 0 -279 75t-132 204l162 29q18 -70 85.5 -113t168.5 -43q99 0 165 43.5t66 110.5q0 95 -141 145l-254 88
q-224 76 -224 268q0 143 105.5 223t277.5 80q154 0 255 -67.5t124 -185.5z" />
    <glyph glyph-name="t" unicode="t" horiz-adv-x="741" 
d="M31 913v152h172v213h172v-213h297v-152h-297v-579q0 -72 43.5 -120t109.5 -48h144v-166h-156q-133 0 -223 90t-90 223v600h-172z" />
    <glyph glyph-name="u" unicode="u" 
d="M141 401v664h172v-619q0 -128 86 -217q88 -88 219 -88q140 0 234 88q96 90 96 222v614h172v-1065h-172v176q-120 -199 -377 -199q-185 0 -309 121q-121 121 -121 303z" />
    <glyph glyph-name="v" unicode="v" horiz-adv-x="1130" 
d="M487 0l-458 1065h178l358 -844l361 844h178l-459 -1065h-158z" />
    <glyph glyph-name="w" unicode="w" horiz-adv-x="1597" 
d="M541 0h-150l-362 1065h174l260 -799l260 799h151l261 -801l262 801h174l-365 -1065h-149l-258 778z" />
    <glyph glyph-name="x" unicode="x" horiz-adv-x="1112" 
d="M868 0l-311 408l-313 -408h-205l416 545l-398 520h205l295 -383l293 383h205l-396 -520l414 -545h-205z" />
    <glyph glyph-name="y" unicode="y" horiz-adv-x="1089" 
d="M389 -125l64 156l-424 1034h178l334 -827l344 827h178l-524 -1247q-60 -146 -153 -212.5t-236 -66.5h-50v166h50q168 0 239 170z" />
    <glyph glyph-name="z" unicode="z" horiz-adv-x="1040" 
d="M82 0v133l631 772h-621v160h856v-133l-631 -772h641v-160h-876z" />
    <glyph glyph-name="braceleft" unicode="{" horiz-adv-x="661" 
d="M479 1638h148v-145h-135q-54 0 -89.5 -36.5t-35.5 -92.5v-492q0 -91 -49.5 -151.5t-131.5 -79.5q82 -21 131.5 -81.5t49.5 -151.5v-492q0 -56 35.5 -92.5t89.5 -36.5h135v-145h-148q-117 0 -194.5 78.5t-77.5 195.5v494q0 52 -41.5 92.5t-91.5 54.5l-45 10v148
q23 3 49 12q36 11 80 47q49 40 49 98v492q0 117 77.5 195.5t194.5 78.5z" />
    <glyph glyph-name="bar" unicode="|" horiz-adv-x="409" 
d="M279 -358h-148v1996h148v-1996z" />
    <glyph glyph-name="braceright" unicode="}" horiz-adv-x="661" 
d="M35 1493v145h149q117 0 193 -79q78 -78 78 -195v-492q0 -53 42 -93t93 -54l45 -10v-148q-22 -4 -64 -20q-116 -44 -116 -137v-494q0 -117 -78 -195q-76 -79 -193 -79h-149v145h135q54 0 89.5 36.5t35.5 92.5v492q0 91 49.5 151.5t130.5 81.5q-81 19 -130.5 79.5
t-49.5 151.5v492q0 56 -35.5 92.5t-89.5 36.5h-135z" />
    <glyph glyph-name="asciitilde" unicode="~" horiz-adv-x="1228" 
d="M793 563q-52 -2 -108.5 22t-96 54t-84.5 54t-76 22q-57 0 -95 -40t-38 -100h-158q0 128 86 211q89 86 211 86q50 0 105.5 -23.5t96.5 -52t87 -52t78 -23.5q57 0 94 39.5t37 99.5h160q-3 -128 -91 -213q-87 -84 -208 -84z" />
    <glyph glyph-name="exclamdown" unicode="&#xa1;" horiz-adv-x="503" 
d="M375 965q0 -51 -36 -87t-87 -36q-39 -4 -70 19t-44 56.5t-7 72t33 63.5q25 27 63.5 33t72 -7t56.5 -44t19 -70zM160 -369l18 1006h150l16 -1006h-184z" />
    <glyph glyph-name="cent" unicode="&#xa2;" horiz-adv-x="1226" 
d="M580 -61v227q-213 21 -353 176q-137 155 -137 375q0 221 137 373q139 157 353 178v227h133v-227q151 -17 265.5 -100.5t174.5 -217.5l-172 -51q-48 93 -137.5 147t-198.5 54q-160 0 -268 -111q-109 -109 -109 -272t109 -275q108 -108 268 -108q109 0 198.5 54t137.5 147
l172 -52q-60 -134 -174.5 -217t-265.5 -100v-227h-133z" />
    <glyph glyph-name="sterling" unicode="&#xa3;" horiz-adv-x="1196" 
d="M1108 0h-1038v172h178v442h-144v131h144v285q0 184 125 303q126 123 309 123q152 0 283 -90q129 -89 176 -227l-178 -52q-31 86 -109 141.5t-170 55.5q-105 0 -182 -74q-76 -73 -76 -180v-285h414v-131h-414v-442h682v-172z" />
    <glyph glyph-name="currency" unicode="&#xa4;" horiz-adv-x="1220" 
d="M236 244l-105 102l156 156q-64 91 -64 215q0 122 66 219l-156 158l103 102l157 -158q101 66 215 66q120 0 217 -66l160 158l102 -102l-159 -158q67 -91 67 -219q0 -126 -65 -215l155 -158l-102 -100l-154 153q-94 -67 -221 -67q-125 0 -219 67zM608 958q-103 0 -171 -69
t-68 -172t68.5 -172.5t170.5 -69.5q103 0 172.5 69.5t69.5 172.5t-69 172t-173 69z" />
    <glyph glyph-name="yen" unicode="&#xa5;" horiz-adv-x="1374" 
d="M592 547v39l-557 848h213l436 -674l440 674h213l-559 -844v-43h309v-133h-309v-127h309v-133h-309v-154h-186v154h-309v133h309v127h-309v133h309z" />
    <glyph glyph-name="brokenbar" unicode="&#xa6;" horiz-adv-x="409" 
d="M279 1638v-831h-148v831h148zM131 -358v831h148v-831h-148z" />
    <glyph glyph-name="section" unicode="&#xa7;" horiz-adv-x="966" 
d="M487 -381q-155 0 -268 82q-114 83 -141 211l158 59q19 -93 88.5 -148.5t167.5 -55.5q99 0 165 57.5t66 144.5q0 127 -125 185l-270 122q-213 103 -213 320q0 163 118 256q-118 90 -118 252q0 152 106 252t266 100q141 0 246.5 -74.5t136.5 -197.5l-157 -60
q-19 83 -81 134t-147 51q-88 0 -146 -57.5t-58 -143.5q0 -60 25.5 -106t68.5 -66l287 -123q106 -47 166.5 -134t60.5 -192q0 -155 -123 -260q123 -91 123 -250q0 -153 -115 -256q-114 -102 -287 -102zM586 682l-211 90q-38 -18 -66 -68t-28 -108q0 -61 29 -109t79 -71
l229 -105q105 58 105 176q0 137 -137 195z" />
    <glyph glyph-name="dieresis" unicode="&#xa8;" horiz-adv-x="878" 
d="M227 1675q48 0 81.5 -32.5t33.5 -81.5t-33.5 -82t-81.5 -33q-50 0 -83 33t-33 82t33 81.5t83 32.5zM569 1479q-32 32 -32 81.5t32 81.5t82 32t82 -32t32 -81.5t-32 -81.5t-82 -32t-82 32z" />
    <glyph glyph-name="copyright" unicode="&#xa9;" horiz-adv-x="1671" 
d="M317 199q-213 216 -213 518q0 303 213 516q215 215 519 215t516 -215q215 -212 215 -516q0 -303 -215 -518q-213 -213 -516 -213t-519 213zM184 717q0 -267 191 -461q193 -190 461 -190t458 190q193 193 193 461q0 271 -193 461q-190 190 -458 190t-461 -190
q-191 -191 -191 -461zM846 1104q115 0 206.5 -53t141.5 -146l-113 -43q-76 129 -235 129q-116 0 -193 -80q-78 -78 -78 -194t78 -197q78 -78 193 -78q158 0 235 129l113 -43q-52 -92 -143 -145t-205 -53q-168 0 -281 110q-110 110 -110 277q0 166 110 276q114 111 281 111z
" />
    <glyph glyph-name="ordfeminine" unicode="&#xaa;" horiz-adv-x="911" 
d="M412 1444q165 0 266 -125v115h141v-746h-141v115q-101 -125 -266 -125q-152 0 -254 108q-103 112 -103 275t103 272q102 111 254 111zM606 1235q-69 72 -168 72q-98 0 -170 -72q-67 -70 -67 -174q0 -106 67 -176q70 -70 170 -70q101 0 168 70q68 71 68 176q0 103 -68 174
z" />
    <glyph glyph-name="guillemotleft" unicode="&#xab;" horiz-adv-x="1081" 
d="M457 152l-381 380l381 381l102 -102l-278 -279l278 -278zM877 152l-381 380l381 381l102 -102l-281 -279l281 -278z" />
    <glyph glyph-name="logicalnot" unicode="&#xac;" horiz-adv-x="1228" 
d="M938 336v301h-801v160h955v-461h-154z" />
    <glyph glyph-name="uni00AD" unicode="&#xad;" horiz-adv-x="819" 
d="M137 453v159h545v-159h-545z" />
    <glyph glyph-name="registered" unicode="&#xae;" horiz-adv-x="1671" 
d="M317 199q-213 216 -213 518q0 303 213 516q215 215 519 215t516 -215q215 -212 215 -516q0 -303 -215 -518q-213 -213 -516 -213t-519 213zM1487 717q0 271 -193 461q-190 190 -458 190t-461 -190q-191 -191 -191 -461q0 -267 191 -461q193 -190 461 -190t458 190
q193 193 193 461zM672 338h-119v758h346q109 0 182.5 -69.5t73.5 -172.5q0 -74 -40.5 -133.5t-108.5 -89.5l174 -293h-131l-162 272h-215v-272zM899 987h-227v-266h227q57 0 96 38t39 95t-39 95t-96 38z" />
    <glyph glyph-name="overscore" unicode="&#xaf;" horiz-adv-x="813" 
d="M702 1501h-591v146h591v-146z" />
    <glyph glyph-name="degree" unicode="&#xb0;" horiz-adv-x="804" 
d="M170 999q-94 94 -94 234t94 231q95 95 233 95q140 0 232 -95q94 -91 94 -231t-94 -234q-92 -92 -232 -92q-138 0 -233 92zM231 1233q0 -72 49 -122t121 -50q73 0 122.5 50t49.5 122q0 73 -49.5 122.5t-122.5 49.5q-72 0 -121 -49.5t-49 -122.5z" />
    <glyph glyph-name="plusminus" unicode="&#xb1;" horiz-adv-x="1228" 
d="M535 786h-398v160h398v397h159v-397h398v-160h-398v-342h-159v342zM137 139v160h955v-160h-955z" />
    <glyph glyph-name="twosuperior" unicode="&#xb2;" horiz-adv-x="655" 
d="M471 1303q0 55 -45.5 94t-108.5 39q-117 0 -170 -127l-106 51q37 86 110.5 135t165.5 49q116 0 191 -69q80 -71 80 -168q0 -117 -166 -267l-191 -184h369v-108h-547v81l295 283q123 117 123 191z" />
    <glyph glyph-name="threesuperior" unicode="&#xb3;" horiz-adv-x="667" 
d="M475 1317q0 50 -45 84.5t-111 34.5q-120 0 -161 -90l-101 38q33 73 105.5 116.5t163.5 43.5q115 0 191.5 -64t76.5 -161q0 -111 -117 -164q135 -53 135 -180q0 -100 -81.5 -168t-204.5 -68q-97 0 -172.5 45t-106.5 119l109 39q35 -92 166 -92q75 0 124.5 36.5t49.5 92.5
q0 54 -48 90.5t-120 36.5h-60v88h41q72 0 119 34.5t47 88.5z" />
    <glyph glyph-name="acute" unicode="&#xb4;" horiz-adv-x="677" 
d="M172 1450l-61 106l374 242l82 -151z" />
    <glyph glyph-name="mu" unicode="&#xb5;" 
d="M141 -461v1526h172v-619q0 -128 86 -217q88 -88 219 -88q140 0 234 88q96 90 96 222v614h172v-1065h-172v176q-120 -199 -377 -199q-145 0 -258 78v-516h-172z" />
    <glyph glyph-name="paragraph" unicode="&#xb6;" horiz-adv-x="1390" 
d="M506 1434h815v-134h-219v-1658h-146v1658h-305v-1658h-145v979q-174 0 -291 114q-117 117 -117 291t117 291t291 117z" />
    <glyph glyph-name="middot" unicode="&#xb7;" horiz-adv-x="440" 
d="M133 629q-35 35 -35 88t35 88t88 35t88 -35t35 -88t-35 -88t-88 -35t-88 35z" />
    <glyph glyph-name="cedilla" unicode="&#xb8;" horiz-adv-x="571" 
d="M209 -176l41 176h133l-25 -109q6 -1 16 -3.5t36 -13.5t46 -26.5t36 -44.5t16 -65q0 -78 -66 -130t-166 -52q-50 0 -99 15.5t-75 35.5l-24 16l28 94q52 -55 142 -55q53 0 90 22.5t37 53.5q0 30 -39 52.5t-86 29.5z" />
    <glyph glyph-name="onesuperior" unicode="&#xb9;" horiz-adv-x="483" 
d="M248 1399l-158 -80l-43 96l236 121h79v-788h-114v651z" />
    <glyph glyph-name="ordmasculine" unicode="&#xba;" horiz-adv-x="892" 
d="M166 786q-111 111 -111 275t111 272q114 111 280 111q168 0 279 -111q113 -107 113 -272t-113 -275q-111 -108 -279 -108q-166 0 -280 108zM449 815q100 0 172 72q71 71 71 174t-71 174q-72 72 -175 72q-106 0 -178 -72q-69 -69 -69 -174q0 -103 71 -174q72 -72 179 -72z
" />
    <glyph glyph-name="guillemotright" unicode="&#xbb;" horiz-adv-x="1081" 
d="M625 913l381 -381l-381 -380l-103 102l281 278l-281 279zM207 913l381 -381l-381 -380l-103 102l279 278l-279 279z" />
    <glyph glyph-name="onequarter" unicode="&#xbc;" horiz-adv-x="1603" 
d="M1339 616l-288 -348h288v348zM1339 0v158h-424v110l433 520h106v-520h111v-110h-111v-158h-115zM248 645v651l-158 -79l-43 96l236 121h79v-789h-114zM1337 1434l-1007 -1434h-156l1008 1434h155z" />
    <glyph glyph-name="onehalf" unicode="&#xbd;" horiz-adv-x="1652" 
d="M248 645v651l-158 -79l-43 96l236 121h79v-789h-114zM1337 1434l-1007 -1434h-156l1008 1434h155zM1466 555q0 55 -44 94t-107 39q-116 0 -172 -127l-105 51q37 86 111 135.5t166 49.5q114 0 190 -70q80 -71 80 -168q0 -113 -166 -266l-192 -184h368v-109h-544v82
l295 283q120 117 120 190z" />
    <glyph glyph-name="threequarters" unicode="&#xbe;" horiz-adv-x="1783" 
d="M1096 158v110l434 520h106v-520h109v-110h-109v-158h-114v158h-426zM498 0h-156l1010 1434h153zM326 637q-97 0 -172.5 45t-106.5 119l109 39q35 -92 166 -92q75 0 124.5 36.5t49.5 92.5q0 54 -48 90.5t-120 36.5h-60v88h41q72 0 119 34t47 88q0 50 -45 84.5t-111 34.5
q-120 0 -161 -90l-101 39q33 73 105.5 116.5t163.5 43.5q115 0 191.5 -64t76.5 -161q0 -111 -117 -164q135 -53 135 -181q0 -100 -81.5 -167.5t-204.5 -67.5zM1522 616l-289 -348h289v348z" />
    <glyph glyph-name="questiondown" unicode="&#xbf;" horiz-adv-x="1112" 
d="M262 27q0 -102 90 -174q93 -72 226 -72q110 0 194 51t115 137l176 -51q-48 -142 -178 -223q-130 -86 -303 -86q-212 0 -357 121q-143 119 -143 299q0 70 27 135.5t67 110.5t90.5 83.5t91 60t76.5 34.5l39 14l8 170h150l18 -270q-39 -10 -135 -56q-67 -31 -117 -67
q-56 -40 -95.5 -99t-39.5 -118zM434 965q0 54 34.5 88t88.5 34t88.5 -34t34.5 -88t-34.5 -88.5t-88.5 -34.5q-53 0 -88 35.5t-35 87.5z" />
    <glyph glyph-name="Agrave" unicode="&#xc0;" horiz-adv-x="1476" 
d="M229 0h-194l629 1434h149l629 -1434h-195l-139 322h-739zM1032 494l-293 675l-295 -675h588zM811 1569l-393 194l80 154l374 -244z" />
    <glyph glyph-name="Aacute" unicode="&#xc1;" horiz-adv-x="1476" 
d="M229 0h-194l629 1434h149l629 -1434h-195l-139 322h-739zM1032 494l-293 675l-295 -675h588zM662 1569l-60 104l373 244l82 -154z" />
    <glyph glyph-name="Acircumflex" unicode="&#xc2;" horiz-adv-x="1476" 
d="M229 0h-194l629 1434h149l629 -1434h-195l-139 322h-739zM1032 494l-293 675l-295 -675h588zM475 1567l-74 98l330 250h12l330 -250l-74 -96l-262 170z" />
    <glyph glyph-name="Atilde" unicode="&#xc3;" horiz-adv-x="1476" 
d="M369 322l-140 -322h-194l629 1434h149l629 -1434h-195l-139 322h-739zM1032 494l-293 675l-295 -675h588zM559 1591h-137q0 88 59 150q60 63 146 63q63 0 121 -49q62 -47 90 -47q33 0 55 24t22 62h138q0 -90 -58.5 -150.5t-144.5 -60.5q-64 0 -123 47q-58 49 -88 49
q-33 0 -56.5 -26t-23.5 -62z" />
    <glyph glyph-name="Adieresis" unicode="&#xc4;" horiz-adv-x="1476" 
d="M369 322l-140 -322h-194l629 1434h149l629 -1434h-195l-139 322h-739zM1032 494l-293 675l-295 -675h588zM868 1759q32 32 82 32t82 -32t32 -82t-32 -82t-82 -32t-82 32t-32 82t32 82zM526 1792q48 0 80.5 -33t32.5 -82t-32.5 -81.5t-80.5 -32.5q-51 0 -83.5 32t-32.5 82
t32.5 82.5t83.5 32.5z" />
    <glyph glyph-name="Aring" unicode="&#xc5;" horiz-adv-x="1476" 
d="M369 322l-140 -322h-194l629 1434h149l629 -1434h-195l-139 322h-739zM1032 494l-293 675l-295 -675h588zM739 1980q89 0 154 -65t65 -154q0 -92 -65 -157q-64 -64 -154 -64q-92 0 -156.5 64.5t-64.5 156.5q0 90 64 154q65 65 157 65zM739 1855q-41 0 -68.5 -26.5
t-27.5 -67.5t27.5 -68.5t68.5 -27.5t68 27.5t27 68.5q0 40 -28 67t-67 27z" />
    <glyph glyph-name="AE" unicode="&#xc6;" horiz-adv-x="2066" 
d="M453 322l-205 -322h-213l926 1434h1015v-172h-755v-451h651v-172h-651v-467h766v-172h-951v322h-583zM563 494h473v741z" />
    <glyph glyph-name="Ccedilla" unicode="&#xc7;" horiz-adv-x="1589" 
d="M104 717q0 315 211 526q213 213 529 213q209 0 380 -99.5t269 -273.5l-180 -67q-73 123 -195.5 192.5t-273.5 69.5q-236 0 -391 -162q-158 -161 -158 -399q0 -236 158 -402q156 -159 391 -159q151 0 273.5 69.5t195.5 192.5l180 -68q-87 -156 -235.5 -252.5
t-333.5 -115.5l-21 -91q6 -1 16 -3.5t36 -13.5t46 -26.5t36 -44.5t16 -65q0 -78 -67 -130t-167 -52q-48 0 -98 16t-78 35l-22 16l28 94q55 -55 144 -55q53 0 90 22.5t37 53.5q0 30 -39 52.5t-86 29.5l-41 4l37 156q-298 18 -492 227q-195 210 -195 510z" />
    <glyph glyph-name="Egrave" unicode="&#xc8;" horiz-adv-x="1282" 
d="M160 1434h1032v-172h-848v-451h743v-172h-743v-467h858v-172h-1042v1434zM801 1673l-62 -104l-395 194l82 154z" />
    <glyph glyph-name="Eacute" unicode="&#xc9;" horiz-adv-x="1282" 
d="M160 1434h1032v-172h-848v-451h743v-172h-743v-467h858v-172h-1042v1434zM590 1569l-62 104l375 244l82 -154z" />
    <glyph glyph-name="Ecircumflex" unicode="&#xca;" horiz-adv-x="1282" 
d="M160 1434h1032v-172h-848v-451h743v-172h-743v-467h858v-172h-1042v1434zM403 1567l-73 98l329 250h13l329 -250l-73 -96l-262 170z" />
    <glyph glyph-name="Edieresis" unicode="&#xcb;" horiz-adv-x="1282" 
d="M160 1434h1032v-172h-848v-451h743v-172h-743v-467h858v-172h-1042v1434zM961 1595q-32 -32 -82 -32t-82 32t-32 82t32 82t82 32t82 -32t32 -82t-32 -82zM371 1595q-32 32 -32 82t32 82t82 32t82 -32t32 -82t-32 -82t-82 -32t-82 32z" />
    <glyph glyph-name="Igrave" unicode="&#xcc;" horiz-adv-x="503" 
d="M344 0h-184v1434h184v-1434zM326 1569l-396 194l82 154l375 -244z" />
    <glyph glyph-name="Iacute" unicode="&#xcd;" horiz-adv-x="503" 
d="M344 0h-184v1434h184v-1434zM176 1569l-61 104l374 244l82 -154z" />
    <glyph glyph-name="Icircumflex" unicode="&#xce;" horiz-adv-x="503" 
d="M344 0h-184v1434h184v-1434zM252 1739l-262 -172l-74 98l330 250h12l328 -250l-72 -96z" />
    <glyph glyph-name="Idieresis" unicode="&#xcf;" horiz-adv-x="503" 
d="M344 0h-184v1434h184v-1434zM-43 1595q-32 32 -32 82t32 82t82 32t82 -32t32 -82t-32 -82t-82 -32t-82 32zM383 1595q-32 32 -32 82t32 82t82 32t82 -32t32 -82t-32 -82t-82 -32t-82 32z" />
    <glyph glyph-name="Eth" unicode="&#xd0;" horiz-adv-x="1597" 
d="M20 637v160h166v637h566q315 0 528 -207t213 -510t-213 -510t-528 -207h-566v637h-166zM371 1262v-465h430v-160h-430v-465h381q233 0 391 158q157 157 157 387t-157 387q-158 158 -391 158h-381z" />
    <glyph glyph-name="Ntilde" unicode="&#xd1;" horiz-adv-x="1546" 
d="M338 0h-178v1434h162l886 -1115v1115h178v-1434h-161l-887 1114v-1114zM594 1591h-137q0 88 59 150q60 63 146 63q61 0 122 -49q62 -47 90 -47q31 0 53.5 24.5t22.5 61.5h140q0 -90 -58.5 -150.5t-144.5 -60.5q-63 0 -125 47q-58 49 -88 49q-33 0 -56.5 -26t-23.5 -62z
" />
    <glyph glyph-name="Ograve" unicode="&#xd2;" horiz-adv-x="1687" 
d="M844 1456q315 0 528 -213t213 -526q0 -316 -213 -529q-211 -211 -528 -211q-318 0 -529 211t-211 529q0 315 211 526q213 213 529 213zM844 156q235 0 391 159q158 166 158 402q0 238 -158 399q-155 162 -391 162t-391 -162q-158 -161 -158 -399q0 -236 158 -402
q156 -159 391 -159zM918 1569l-396 194l82 154l375 -244z" />
    <glyph glyph-name="Oacute" unicode="&#xd3;" horiz-adv-x="1687" 
d="M844 1456q315 0 528 -213t213 -526q0 -316 -213 -529q-211 -211 -528 -211q-318 0 -529 211t-211 529q0 315 211 526q213 213 529 213zM844 156q235 0 391 159q158 166 158 402q0 238 -158 399q-155 162 -391 162t-391 -162q-158 -161 -158 -399q0 -236 158 -402
q156 -159 391 -159zM768 1569l-61 104l374 244l82 -154z" />
    <glyph glyph-name="Ocircumflex" unicode="&#xd4;" horiz-adv-x="1687" 
d="M844 1456q315 0 528 -213t213 -526q0 -316 -213 -529q-211 -211 -528 -211q-318 0 -529 211t-211 529q0 315 211 526q213 213 529 213zM844 156q235 0 391 159q158 166 158 402q0 238 -158 399q-155 162 -391 162t-391 -162q-158 -161 -158 -399q0 -236 158 -402
q156 -159 391 -159zM844 1739l-262 -172l-74 98l330 250h12l328 -250l-72 -96z" />
    <glyph glyph-name="Otilde" unicode="&#xd5;" horiz-adv-x="1687" 
d="M844 1456q315 0 528 -213t213 -526q0 -316 -213 -529q-211 -211 -528 -211q-318 0 -529 211t-211 529q0 315 211 526q213 213 529 213zM844 156q235 0 391 159q158 166 158 402q0 238 -158 399q-155 162 -391 162t-391 -162q-158 -161 -158 -399q0 -236 158 -402
q156 -159 391 -159zM666 1591h-140q0 88 62 150q60 63 145 63q63 0 121 -49q62 -47 90 -47q33 0 55.5 24t22.5 62h137q0 -90 -58.5 -150.5t-144.5 -60.5q-63 0 -122 47q-58 49 -89 49q-32 0 -55.5 -25.5t-23.5 -62.5z" />
    <glyph glyph-name="Odieresis" unicode="&#xd6;" horiz-adv-x="1687" 
d="M844 1456q315 0 528 -213t213 -526q0 -316 -213 -529q-211 -211 -528 -211q-318 0 -529 211t-211 529q0 315 211 526q213 213 529 213zM844 156q235 0 391 159q158 166 158 402q0 238 -158 399q-155 162 -391 162t-391 -162q-158 -161 -158 -399q0 -236 158 -402
q156 -159 391 -159zM549 1595q-32 32 -32 82t32 82t82 32t82 -32t32 -82t-32 -82t-82 -32t-82 32zM975 1595q-32 32 -32 82t32 82t82 32t82 -32t32 -82t-32 -82t-82 -32t-82 32z" />
    <glyph glyph-name="multiply" unicode="&#xd7;" horiz-adv-x="1228" 
d="M502 717l-322 319l113 113l321 -320l322 322l113 -113l-322 -321l322 -320l-113 -112l-322 319l-321 -319l-113 112z" />
    <glyph glyph-name="Oslash" unicode="&#xd8;" horiz-adv-x="1687" 
d="M299 59l63 91q-124 103 -191 249.5t-67 317.5q0 315 211 526q213 213 529 213q194 0 366 -90l64 90l121 -82l-64 -92q254 -214 254 -565q0 -316 -213 -529q-211 -211 -528 -211q-195 0 -363 91l-65 -91zM1223 1126l-637 -907q114 -63 258 -63q235 0 391 159
q158 166 158 402q0 250 -170 409zM469 303l635 911q-116 64 -260 64q-236 0 -391 -162q-158 -161 -158 -399q0 -252 174 -414z" />
    <glyph glyph-name="Ugrave" unicode="&#xd9;" horiz-adv-x="1499" 
d="M1174 573v861h186v-861q0 -253 -176 -426q-176 -170 -434 -170q-261 0 -437 170q-174 171 -174 426v861h185v-861q0 -183 120 -303q123 -120 306 -120q181 0 301 120q123 123 123 303zM823 1569l-395 194l82 154l373 -244z" />
    <glyph glyph-name="Uacute" unicode="&#xda;" horiz-adv-x="1499" 
d="M1174 573v861h186v-861q0 -253 -176 -426q-176 -170 -434 -170q-261 0 -437 170q-174 171 -174 426v861h185v-861q0 -183 120 -303q123 -120 306 -120q181 0 301 120q123 123 123 303zM674 1569l-62 104l375 244l80 -154z" />
    <glyph glyph-name="Ucircumflex" unicode="&#xdb;" horiz-adv-x="1499" 
d="M1174 573v861h186v-861q0 -253 -176 -426q-176 -170 -434 -170q-261 0 -437 170q-174 171 -174 426v861h185v-861q0 -183 120 -303q123 -120 306 -120q181 0 301 120q123 123 123 303zM748 1739l-261 -172l-73 98l329 250h11l329 -250l-73 -96z" />
    <glyph glyph-name="Udieresis" unicode="&#xdc;" horiz-adv-x="1499" 
d="M1174 573v861h186v-861q0 -253 -176 -426q-176 -170 -434 -170q-261 0 -437 170q-174 171 -174 426v861h185v-861q0 -183 120 -303q123 -120 306 -120q181 0 301 120q123 123 123 303zM537 1792q48 0 81 -33t33 -82t-33 -81.5t-81 -32.5q-50 0 -82.5 32.5t-32.5 81.5
t33 82t82 33zM961 1792q50 0 83 -33t33 -82t-33 -81.5t-83 -32.5q-48 0 -80.5 32.5t-32.5 81.5t32.5 82t80.5 33z" />
    <glyph glyph-name="Yacute" unicode="&#xdd;" horiz-adv-x="1374" 
d="M592 0v584l-557 850h213l436 -674l440 674h213l-559 -842v-592h-186zM1006 1763l-394 -194l-61 104l375 244z" />
    <glyph glyph-name="Thorn" unicode="&#xde;" horiz-adv-x="1345" 
d="M160 0v1434h184v-275h444q199 0 332 -127t133 -315q0 -189 -133 -316t-332 -127h-444v-274h-184zM788 987h-444v-541h444q117 0 195 78t78 193q0 117 -78 193.5t-195 76.5z" />
    <glyph glyph-name="germandbls" unicode="&#xdf;" horiz-adv-x="1204" 
d="M545 1386q-98 0 -163 -61.5t-65 -155.5v-1169h-172v1196q0 157 113 258q114 105 281 105q161 0 272 -97q109 -95 109 -233q0 -51 -18 -95t-44 -74t-51.5 -56.5t-43.5 -57.5t-18 -63q0 -34 21 -64.5t54.5 -56t73.5 -52t80.5 -60.5t74 -74.5t54.5 -101t21 -132.5
q0 -358 -520 -358v172q179 0 259.5 46t80.5 146q0 127 -133 215q-13 9 -46 31.5t-49.5 35t-44 35.5t-42.5 42t-31.5 45.5t-23.5 56t-7 63.5q0 51 18 95.5t43.5 75.5t51 59.5t43.5 60t18 64.5q0 66 -57 112.5t-139 46.5z" />
    <glyph glyph-name="agrave" unicode="&#xe0;" horiz-adv-x="1320" 
d="M614 -23q-222 0 -374 158q-150 159 -150 397q0 240 150 396q150 159 374 159q241 0 390 -174v152h172v-1065h-172v152q-150 -175 -390 -175zM633 150q155 0 260 108q106 109 106 274q0 167 -106 273q-104 110 -260 110q-153 0 -260 -110q-105 -108 -105 -273
q0 -163 105 -274q108 -108 260 -108zM795 1333l-60 -106l-395 194l82 154z" />
    <glyph glyph-name="aacute" unicode="&#xe1;" horiz-adv-x="1320" 
d="M614 -23q-222 0 -374 158q-150 159 -150 397q0 240 150 396q150 159 374 159q241 0 390 -174v152h172v-1065h-172v152q-150 -175 -390 -175zM633 150q155 0 260 108q106 109 106 274q0 167 -106 273q-104 110 -260 110q-153 0 -260 -110q-105 -108 -105 -273
q0 -163 105 -274q108 -108 260 -108zM979 1421l-395 -194l-60 106l373 242z" />
    <glyph glyph-name="acircumflex" unicode="&#xe2;" horiz-adv-x="1320" 
d="M614 -23q-222 0 -374 158q-150 159 -150 397q0 240 150 396q150 159 374 159q241 0 390 -174v152h172v-1065h-172v152q-150 -175 -390 -175zM633 150q155 0 260 108q106 109 106 274q0 167 -106 273q-104 110 -260 110q-153 0 -260 -110q-105 -108 -105 -273
q0 -163 105 -274q108 -108 260 -108zM397 1227l-71 96l327 250h13l329 -250l-73 -94l-263 168z" />
    <glyph glyph-name="atilde" unicode="&#xe3;" horiz-adv-x="1320" 
d="M614 -23q-222 0 -374 158q-150 159 -150 397q0 240 150 396q150 159 374 159q241 0 390 -174v152h172v-1065h-172v152q-150 -175 -390 -175zM633 915q-153 0 -260 -110q-105 -108 -105 -273q0 -163 105 -274q108 -108 260 -108q155 0 260 108q106 109 106 274
q0 167 -106 273q-104 110 -260 110zM481 1251h-137q0 88 60 149.5t145 61.5q62 0 123 -49q62 -47 90 -47q31 0 53.5 25t22.5 63h139q0 -90 -59 -151.5t-144 -61.5q-63 0 -125 47q-58 49 -88 49q-33 0 -56.5 -25t-23.5 -61z" />
    <glyph glyph-name="adieresis" unicode="&#xe4;" horiz-adv-x="1320" 
d="M614 1087q241 0 390 -174v152h172v-1065h-172v152q-150 -175 -390 -175q-222 0 -374 158q-150 159 -150 397q0 240 150 396q150 159 374 159zM633 150q155 0 260 108q106 109 106 274q0 167 -106 273q-104 110 -260 110q-153 0 -260 -110q-105 -108 -105 -273
q0 -163 105 -274q108 -108 260 -108zM760 1337q0 49 32 81t80 32q36 3 65.5 -18t42 -51.5t7 -66t-32.5 -59.5q-26 -26 -60.5 -31.5t-63.5 7t-49.5 41t-20.5 65.5zM334 1337q0 49 32.5 81t82.5 32t82 -32t32 -81t-32.5 -81.5t-81.5 -32.5q-50 0 -82.5 31.5t-32.5 82.5z" />
    <glyph glyph-name="aring" unicode="&#xe5;" horiz-adv-x="1320" 
d="M614 1087q241 0 390 -174v152h172v-1065h-172v152q-150 -175 -390 -175q-222 0 -374 158q-150 159 -150 397q0 240 150 396q150 159 374 159zM633 150q155 0 260 108q106 109 106 274q0 167 -106 273q-104 110 -260 110q-153 0 -260 -110q-105 -108 -105 -273
q0 -163 105 -274q108 -108 260 -108zM662 1640q88 0 153 -65q66 -66 66 -156q0 -89 -66 -155q-64 -64 -153 -64q-94 0 -158 64t-64 155q0 92 64 156q65 65 158 65zM662 1325q38 0 66 28t28 66q0 41 -29 69t-65 27t-68 -28q-27 -32 -28 -68t27 -65t69 -29z" />
    <glyph glyph-name="ae" unicode="&#xe6;" horiz-adv-x="2172" 
d="M614 -23q-222 0 -374 158q-150 159 -150 397q0 240 150 396q150 159 374 159q241 0 390 -174v152h172v-152q152 174 393 174q226 0 379 -159q153 -156 153 -396q0 -5 -4 -59h-917q18 -145 127 -240q107 -94 264 -94q200 0 315 154l168 -53q-73 -123 -196.5 -193
t-274.5 -70q-251 0 -407 179v-156h-172v152q-150 -175 -390 -175zM633 150q155 0 260 108q106 109 106 274q0 167 -106 273q-104 110 -260 110q-153 0 -260 -110q-105 -108 -105 -273q0 -163 105 -274q108 -108 260 -108zM1182 612h741q-24 140 -129 228q-104 88 -246 88
q-138 0 -239 -88q-103 -89 -127 -228z" />
    <glyph glyph-name="ccedilla" unicode="&#xe7;" horiz-adv-x="1226" 
d="M555 -176l37 156q-217 21 -361 174q-141 156 -141 378q0 238 158 396q159 159 397 159q171 0 306.5 -86t201.5 -235l-172 -51q-48 93 -137 146.5t-199 53.5q-161 0 -268 -110q-109 -109 -109 -273q0 -162 109 -274q108 -108 268 -108q110 0 199 53.5t137 146.5l172 -51
q-57 -131 -169.5 -213.5t-258.5 -101.5l-20 -93q6 -1 16 -3.5t36 -13.5t45.5 -26.5t35.5 -44.5t16 -65q0 -78 -65.5 -130t-165.5 -52q-50 0 -99.5 15.5t-77.5 35.5l-22 16l29 94q52 -55 141 -55q53 0 90 22.5t37 53.5q0 30 -38.5 52.5t-84.5 29.5z" />
    <glyph glyph-name="egrave" unicode="&#xe8;" horiz-adv-x="1261" 
d="M1184 473h-916q18 -145 127 -240q107 -94 262 -94q201 0 316 154l168 -53q-74 -123 -202 -193t-282 -70q-239 0 -405 158q-162 158 -162 397q0 238 158 396q156 159 391 159t391 -159q158 -158 158 -396q0 -5 -4 -59zM270 612h740q-24 140 -129 228q-104 88 -246 88
q-139 0 -240 -88q-101 -87 -125 -228zM717 1227l-395 194l81 154l375 -242z" />
    <glyph glyph-name="eacute" unicode="&#xe9;" horiz-adv-x="1261" 
d="M1184 473h-916q18 -145 127 -240q107 -94 262 -94q201 0 316 154l168 -53q-74 -123 -202 -193t-282 -70q-239 0 -405 158q-162 158 -162 397q0 238 158 396q156 159 391 159t391 -159q158 -158 158 -396q0 -5 -4 -59zM270 612h740q-24 140 -129 228q-104 88 -246 88
q-139 0 -240 -88q-101 -87 -125 -228zM567 1227l-61 106l375 242l82 -154z" />
    <glyph glyph-name="ecircumflex" unicode="&#xea;" horiz-adv-x="1261" 
d="M1184 473h-916q18 -145 127 -240q107 -94 262 -94q201 0 316 154l168 -53q-74 -123 -202 -193t-282 -70q-239 0 -405 158q-162 158 -162 397q0 238 158 396q156 159 391 159t391 -159q158 -158 158 -396q0 -5 -4 -59zM270 612h740q-24 140 -129 228q-104 88 -246 88
q-139 0 -240 -88q-101 -87 -125 -228zM643 1397l-262 -170l-74 96l330 250h12l328 -250l-72 -94z" />
    <glyph glyph-name="edieresis" unicode="&#xeb;" horiz-adv-x="1261" 
d="M1184 473h-916q18 -145 127 -240q107 -94 262 -94q201 0 316 154l168 -53q-74 -123 -202 -193t-282 -70q-239 0 -405 158q-162 158 -162 397q0 238 158 396q156 159 391 159t391 -159q158 -158 158 -396q0 -5 -4 -59zM270 612h740q-24 140 -129 228q-104 88 -246 88
q-139 0 -240 -88q-101 -87 -125 -228zM315 1337q0 49 32.5 81t82.5 32t82.5 -32t32.5 -81q5 -71 -55 -100t-120 0t-55 100zM741 1337q0 49 32.5 81t82.5 32t82.5 -32t32.5 -81q5 -71 -55 -100t-120 0t-55 100z" />
    <glyph glyph-name="igrave" unicode="&#xec;" horiz-adv-x="462" 
d="M317 0h-172v1065h172v-1065zM-70 1421l82 154l373 -242l-59 -104z" />
    <glyph glyph-name="iacute" unicode="&#xed;" horiz-adv-x="462" 
d="M317 0h-172v1065h172v-1065zM76 1333l373 242l81 -154l-395 -192z" />
    <glyph glyph-name="icircumflex" unicode="&#xee;" horiz-adv-x="462" 
d="M317 0h-172v1065h172v-1065zM-31 1227l-73 96l329 250h13l329 -250l-73 -94l-263 168z" />
    <glyph glyph-name="idieresis" unicode="&#xef;" horiz-adv-x="462" 
d="M317 0h-172v1065h172v-1065zM-76 1337q0 49 32.5 81t82.5 32t82.5 -32t32.5 -81t-32.5 -81.5t-82.5 -32.5t-82.5 31.5t-32.5 82.5zM309 1337q0 49 32.5 81t82.5 32t82.5 -32t32.5 -81q5 -71 -55 -100t-120 0t-55 100z" />
    <glyph glyph-name="eth" unicode="&#xf0;" horiz-adv-x="1292" 
d="M645 1087q177 0 320 -94q-94 265 -347 348l-110 -176l-113 72l86 135q-88 14 -219 14v173q173 0 318 -29l102 162l113 -74l-80 -127q245 -92 366 -324.5t121 -634.5q0 -237 -160 -397q-161 -158 -397 -158t-397 158q-158 161 -158 397q0 238 158 396q159 159 397 159z
M645 150q162 0 270 108q109 112 109 274q0 164 -109 273q-107 110 -270 110q-161 0 -268 -110q-109 -109 -109 -273q0 -162 109 -274q108 -108 268 -108z" />
    <glyph glyph-name="ntilde" unicode="&#xf1;" 
d="M317 0h-172v1065h172v-178q126 200 379 200q185 0 305 -120q123 -120 123 -303v-664h-172v618q0 130 -88 218q-85 88 -215 88q-139 0 -235 -90q-97 -91 -97 -220v-614zM463 1251h-137q0 88 59.5 149.5t144.5 61.5q62 0 123 -49q62 -47 90 -47q31 0 53.5 25t22.5 63h139
q0 -90 -58.5 -151.5t-143.5 -61.5q-63 0 -125 47q-58 49 -88 49q-33 0 -56.5 -25t-23.5 -61z" />
    <glyph glyph-name="ograve" unicode="&#xf2;" horiz-adv-x="1292" 
d="M248 135q-158 161 -158 397q0 238 158 396q159 159 397 159t397 -159q160 -157 160 -396q0 -237 -160 -397q-161 -158 -397 -158t-397 158zM645 150q162 0 270 108q109 112 109 274q0 164 -109 273q-107 110 -270 110q-161 0 -268 -110q-109 -109 -109 -273
q0 -162 109 -274q108 -108 268 -108zM719 1227l-393 194l80 154l374 -242z" />
    <glyph glyph-name="oacute" unicode="&#xf3;" horiz-adv-x="1292" 
d="M248 135q-158 161 -158 397q0 238 158 396q159 159 397 159t397 -159q160 -157 160 -396q0 -237 -160 -397q-161 -158 -397 -158t-397 158zM645 150q162 0 270 108q109 112 109 274q0 164 -109 273q-107 110 -270 110q-161 0 -268 -110q-109 -109 -109 -273
q0 -162 109 -274q108 -108 268 -108zM569 1227l-59 106l373 242l82 -154z" />
    <glyph glyph-name="ocircumflex" unicode="&#xf4;" horiz-adv-x="1292" 
d="M248 135q-158 161 -158 397q0 238 158 396q159 159 397 159t397 -159q160 -157 160 -396q0 -237 -160 -397q-161 -158 -397 -158t-397 158zM645 150q162 0 270 108q109 112 109 274q0 164 -109 273q-107 110 -270 110q-161 0 -268 -110q-109 -109 -109 -273
q0 -162 109 -274q108 -108 268 -108zM645 1397l-262 -170l-74 96l330 250h12l330 -250l-74 -94z" />
    <glyph glyph-name="otilde" unicode="&#xf5;" horiz-adv-x="1292" 
d="M248 135q-158 161 -158 397q0 238 158 396q159 159 397 159t397 -159q160 -157 160 -396q0 -237 -160 -397q-161 -158 -397 -158t-397 158zM645 150q162 0 270 108q109 112 109 274q0 164 -109 273q-107 110 -270 110q-161 0 -268 -110q-109 -109 -109 -273
q0 -162 109 -274q108 -108 268 -108zM467 1251h-137q0 88 60 149.5t145 61.5q62 0 120 -49q62 -47 90 -47q33 0 55.5 25t22.5 63h138q0 -90 -59 -151.5t-144 -61.5q-64 0 -123 47q-58 49 -88 49q-33 0 -56.5 -25t-23.5 -61z" />
    <glyph glyph-name="odieresis" unicode="&#xf6;" horiz-adv-x="1292" 
d="M248 135q-158 161 -158 397q0 238 158 396q159 159 397 159t397 -159q160 -157 160 -396q0 -237 -160 -397q-161 -158 -397 -158t-397 158zM645 150q162 0 270 108q109 112 109 274q0 164 -109 273q-107 110 -270 110q-161 0 -268 -110q-109 -109 -109 -273
q0 -162 109 -274q108 -108 268 -108zM317 1337q0 49 33 81t84 32q48 0 80.5 -32t32.5 -81q0 -51 -31.5 -82.5t-81.5 -31.5q-51 0 -84 31.5t-33 82.5zM743 1337q0 49 32.5 81t82.5 32t82.5 -32t32.5 -81q5 -71 -55 -100t-120 0t-55 100z" />
    <glyph glyph-name="divide" unicode="&#xf7;" horiz-adv-x="1228" 
d="M137 637v160h955v-160h-955zM526 238q-35 37 -35 90t35 88t88 35t88 -35t35 -88t-35 -90q-35 -35 -88 -35t-88 35zM492 1108q0 52 34.5 87.5t87.5 35.5t88 -35.5t35 -87.5q0 -54 -34.5 -89.5t-88.5 -35.5t-88 35.5t-34 89.5z" />
    <glyph glyph-name="oslash" unicode="&#xf8;" horiz-adv-x="1292" 
d="M645 1087q143 0 258 -59l43 59l119 -81l-41 -60q178 -156 178 -414q0 -237 -160 -397q-161 -158 -397 -158q-141 0 -258 60l-41 -60l-119 82l41 62q-178 156 -178 411q0 238 158 396q159 159 397 159zM918 797l-429 -613q72 -34 156 -34q162 0 270 108q109 112 109 274
q0 159 -106 265zM373 270l428 611q-72 34 -156 34q-161 0 -268 -110q-109 -109 -109 -273q0 -157 105 -262z" />
    <glyph glyph-name="ugrave" unicode="&#xf9;" 
d="M571 -23q-185 0 -309 121q-121 121 -121 303v664h172v-619q0 -128 86 -217q88 -88 219 -88q140 0 234 88q96 90 96 222v614h172v-1065h-172v176q-120 -199 -377 -199zM766 1333l-59 -106l-396 194l82 154z" />
    <glyph glyph-name="uacute" unicode="&#xfa;" 
d="M141 401v664h172v-619q0 -128 86 -217q88 -88 219 -88q140 0 234 88q96 90 96 222v614h172v-1065h-172v176q-120 -199 -377 -199q-185 0 -309 121q-121 121 -121 303zM950 1421l-393 -194l-61 106l374 242z" />
    <glyph glyph-name="ucircumflex" unicode="&#xfb;" 
d="M141 401v664h172v-619q0 -128 86 -217q88 -88 219 -88q140 0 234 88q96 90 96 222v614h172v-1065h-172v176q-120 -199 -377 -199q-185 0 -309 121q-121 121 -121 303zM631 1397l-260 -170l-74 96l330 250h10l330 -250l-74 -94z" />
    <glyph glyph-name="udieresis" unicode="&#xfc;" 
d="M141 401v664h172v-619q0 -128 86 -217q88 -88 219 -88q140 0 234 88q96 90 96 222v614h172v-1065h-172v176q-120 -199 -377 -199q-185 0 -309 121q-121 121 -121 303zM731 1337q0 49 32.5 81t80.5 32q36 3 65.5 -18t42 -51.5t7 -66t-32.5 -59.5q-26 -26 -60.5 -31.5
t-64 7t-50 41t-20.5 65.5zM305 1337q0 49 32.5 81t82.5 32t82.5 -32t32.5 -81t-32.5 -81.5t-82.5 -32.5t-82.5 31.5t-32.5 82.5z" />
    <glyph glyph-name="yacute" unicode="&#xfd;" horiz-adv-x="1089" 
d="M453 31l-424 1034h178l334 -827l344 827h178l-524 -1247q-60 -146 -153 -212.5t-236 -66.5h-50v166h50q168 0 239 170zM864 1421l-395 -194l-61 106l374 242z" />
    <glyph glyph-name="thorn" unicode="&#xfe;" horiz-adv-x="1320" 
d="M317 -461h-172v1997h172v-623q149 174 388 174q224 0 374 -159q152 -158 152 -396q0 -236 -152 -397q-152 -158 -374 -158q-238 0 -388 175v-613zM686 915q-153 0 -260 -110q-104 -107 -104 -273q0 -164 104 -274q108 -108 260 -108q155 0 260 108q107 110 107 274
q0 166 -107 273q-104 110 -260 110z" />
    <glyph glyph-name="ydieresis" unicode="&#xff;" horiz-adv-x="1089" 
d="M453 31l-424 1034h178l334 -827l344 827h178l-524 -1247q-60 -146 -153 -212.5t-236 -66.5h-50v166h50q168 0 239 170zM643 1337q0 49 32.5 81t82.5 32t82 -32t32 -81q5 -71 -54.5 -100t-119.5 0t-55 100zM217 1337q0 49 32.5 81t82.5 32t82 -32t32 -81q5 -71 -54.5 -100
t-119.5 0t-55 100z" />
    <glyph glyph-name="Amacron" unicode="&#x100;" horiz-adv-x="1476" 
d="M229 0h-194l629 1434h149l629 -1434h-195l-139 322h-739zM1032 494l-293 675l-295 -675h588zM442 1618v147h592v-147h-592z" />
    <glyph glyph-name="amacron" unicode="&#x101;" horiz-adv-x="1320" 
d="M614 1087q241 0 390 -174v152h172v-1065h-172v152q-150 -175 -390 -175q-222 0 -374 158q-150 159 -150 397q0 240 150 396q150 159 374 159zM633 915q-153 0 -260 -110q-105 -108 -105 -273q0 -163 105 -274q108 -108 260 -108q155 0 260 108q106 109 106 274
q0 167 -106 273q-104 110 -260 110zM956 1423v-145h-589v145h589z" />
    <glyph glyph-name="Abreve" unicode="&#x102;" horiz-adv-x="1476" 
d="M369 322l-140 -322h-194l629 1434h149l629 -1434h-195l-139 322h-739zM1032 494l-293 675l-295 -675h588zM434 1845h139q0 -75 47 -125.5t119 -50.5t118 50t46 126h139q0 -129 -86 -215t-217 -86q-130 0 -219 86q-86 86 -86 215z" />
    <glyph glyph-name="abreve" unicode="&#x103;" horiz-adv-x="1320" 
d="M614 -23q-222 0 -374 158q-150 159 -150 397q0 240 150 396q150 159 374 159q241 0 390 -174v152h172v-1065h-172v152q-150 -175 -390 -175zM633 150q155 0 260 108q106 109 106 274q0 167 -106 273q-104 110 -260 110q-153 0 -260 -110q-105 -108 -105 -273
q0 -163 105 -274q108 -108 260 -108zM356 1505h140q0 -75 47 -125.5t119 -50.5q71 0 117 50t46 126h140q0 -131 -86 -217t-217 -86t-220 86q-86 86 -86 217z" />
    <glyph glyph-name="Aogonek" unicode="&#x104;" horiz-adv-x="1476" 
d="M229 0h-194l629 1434h149l629 -1434h-23l-37 -31q-20 -21 -55 -73q-35 -56 -35 -103q0 -41 24.5 -64.5t63.5 -23.5q27 0 56 13t45 28l14 14l61 -75l-28 -27q-15 -18 -74 -45q-60 -29 -111 -29q-79 0 -132.5 50.5t-53.5 125.5q0 53 30 114t66 95l33 31h-39l-139 322h-739z
M1032 494l-293 675l-295 -675h588z" />
    <glyph glyph-name="aogonek" unicode="&#x105;" horiz-adv-x="1320" 
d="M614 -23q-222 0 -374 158q-150 159 -150 397q0 240 150 396q150 159 374 159q241 0 390 -174v152h172v-1065h-21l-35 -31q-21 -21 -55 -73q-35 -56 -35 -103q0 -40 24 -64t62 -24q27 0 56 13t45 28l14 14l63 -75l-28 -27q-15 -18 -74 -45q-60 -29 -111 -29
q-80 0 -134 50.5t-54 125.5q0 53 31 112.5t67 94.5l31 33h-18v152q-150 -175 -390 -175zM633 150q155 0 260 108q106 109 106 274q0 167 -106 273q-104 110 -260 110q-153 0 -260 -110q-105 -108 -105 -273q0 -163 105 -274q108 -108 260 -108z" />
    <glyph glyph-name="Cacute" unicode="&#x106;" horiz-adv-x="1589" 
d="M844 1456q209 0 380 -99.5t269 -273.5l-180 -67q-73 123 -195.5 192.5t-273.5 69.5q-236 0 -391 -162q-158 -161 -158 -399q0 -236 158 -402q156 -159 391 -159q151 0 273.5 69.5t195.5 192.5l180 -68q-98 -174 -269 -273.5t-380 -99.5q-318 0 -529 211t-211 529
q0 315 211 526q213 213 529 213zM758 1569l-60 104l373 244l82 -154z" />
    <glyph glyph-name="cacute" unicode="&#x107;" horiz-adv-x="1226" 
d="M1153 766l-172 -51q-48 93 -137 146.5t-199 53.5q-161 0 -268 -110q-109 -109 -109 -273q0 -162 109 -274q108 -108 268 -108q110 0 199 53.5t137 146.5l172 -51q-66 -149 -201.5 -235.5t-306.5 -86.5q-236 0 -397 158q-158 161 -158 397q0 238 158 396q159 159 397 159
q171 0 306.5 -86t201.5 -235zM573 1227l-59 106l373 242l82 -154z" />
    <glyph glyph-name="Ccircumflex" unicode="&#x108;" horiz-adv-x="1589" 
d="M844 1456q209 0 380 -99.5t269 -273.5l-180 -67q-73 123 -195.5 192.5t-273.5 69.5q-236 0 -391 -162q-158 -161 -158 -399q0 -236 158 -402q156 -159 391 -159q151 0 273.5 69.5t195.5 192.5l180 -68q-98 -174 -269 -273.5t-380 -99.5q-318 0 -529 211t-211 529
q0 315 211 526q213 213 529 213zM834 1739l-263 -172l-73 98l329 250h13l329 -250l-73 -96z" />
    <glyph glyph-name="ccircumflex" unicode="&#x109;" horiz-adv-x="1226" 
d="M1153 766l-172 -51q-48 93 -137 146.5t-199 53.5q-161 0 -268 -110q-109 -109 -109 -273q0 -162 109 -274q108 -108 268 -108q110 0 199 53.5t137 146.5l172 -51q-66 -149 -201.5 -235.5t-306.5 -86.5q-236 0 -397 158q-158 161 -158 397q0 238 158 396q159 159 397 159
q171 0 306.5 -86t201.5 -235zM649 1397l-262 -170l-74 96l330 250h12l330 -250l-74 -94z" />
    <glyph glyph-name="Cdotaccent" unicode="&#x10a;" horiz-adv-x="1589" 
d="M844 1456q209 0 380 -99.5t269 -273.5l-180 -67q-73 123 -195.5 192.5t-273.5 69.5q-236 0 -391 -162q-158 -161 -158 -399q0 -236 158 -402q156 -159 391 -159q151 0 273.5 69.5t195.5 192.5l180 -68q-98 -174 -269 -273.5t-380 -99.5q-318 0 -529 211t-211 529
q0 315 211 526q213 213 529 213zM954 1683q0 -51 -34.5 -84.5t-85.5 -33.5t-85 33.5t-34 84.5t34 86t85 35q52 0 86 -34t34 -87z" />
    <glyph glyph-name="cdotaccent" unicode="&#x10b;" horiz-adv-x="1226" 
d="M1153 766l-172 -51q-48 93 -137 146.5t-199 53.5q-161 0 -268 -110q-109 -109 -109 -273q0 -162 109 -274q108 -108 268 -108q110 0 199 53.5t137 146.5l172 -51q-66 -149 -201.5 -235.5t-306.5 -86.5q-236 0 -397 158q-158 161 -158 397q0 238 158 396q159 159 397 159
q171 0 306.5 -86t201.5 -235zM649 1225q-51 0 -85 33.5t-34 84.5t34 85t85 34t86 -34t35 -85t-33.5 -84.5t-87.5 -33.5z" />
    <glyph glyph-name="Ccaron" unicode="&#x10c;" horiz-adv-x="1589" 
d="M844 1456q209 0 380 -99.5t269 -273.5l-180 -67q-73 123 -195.5 192.5t-273.5 69.5q-236 0 -391 -162q-158 -161 -158 -399q0 -236 158 -402q156 -159 391 -159q151 0 273.5 69.5t195.5 192.5l180 -68q-98 -174 -269 -273.5t-380 -99.5q-318 0 -529 211t-211 529
q0 315 211 526q213 213 529 213zM834 1745l262 168l73 -94l-329 -250h-13l-329 250l73 96z" />
    <glyph glyph-name="ccaron" unicode="&#x10d;" horiz-adv-x="1226" 
d="M1153 766l-172 -51q-48 93 -137 146.5t-199 53.5q-161 0 -268 -110q-109 -109 -109 -273q0 -162 109 -274q108 -108 268 -108q110 0 199 53.5t137 146.5l172 -51q-66 -149 -201.5 -235.5t-306.5 -86.5q-236 0 -397 158q-158 161 -158 397q0 238 158 396q159 159 397 159
q171 0 306.5 -86t201.5 -235zM649 1403l262 170l74 -96l-330 -250h-12l-330 250l74 98z" />
    <glyph glyph-name="Dcaron" unicode="&#x10e;" horiz-adv-x="1570" 
d="M727 0h-567v1434h567q313 0 526 -207t213 -510t-213 -510t-526 -207zM727 1262h-383v-1090h383q231 0 389 158t158 387t-158 387t-389 158zM530 1569l-327 250l71 96l263 -170l262 168l73 -94l-329 -250h-13z" />
    <glyph glyph-name="dcaron" unicode="&#x10f;" horiz-adv-x="1550" 
d="M614 1087q121 0 224 -52t166 -144v645h172v-1536h-172v174q-63 -93 -166 -145t-224 -52q-222 0 -374 158q-150 159 -150 397q0 240 150 396q150 159 374 159zM635 150q157 0 262 108q107 110 107 274q0 166 -107 273q-104 110 -262 110q-155 0 -262 -110
q-105 -108 -105 -273q0 -163 105 -274q108 -108 262 -108zM1315 1460q0 42 29 70.5t73 28.5q50 0 81.5 -37.5t31.5 -98.5q0 -37 -13 -72.5t-30.5 -60t-42 -47.5t-39.5 -34t-31 -21l-10 -6l-45 49l24 20q18 16 39.5 50t20.5 57q-37 5 -62.5 34.5t-25.5 67.5z" />
    <glyph glyph-name="Dcroat" unicode="&#x110;" horiz-adv-x="1597" 
d="M20 637v160h166v637h566q315 0 528 -207t213 -510t-213 -510t-528 -207h-566v637h-166zM371 1262v-465h430v-160h-430v-465h381q233 0 391 158q157 157 157 387t-157 387q-158 158 -391 158h-381z" />
    <glyph glyph-name="dslash" unicode="&#x111;" horiz-adv-x="1320" 
d="M614 1087q241 0 390 -174v304h-402v133h402v186h172v-186h122v-133h-122v-1217h-172v152q-150 -175 -390 -175q-222 0 -374 158q-150 159 -150 397q0 240 150 396q150 159 374 159zM633 915q-153 0 -260 -110q-105 -108 -105 -273q0 -163 105 -274q108 -108 260 -108
q155 0 260 108q106 109 106 274q0 167 -106 273q-104 110 -260 110z" />
    <glyph glyph-name="Emacron" unicode="&#x112;" horiz-adv-x="1282" 
d="M160 1434h1032v-172h-848v-451h743v-172h-743v-467h858v-172h-1042v1434zM371 1618v147h592v-147h-592z" />
    <glyph glyph-name="emacron" unicode="&#x113;" horiz-adv-x="1261" 
d="M1184 473h-916q18 -145 127 -240q107 -94 262 -94q201 0 316 154l168 -53q-74 -123 -202 -193t-282 -70q-239 0 -405 158q-162 158 -162 397q0 238 158 396q156 159 391 159t391 -159q158 -158 158 -396q0 -5 -4 -59zM270 612h740q-24 140 -129 228q-104 88 -246 88
q-139 0 -240 -88q-101 -87 -125 -228zM938 1278h-590v145h590v-145z" />
    <glyph glyph-name="Ebreve" unicode="&#x114;" horiz-adv-x="1282" 
d="M160 1434h1032v-172h-848v-451h743v-172h-743v-467h858v-172h-1042v1434zM362 1845h140q0 -75 47 -125.5t119 -50.5q71 0 117 50t46 126h140q0 -130 -88 -215q-86 -86 -217 -86t-217 86q-87 87 -87 215z" />
    <glyph glyph-name="ebreve" unicode="&#x115;" horiz-adv-x="1261" 
d="M1184 473h-916q18 -145 127 -240q107 -94 262 -94q201 0 316 154l168 -53q-74 -123 -202 -193t-282 -70q-239 0 -405 158q-162 158 -162 397q0 238 158 396q156 159 391 159t391 -159q158 -158 158 -396q0 -5 -4 -59zM270 612h740q-24 140 -129 228q-104 88 -246 88
q-139 0 -240 -88q-101 -87 -125 -228zM338 1505h139q0 -75 48 -125.5t120 -50.5q69 0 116.5 50.5t47.5 125.5h139q0 -132 -88 -217q-86 -86 -217 -86q-130 0 -219 86q-86 86 -86 217z" />
    <glyph glyph-name="Edotaccent" unicode="&#x116;" horiz-adv-x="1282" 
d="M160 1434h1032v-172h-848v-451h743v-172h-743v-467h858v-172h-1042v1434zM786 1683q0 -51 -34.5 -84.5t-85.5 -33.5t-85 33.5t-34 84.5t34 86t85 35q52 0 86 -34t34 -87z" />
    <glyph glyph-name="edotaccent" unicode="&#x117;" horiz-adv-x="1261" 
d="M1184 473h-916q18 -145 127 -240q107 -94 262 -94q201 0 316 154l168 -53q-74 -123 -202 -193t-282 -70q-239 0 -405 158q-162 158 -162 397q0 238 158 396q156 159 391 159t391 -159q158 -158 158 -396q0 -5 -4 -59zM270 612h740q-24 140 -129 228q-104 88 -246 88
q-139 0 -240 -88q-101 -87 -125 -228zM557 1257q-32 35 -32 86.5t32 83.5q35 35 86.5 35t83.5 -35q35 -32 35 -83.5t-35 -86.5q-32 -32 -83.5 -32t-86.5 32z" />
    <glyph glyph-name="Eogonek" unicode="&#x118;" horiz-adv-x="1282" 
d="M1006 0h-846v1434h1032v-172h-848v-451h743v-172h-743v-467h858v-172h-63l-35 -31q-21 -21 -55 -73q-35 -56 -35 -103q0 -40 24 -64t62 -24q26 0 54.5 13t45.5 28l14 14l64 -75l-29 -27q-15 -18 -73 -45q-60 -29 -111 -29q-80 0 -134 50.5t-54 125.5q0 53 31 112.5
t67 94.5z" />
    <glyph glyph-name="eogonek" unicode="&#x119;" horiz-adv-x="1261" 
d="M629 -23q-231 9 -387 168q-152 158 -152 387q0 238 158 396q156 159 391 159t391 -159q158 -158 158 -396q0 -5 -4 -59h-916q18 -145 127 -240q107 -94 262 -94q201 0 316 154l168 -53q-123 -206 -371 -252q-111 -105 -111 -195q0 -40 24 -64t62 -24q27 0 56 13t45 28
l14 14l62 -75l-29 -27q-15 -18 -74 -45q-60 -29 -110 -29q-80 0 -133.5 50.5t-53.5 125.5q0 110 107 217zM270 612h740q-24 140 -129 228q-104 88 -246 88q-139 0 -240 -88q-101 -87 -125 -228z" />
    <glyph glyph-name="Ecaron" unicode="&#x11a;" horiz-adv-x="1282" 
d="M160 1434h1032v-172h-848v-451h743v-172h-743v-467h858v-172h-1042v1434zM659 1569l-329 250l73 96l263 -170l262 168l73 -94l-329 -250h-13z" />
    <glyph glyph-name="ecaron" unicode="&#x11b;" horiz-adv-x="1261" 
d="M1184 473h-916q18 -145 127 -240q107 -94 262 -94q201 0 316 154l168 -53q-74 -123 -202 -193t-282 -70q-239 0 -405 158q-162 158 -162 397q0 238 158 396q156 159 391 159t391 -159q158 -158 158 -396q0 -5 -4 -59zM270 612h740q-24 140 -129 228q-104 88 -246 88
q-139 0 -240 -88q-101 -87 -125 -228zM643 1403l262 170l72 -96l-328 -250h-12l-330 250l74 98z" />
    <glyph glyph-name="Gcircumflex" unicode="&#x11c;" horiz-adv-x="1677" 
d="M104 717q0 316 215 528q214 211 537 211q213 0 386 -99.5t271 -273.5l-180 -67q-73 122 -198.5 192t-278.5 70q-237 0 -399 -162q-162 -158 -162 -399q0 -239 156 -402q156 -159 383 -159q196 0 346 120q149 122 184 314h-569v172h776q4 -50 4 -62q-6 -308 -217 -516
q-213 -207 -518 -207q-314 0 -525 211t-211 529zM834 1739l-263 -172l-73 98l329 250h13l329 -250l-73 -96z" />
    <glyph glyph-name="gcircumflex" unicode="&#x11d;" horiz-adv-x="1320" 
d="M614 1087q241 0 390 -174v152h172v-1020q0 -227 -156 -377q-157 -151 -383 -151q-157 0 -293 77q-132 77 -194 197l172 55q43 -70 127.5 -113.5t181.5 -43.5q158 0 266 102q110 104 107 254v107q-150 -175 -390 -175q-222 0 -374 158q-150 159 -150 397q0 240 150 396
q150 159 374 159zM633 150q155 0 260 108q106 109 106 274q0 167 -106 273q-104 110 -260 110q-153 0 -260 -110q-105 -108 -105 -273q0 -163 105 -274q108 -108 260 -108zM381 1227l-72 96l328 250h12l330 -250l-74 -94l-262 168z" />
    <glyph glyph-name="Gbreve" unicode="&#x11e;" horiz-adv-x="1677" 
d="M104 717q0 316 215 528q214 211 537 211q213 0 386 -99.5t271 -273.5l-180 -67q-73 122 -198.5 192t-278.5 70q-237 0 -399 -162q-162 -158 -162 -399q0 -239 156 -402q156 -159 383 -159q196 0 346 120q149 122 184 314h-569v172h776q4 -50 4 -62q-6 -308 -217 -516
q-213 -207 -518 -207q-314 0 -525 211t-211 529zM530 1845h140q0 -75 47 -125.5t119 -50.5q71 0 117 50t46 126h140q0 -130 -88 -215q-86 -86 -217 -86q-132 0 -218 86t-86 215z" />
    <glyph glyph-name="gbreve" unicode="&#x11f;" horiz-adv-x="1320" 
d="M614 -23q-222 0 -374 158q-150 159 -150 397q0 240 150 396q150 159 374 159q241 0 390 -174v152h172v-1020q0 -227 -156 -377q-157 -151 -383 -151q-157 0 -293 77q-132 77 -194 197l172 55q43 -70 127.5 -113.5t181.5 -43.5q158 0 266 102q110 104 107 254v107
q-150 -175 -390 -175zM633 915q-153 0 -260 -110q-105 -108 -105 -273q0 -163 105 -274q108 -108 260 -108q155 0 260 108q106 109 106 274q0 167 -106 273q-104 110 -260 110zM340 1505h139q0 -75 47 -125.5t119 -50.5t118 50t46 126h139q0 -131 -86 -217t-217 -86
q-130 0 -219 86q-86 86 -86 217z" />
    <glyph glyph-name="Gdotaccent" unicode="&#x120;" horiz-adv-x="1677" 
d="M104 717q0 316 215 528q214 211 537 211q213 0 386 -99.5t271 -273.5l-180 -67q-73 122 -198.5 192t-278.5 70q-237 0 -399 -162q-162 -158 -162 -399q0 -239 156 -402q156 -159 383 -159q196 0 346 120q149 122 184 314h-569v172h776q4 -50 4 -62q-6 -308 -217 -516
q-213 -207 -518 -207q-314 0 -525 211t-211 529zM954 1683q0 -51 -34.5 -84.5t-85.5 -33.5t-85 33.5t-34 84.5t34 86t85 35q52 0 86 -34t34 -87z" />
    <glyph glyph-name="gdotaccent" unicode="&#x121;" horiz-adv-x="1320" 
d="M614 -23q-222 0 -374 158q-150 159 -150 397q0 240 150 396q150 159 374 159q241 0 390 -174v152h172v-1020q0 -227 -156 -377q-157 -151 -383 -151q-157 0 -293 77q-132 77 -194 197l172 55q43 -70 127.5 -113.5t181.5 -43.5q158 0 266 102q110 104 107 254v107
q-150 -175 -390 -175zM633 150q155 0 260 108q106 109 106 274q0 167 -106 273q-104 110 -260 110q-153 0 -260 -110q-105 -108 -105 -273q0 -163 105 -274q108 -108 260 -108zM645 1225q-54 0 -87.5 33.5t-33.5 84.5t35 85t86 34t85 -34t34 -85t-34 -84.5t-85 -33.5z" />
    <glyph glyph-name="uni0122" unicode="&#x122;" horiz-adv-x="1677" 
d="M104 717q0 316 215 528q214 211 537 211q213 0 386 -99.5t271 -273.5l-180 -67q-73 122 -198.5 192t-278.5 70q-237 0 -399 -162q-162 -158 -162 -399q0 -239 156 -402q156 -159 383 -159q196 0 346 120q149 122 184 314h-569v172h776q4 -50 4 -62q-6 -308 -217 -516
q-213 -207 -518 -207q-314 0 -525 211t-211 529zM977 -256q0 -46 -18 -88t-47.5 -72.5t-49.5 -46.5t-41 -29l-10 -6l-45 49l25 21q18 16 39 49.5t20 56.5q-37 5 -63.5 35t-26.5 68q0 41 30 69.5t74 28.5q50 0 81.5 -37t31.5 -98z" />
    <glyph glyph-name="uni0123" unicode="&#x123;" horiz-adv-x="1320" 
d="M614 -23q-222 0 -374 158q-150 159 -150 397q0 240 150 396q150 159 374 159q241 0 390 -174v152h172v-1020q0 -227 -156 -377q-157 -151 -383 -151q-157 0 -293 77q-132 77 -194 197l172 55q43 -70 127.5 -113.5t181.5 -43.5q158 0 266 102q107 101 107 254v107
q-150 -175 -390 -175zM633 915q-153 0 -260 -110q-105 -108 -105 -273q0 -163 105 -274q108 -108 260 -108q155 0 260 108q106 109 106 274q0 167 -106 273q-104 110 -260 110zM532 1335q0 46 18 88t47 72t49.5 46.5t41.5 29.5l10 6l45 -49l-24 -21q-18 -16 -39.5 -49.5
t-20.5 -56.5q37 -5 63 -35t26 -68q0 -41 -29.5 -69.5t-73.5 -28.5q-50 0 -81.5 37t-31.5 98z" />
    <glyph glyph-name="Hcircumflex" unicode="&#x124;" horiz-adv-x="1540" 
d="M344 0h-184v1434h184v-623h850v623h186v-1434h-186v639h-850v-639zM508 1567l-74 98l330 250h10l330 -250l-74 -96l-262 170z" />
    <glyph glyph-name="hcircumflex" unicode="&#x125;" horiz-adv-x="1271" 
d="M317 614v-614h-172v1536h172v-649q126 200 381 200q187 0 310 -120q122 -119 122 -303v-664h-172v618q0 130 -88 218t-219 88q-141 0 -237 -90q-97 -91 -97 -220zM233 1827l-262 -170l-73 96l329 250h13l327 -250l-71 -94z" />
    <glyph glyph-name="Hbar" unicode="&#x126;" horiz-adv-x="1564" 
d="M1380 1434v-232h164v-160h-164v-1042h-186v639h-850v-639h-184v1042h-140v160h140v232h184v-232h850v232h186zM1194 811v231h-850v-231h850z" />
    <glyph glyph-name="hbar" unicode="&#x127;" horiz-adv-x="1271" 
d="M317 1536v-186h400v-133h-400v-330q126 200 381 200q187 0 310 -120q122 -119 122 -303v-664h-172v618q0 130 -88 218t-219 88q-141 0 -237 -90q-97 -91 -97 -220v-614h-172v1217h-125v133h125v186h172z" />
    <glyph glyph-name="Itilde" unicode="&#x128;" horiz-adv-x="503" 
d="M344 0h-184v1434h184v-1434zM74 1591h-140q0 88 62 150q60 63 145 63q63 0 121 -49q62 -47 90 -47q33 0 55.5 24t22.5 62h137q0 -91 -58 -151t-144 -60q-64 0 -123 47q-58 49 -88 49q-33 0 -56.5 -26t-23.5 -62z" />
    <glyph glyph-name="itilde" unicode="&#x129;" horiz-adv-x="475" 
d="M324 0h-172v1065h172v-1065zM59 1251h-139q0 88 62 150q61 61 145 61q63 0 121 -49q62 -47 90 -47q33 0 55.5 25t22.5 63h137q0 -90 -59 -151.5t-144 -61.5q-64 0 -123 47q-58 49 -88 49q-33 0 -56.5 -25t-23.5 -61z" />
    <glyph glyph-name="Imacron" unicode="&#x12a;" horiz-adv-x="503" 
d="M344 0h-184v1434h184v-1434zM547 1618h-590v147h590v-147z" />
    <glyph glyph-name="imacron" unicode="&#x12b;" horiz-adv-x="462" 
d="M317 0h-172v1065h172v-1065zM-63 1278v145h589v-145h-589z" />
    <glyph glyph-name="Ibreve" unicode="&#x12c;" horiz-adv-x="503" 
d="M344 0h-184v1434h184v-1434zM-53 1845h141q0 -75 47 -125.5t119 -50.5q69 0 116.5 50.5t47.5 125.5h139q0 -130 -88 -215q-86 -86 -217 -86q-130 0 -219 86q-86 86 -86 215z" />
    <glyph glyph-name="ibreve" unicode="&#x12d;" horiz-adv-x="462" 
d="M317 0h-172v1065h172v-1065zM-74 1505h142q0 -75 46.5 -125.5t118.5 -50.5q69 0 116.5 50.5t47.5 125.5h140q0 -132 -88 -217q-86 -86 -218 -86q-130 0 -219 86q-86 86 -86 217z" />
    <glyph glyph-name="Iogonek" unicode="&#x12e;" horiz-adv-x="503" 
d="M66 -240q0 53 30 113t66 94l33 33h-35v1434h184v-1434h-16l-35 -31q-20 -21 -55 -73q-35 -56 -35 -103q0 -36 21.5 -59.5t54.5 -28.5q72 0 124 55l64 -75l-29 -27q-15 -18 -73 -45q-60 -29 -111 -29q-80 0 -134 50.5t-54 125.5z" />
    <glyph glyph-name="iogonek" unicode="&#x12f;" horiz-adv-x="462" 
d="M236 -416q-81 0 -135 50.5t-54 125.5q0 53 30 113t66 94l33 33h-31v1065h172v-1065h-8l-35 -31q-20 -21 -55 -73q-35 -56 -35 -103q0 -40 24 -64t62 -24q27 0 56 13t45 28l14 14l64 -75l-29 -27q-15 -18 -74 -45q-60 -29 -110 -29zM231 1206q-51 0 -84.5 34t-33.5 85
t33.5 85t84.5 34q48 0 81.5 -29t39.5 -76q0 -58 -32.5 -95.5t-88.5 -37.5z" />
    <glyph glyph-name="Idot" unicode="&#x130;" horiz-adv-x="503" 
d="M344 0h-184v1434h184v-1434zM166 1597q-32 35 -32 86t32 86q35 35 86 35t86 -35t35 -86t-35 -86q-35 -32 -86 -32t-86 32z" />
    <glyph glyph-name="dotlessi" unicode="&#x131;" horiz-adv-x="462" 
d="M317 0h-172v1065h172v-1065z" />
    <glyph glyph-name="IJ" unicode="&#x132;" horiz-adv-x="1722" 
d="M344 0h-184v1434h184v-1434zM1575 1434v-920q0 -228 -158 -383q-157 -154 -393 -154q-148 0 -271 65t-196 179l154 101q48 -80 131.5 -126t185.5 -46q158 0 262 104q107 104 107 260v920h178z" />
    <glyph glyph-name="ij" unicode="&#x133;" horiz-adv-x="942" 
d="M317 0h-172v1065h172v-1065zM145 1239q-32 35 -32 86.5t32 83.5q35 35 86 35t86 -35q35 -32 35 -83.5t-35 -86.5q-35 -32 -86 -32t-86 32zM625 1065h172v-1212q0 -134 -90 -224t-224 -90h-86v166h74q66 0 110 48t44 120v1192zM625 1239q-32 35 -32 86.5t32 83.5
q35 35 86.5 35t83.5 -35q35 -32 35 -83.5t-35 -86.5q-32 -32 -83.5 -32t-86.5 32z" />
    <glyph glyph-name="Jcircumflex" unicode="&#x134;" horiz-adv-x="1218" 
d="M1071 1434v-920q0 -228 -158 -383q-157 -154 -393 -154q-148 0 -271 65t-196 179l154 101q48 -80 130.5 -126t184.5 -46q157 0 264 104t107 260v920h178zM975 1739l-262 -172l-72 98l328 250h12l330 -250l-74 -96z" />
    <glyph glyph-name="jcircumflex" unicode="&#x135;" horiz-adv-x="479" 
d="M162 1065h172v-1212q0 -134 -90 -224t-224 -90h-86v166h74q66 0 110 48t44 120v1192zM248 1397l-262 -170l-74 96l330 250h12l330 -250l-74 -94z" />
    <glyph glyph-name="uni0136" unicode="&#x136;" horiz-adv-x="1316" 
d="M1044 0l-673 731l633 703h237l-633 -703l674 -731h-238zM160 0v1434h184v-1434h-184zM582 -219q0 41 30 69.5t74 28.5q50 0 81.5 -37t31.5 -98q0 -46 -18 -88t-47.5 -72.5t-49.5 -46.5t-41 -29l-10 -6l-47 49l24 21q19 17 41 50t21 56q-37 5 -63.5 35t-26.5 68z" />
    <glyph glyph-name="uni0137" unicode="&#x137;" horiz-adv-x="1054" 
d="M317 0h-172v1536h172v-1536zM805 0l-479 551l438 514h211l-436 -514l481 -551h-215zM453 -219q0 42 29 70t73 28q50 0 81.5 -37t31.5 -98q0 -46 -18 -88t-47.5 -72.5t-49.5 -46.5t-41 -29l-10 -6l-45 49l24 21q18 16 39.5 49.5t20.5 56.5q-37 4 -62.5 34.5t-25.5 68.5z
" />
    <glyph glyph-name="Lacute" unicode="&#x139;" horiz-adv-x="1181" 
d="M1120 0h-960v1434h184v-1262h776v-172zM113 1673l374 244l82 -154l-395 -194z" />
    <glyph glyph-name="lacute" unicode="&#x13a;" horiz-adv-x="462" 
d="M317 0h-172v1536h172v-1536zM156 1657l-62 106l375 242l82 -154z" />
    <glyph glyph-name="uni013B" unicode="&#x13b;" horiz-adv-x="1181" 
d="M160 0v1434h184v-1262h776v-172h-960zM547 -219q0 42 29 70t73 28q50 0 81.5 -37t31.5 -98q0 -46 -18 -88t-47.5 -72.5t-49.5 -46.5t-41 -29l-10 -6l-45 49l24 21q18 16 39.5 49.5t20.5 56.5q-37 4 -62.5 34.5t-25.5 68.5z" />
    <glyph glyph-name="uni013C" unicode="&#x13c;" horiz-adv-x="462" 
d="M317 0h-172v1536h172v-1536zM342 -256q0 -46 -18 -88t-47.5 -72.5t-49.5 -46.5t-41 -29l-10 -6l-45 49l25 21q18 16 39 49.5t20 56.5q-37 5 -63.5 35t-26.5 68q0 41 30 69.5t74 28.5q50 0 81.5 -37t31.5 -98z" />
    <glyph glyph-name="Lcaron" unicode="&#x13d;" horiz-adv-x="1181" 
d="M160 0v1434h184v-1262h776v-172h-960zM657 1358q0 41 29.5 69.5t73.5 28.5q50 0 81 -37t31 -98q0 -46 -18 -88t-47 -72t-49.5 -46.5t-40.5 -29.5l-10 -6l-45 49l24 21q19 17 41 50t21 56q-38 4 -64.5 34.5t-26.5 68.5z" />
    <glyph glyph-name="lcaron" unicode="&#x13e;" horiz-adv-x="694" 
d="M317 0h-172v1536h172v-1536zM457 1460q0 41 30 70t74 29q50 0 81.5 -37.5t31.5 -98.5q0 -37 -13 -72.5t-30.5 -60t-42 -47.5t-39.5 -34t-31 -21l-10 -6l-47 49l24 20q19 17 41 50.5t21 56.5q-37 5 -63.5 34.5t-26.5 67.5z" />
    <glyph glyph-name="Ldot" unicode="&#x13f;" horiz-adv-x="1181" 
d="M160 0v1434h184v-1262h776v-172h-960zM932 629q-35 -35 -88 -35t-88 35t-35 88t35 88t88 35t88 -35t35 -88t-35 -88z" />
    <glyph glyph-name="ldot" unicode="&#x140;" horiz-adv-x="905" 
d="M317 0h-172v1536h172v-1536zM596 629q-35 35 -35 88t35 88t88 35t88 -35t35 -88t-35 -88t-88 -35t-88 35z" />
    <glyph glyph-name="Lslash" unicode="&#x141;" horiz-adv-x="1232" 
d="M209 487l-105 -63l-77 137l182 111v762h186v-652l281 170l80 -137l-361 -217v-426h774v-172h-960v487z" />
    <glyph glyph-name="lslash" unicode="&#x142;" horiz-adv-x="462" 
d="M317 1536v-705l146 84v-151l-146 -84v-680h-172v580l-145 -84v153l145 84v803h172z" />
    <glyph glyph-name="Nacute" unicode="&#x143;" horiz-adv-x="1546" 
d="M160 0v1434h162l886 -1115v1115h178v-1434h-161l-887 1114v-1114h-178zM1092 1763l-396 -194l-59 104l373 244z" />
    <glyph glyph-name="nacute" unicode="&#x144;" 
d="M317 614v-614h-172v1065h172v-178q126 200 379 200q185 0 305 -120q123 -120 123 -303v-664h-172v618q0 130 -88 218q-85 88 -215 88q-139 0 -235 -90q-97 -91 -97 -220zM961 1421l-394 -194l-61 106l375 242z" />
    <glyph glyph-name="uni0145" unicode="&#x145;" horiz-adv-x="1546" 
d="M338 0h-178v1434h162l886 -1115v1115h178v-1434h-161l-887 1114v-1114zM768 -322q-38 4 -64 34.5t-26 68.5q0 41 29.5 69.5t72.5 28.5q50 0 81.5 -37t31.5 -98q0 -46 -18 -88t-47.5 -72.5t-49.5 -46.5t-41 -29l-10 -6l-45 49l25 21q19 17 40.5 50t20.5 56z" />
    <glyph glyph-name="uni0146" unicode="&#x146;" 
d="M317 0h-172v1065h172v-178q126 200 379 200q185 0 305 -120q123 -120 123 -303v-664h-172v618q0 130 -88 218q-85 88 -215 88q-139 0 -235 -90q-97 -91 -97 -220v-614zM635 -322q-38 4 -64 34.5t-26 68.5q0 42 29 70t73 28q50 0 81.5 -37t31.5 -98q0 -46 -18 -88
t-47.5 -72.5t-49.5 -46.5t-41 -29l-10 -6l-45 49l24 21q19 17 41 50t21 56z" />
    <glyph glyph-name="Ncaron" unicode="&#x147;" horiz-adv-x="1546" 
d="M338 0h-178v1434h162l886 -1115v1115h178v-1434h-161l-887 1114v-1114zM766 1569l-328 250l72 96l262 -170l262 168l74 -94l-330 -250h-12z" />
    <glyph glyph-name="ncaron" unicode="&#x148;" 
d="M145 0v1065h172v-178q126 200 379 200q185 0 305 -120q123 -120 123 -303v-664h-172v618q0 130 -88 218q-85 88 -215 88q-139 0 -235 -90q-97 -91 -97 -220v-614h-172zM637 1227l-330 250l74 98l260 -172l262 170l74 -96l-330 -250h-10z" />
    <glyph glyph-name="Eng" unicode="&#x14a;" horiz-adv-x="1546" 
d="M1208 1434h178v-1381q0 -229 -157 -383q-156 -153 -393 -153l2 172q150 0 254 94q105 94 114 240l-868 1089v-1112h-178v1434h162l886 -1115v1115z" />
    <glyph glyph-name="eng" unicode="&#x14b;" 
d="M145 0v1065h172v-178q126 200 379 200q185 0 305 -120q123 -120 123 -303v-811q0 -134 -90 -224t-223 -90h-86v166h74q66 0 109.5 48t43.5 120v745q0 130 -88 218q-85 88 -215 88q-139 0 -235 -90q-97 -91 -97 -220v-614h-172z" />
    <glyph glyph-name="Omacron" unicode="&#x14c;" horiz-adv-x="1687" 
d="M844 1456q315 0 528 -213t213 -526q0 -316 -213 -529q-211 -211 -528 -211q-318 0 -529 211t-211 529q0 315 211 526q213 213 529 213zM844 156q235 0 391 159q158 166 158 402q0 238 -158 399q-155 162 -391 162t-391 -162q-158 -161 -158 -399q0 -236 158 -402
q156 -159 391 -159zM1139 1618h-590v147h590v-147z" />
    <glyph glyph-name="omacron" unicode="&#x14d;" horiz-adv-x="1292" 
d="M248 135q-158 161 -158 397q0 238 158 396q159 159 397 159t397 -159q160 -157 160 -396q0 -237 -160 -397q-161 -158 -397 -158t-397 158zM645 150q162 0 270 108q109 112 109 274q0 164 -109 273q-107 110 -270 110q-161 0 -268 -110q-109 -109 -109 -273
q0 -162 109 -274q108 -108 268 -108zM942 1278h-592v145h592v-145z" />
    <glyph glyph-name="Obreve" unicode="&#x14e;" horiz-adv-x="1687" 
d="M844 1456q315 0 528 -213t213 -526q0 -316 -213 -529q-211 -211 -528 -211q-318 0 -529 211t-211 529q0 315 211 526q213 213 529 213zM844 156q235 0 391 159q158 166 158 402q0 238 -158 399q-155 162 -391 162t-391 -162q-158 -161 -158 -399q0 -236 158 -402
q156 -159 391 -159zM541 1845h139q0 -75 47 -125.5t119 -50.5q69 0 116.5 50.5t47.5 125.5h139q0 -130 -88 -215q-86 -86 -217 -86t-217 86t-86 215z" />
    <glyph glyph-name="obreve" unicode="&#x14f;" horiz-adv-x="1292" 
d="M248 135q-158 161 -158 397q0 238 158 396q159 159 397 159t397 -159q160 -157 160 -396q0 -237 -160 -397q-161 -158 -397 -158t-397 158zM645 150q162 0 270 108q109 112 109 274q0 164 -109 273q-107 110 -270 110q-161 0 -268 -110q-109 -109 -109 -273
q0 -162 109 -274q108 -108 268 -108zM342 1505h139q0 -75 47 -125.5t119 -50.5t118 50t46 126h139q0 -132 -88 -217q-86 -86 -217 -86t-217 86t-86 217z" />
    <glyph glyph-name="Ohungarumlaut" unicode="&#x150;" horiz-adv-x="1687" 
d="M844 1456q315 0 528 -213t213 -526q0 -316 -213 -529q-211 -211 -528 -211q-318 0 -529 211t-211 529q0 315 211 526q213 213 529 213zM844 156q235 0 391 159q158 166 158 402q0 238 -158 399q-155 162 -391 162t-391 -162q-158 -161 -158 -399q0 -236 158 -402
q156 -159 391 -159zM657 1538l-88 86l273 322l121 -125zM1034 1538l-88 86l273 322l122 -125z" />
    <glyph glyph-name="ohungarumlaut" unicode="&#x151;" horiz-adv-x="1292" 
d="M248 135q-158 161 -158 397q0 238 158 396q159 159 397 159t397 -159q160 -157 160 -396q0 -237 -160 -397q-161 -158 -397 -158t-397 158zM645 150q162 0 270 108q109 112 109 274q0 164 -109 273q-107 110 -270 110q-161 0 -268 -110q-109 -109 -109 -273
q0 -162 109 -274q108 -108 268 -108zM459 1198l-88 84l272 324l123 -125zM836 1198l-88 84l272 324l123 -125z" />
    <glyph glyph-name="OE" unicode="&#x152;" horiz-adv-x="2506" 
d="M844 -23q-318 0 -529 211t-211 529q0 315 211 526q213 213 529 213q168 0 313.5 -65t249.5 -183v226h1012v-172h-826v-451h719v-172h-719v-467h836v-172h-1022v225q-104 -118 -249.5 -183t-313.5 -65zM844 156q235 0 391 159q158 166 158 402q0 238 -158 399
q-155 162 -391 162t-391 -162q-158 -161 -158 -399q0 -236 158 -402q156 -159 391 -159z" />
    <glyph glyph-name="oe" unicode="&#x153;" horiz-adv-x="2193" 
d="M645 1087q148 0 271.5 -65.5t197.5 -181.5q74 116 195 181.5t268 65.5q233 0 389 -159q156 -156 156 -396q0 -5 -4 -59h-918q18 -145 127 -240q107 -94 264 -94q201 0 316 154l168 -53q-73 -123 -199.5 -193t-280.5 -70q-153 0 -279 66t-200 184q-75 -118 -199 -184
t-272 -66q-236 0 -397 158q-158 161 -158 397q0 238 158 396q159 159 397 159zM645 150q162 0 270 108q109 112 109 274q0 164 -109 273q-107 110 -270 110q-161 0 -268 -110q-109 -109 -109 -273q0 -162 109 -274q108 -108 268 -108zM1202 612h742q-24 140 -129 228
q-104 88 -246 88q-139 0 -240 -88q-103 -89 -127 -228z" />
    <glyph glyph-name="Racute" unicode="&#x154;" horiz-adv-x="1390" 
d="M160 1434h649q199 0 332 -127t133 -316q0 -145 -81.5 -256.5t-217.5 -159.5l352 -575h-207l-336 549h-440v-549h-184v1434zM809 1262h-465v-541h465q117 0 195 78q77 77 77 192q0 117 -77.5 194t-194.5 77zM932 1763l-395 -194l-62 104l375 244z" />
    <glyph glyph-name="racute" unicode="&#x155;" horiz-adv-x="768" 
d="M145 0v1065h172v-180q120 202 379 202h29v-190q-35 12 -76 12q-141 0 -235 -88q-97 -91 -97 -219v-602h-172zM725 1421l-393 -194l-62 106l375 242z" />
    <glyph glyph-name="uni0156" unicode="&#x156;" horiz-adv-x="1390" 
d="M160 1434h649q199 0 332 -127t133 -316q0 -145 -81.5 -256.5t-217.5 -159.5l352 -575h-207l-336 549h-440v-549h-184v1434zM809 1262h-465v-541h465q117 0 195 78q77 77 77 192q0 117 -77.5 194t-194.5 77zM721 -322q-37 4 -62.5 34.5t-25.5 68.5q0 42 29 70t73 28
q50 0 81.5 -37t31.5 -98q0 -46 -18 -88t-47.5 -72.5t-49.5 -46.5t-41 -29l-10 -6l-45 49l25 21q18 16 39 49.5t20 56.5z" />
    <glyph glyph-name="uni0157" unicode="&#x157;" horiz-adv-x="768" 
d="M317 0h-172v1065h172v-180q120 202 379 202h29v-190q-35 12 -76 12q-141 0 -235 -88q-97 -91 -97 -219v-602zM135 -219q0 41 30 69.5t73 28.5q50 0 81 -37t31 -98q0 -46 -18 -88t-47 -72.5t-49 -46.5t-41 -29l-11 -6l-45 49l25 21q19 17 40.5 50t20.5 56q-38 4 -64 34.5
t-26 68.5z" />
    <glyph glyph-name="Rcaron" unicode="&#x158;" horiz-adv-x="1390" 
d="M160 1434h649q199 0 332 -127t133 -316q0 -145 -81.5 -256.5t-217.5 -159.5l352 -575h-207l-336 549h-440v-549h-184v1434zM809 1262h-465v-541h465q117 0 195 78q77 77 77 192q0 117 -77.5 194t-194.5 77zM606 1569l-330 250l74 96l262 -170l262 168l74 -94l-330 -250
h-12z" />
    <glyph glyph-name="rcaron" unicode="&#x159;" horiz-adv-x="768" 
d="M317 0h-172v1065h172v-180q120 202 379 202h29v-190q-35 12 -76 12q-141 0 -235 -88q-97 -91 -97 -219v-602zM412 1227h-11l-329 250l73 98l261 -172l262 170l73 -96z" />
    <glyph glyph-name="Sacute" unicode="&#x15a;" 
d="M1116 1137l-182 -54q-19 83 -105.5 139t-203.5 56q-128 0 -213 -64q-84 -63 -84 -155q0 -103 114 -160q87 -42 277 -90q65 -17 88 -23.5t64 -21.5t83 -35q98 -46 149.5 -122.5t57.5 -198.5q0 -192 -147 -312q-143 -119 -373 -119q-204 0 -352 97q-144 95 -185 245l185 56
q18 -94 116 -156.5t236 -62.5q145 0 240 65q96 69 96 172q0 107 -103 160q-90 46 -206 76l-86 22l-80 25l-84 29q-9 3 -34.5 14.5t-39.5 17.5q-15 8 -28 15.5t-21 12t-19.5 14t-15.5 13t-18 16.5t-19 17q-41 41 -58 92t-24 130q0 180 135 294q136 115 347 115q187 0 321 -90
q134 -88 172 -229zM557 1569l-59 104l372 244l82 -154z" />
    <glyph glyph-name="sacute" unicode="&#x15b;" horiz-adv-x="976" 
d="M868 834l-161 -29q-17 61 -78 96t-152 35q-89 0 -147 -38.5t-58 -100.5q0 -85 113 -125l260 -92q244 -89 244 -291q0 -145 -111.5 -228.5t-288.5 -83.5q-170 0 -279 75t-132 204l162 29q18 -70 85.5 -113t168.5 -43q99 0 165 43.5t66 110.5q0 95 -141 145l-254 88
q-224 76 -224 268q0 143 105.5 223t277.5 80q154 0 255 -67.5t124 -185.5zM408 1227l-60 106l373 242l82 -154z" />
    <glyph glyph-name="Scircumflex" unicode="&#x15c;" 
d="M1116 1137l-182 -54q-19 83 -105.5 139t-203.5 56q-128 0 -213 -64q-84 -63 -84 -155q0 -103 114 -160q87 -42 277 -90q65 -17 88 -23.5t64 -21.5t83 -35q98 -46 149.5 -122.5t57.5 -198.5q0 -192 -147 -312q-143 -119 -373 -119q-204 0 -352 97q-144 95 -185 245l185 56
q18 -94 116 -156.5t236 -62.5q145 0 240 65q96 69 96 172q0 107 -103 160q-90 46 -206 76l-86 22l-80 25l-84 29q-9 3 -34.5 14.5t-39.5 17.5q-15 8 -28 15.5t-21 12t-19.5 14t-15.5 13t-18 16.5t-19 17q-41 41 -58 92t-24 130q0 180 135 294q136 115 347 115q187 0 321 -90
q134 -88 172 -229zM633 1739l-262 -172l-72 98l328 250h12l330 -250l-74 -96z" />
    <glyph glyph-name="scircumflex" unicode="&#x15d;" horiz-adv-x="976" 
d="M868 834l-161 -29q-17 61 -78 96t-152 35q-89 0 -147 -38.5t-58 -100.5q0 -85 113 -125l260 -92q244 -89 244 -291q0 -145 -111.5 -228.5t-288.5 -83.5q-170 0 -279 75t-132 204l162 29q18 -70 85.5 -113t168.5 -43q99 0 165 43.5t66 110.5q0 95 -141 145l-254 88
q-224 76 -224 268q0 143 105.5 223t277.5 80q154 0 255 -67.5t124 -185.5zM483 1397l-262 -170l-74 96l330 250h12l330 -250l-74 -94z" />
    <glyph glyph-name="Scedilla" unicode="&#x15e;" 
d="M104 319l185 56q18 -94 116 -156.5t236 -62.5q145 0 240 65q96 69 96 172q0 107 -103 160q-90 46 -206 76l-86 22l-80 25l-84 29q-9 3 -34.5 14.5t-39.5 17.5q-15 8 -28 15.5t-21 12t-19.5 14t-15.5 13t-18 16.5t-19 17q-41 41 -58 92t-24 130q0 180 135 294
q136 115 347 115q187 0 321 -90q134 -88 172 -229l-182 -54q-19 83 -105.5 139t-203.5 56q-128 0 -213 -64q-84 -63 -84 -155q0 -103 114 -160q87 -42 277 -90q65 -17 88 -23.5t64 -21.5t83 -35q98 -46 149.5 -122.5t57.5 -198.5q0 -169 -114.5 -283.5t-305.5 -140.5
l-22 -93q6 -1 16 -3.5t36 -13.5t45.5 -26.5t35.5 -44.5t16 -65q0 -78 -65.5 -130t-165.5 -52q-50 0 -99 15.5t-75 35.5l-25 16l29 94q52 -55 141 -55q53 0 90 22.5t37 53.5q0 30 -39 52.5t-86 29.5l-41 4l37 153q-190 9 -330 105q-134 94 -172 237z" />
    <glyph glyph-name="scedilla" unicode="&#x15f;" horiz-adv-x="976" 
d="M78 256l162 29q18 -70 85.5 -113t168.5 -43q99 0 165 43.5t66 110.5q0 95 -141 145l-254 88q-224 76 -224 268q0 143 105.5 223t277.5 80q154 0 255 -67.5t124 -185.5l-161 -29q-17 61 -78 96t-152 35q-89 0 -147 -38.5t-58 -100.5q0 -85 113 -125l260 -92
q244 -89 244 -291q0 -123 -82 -202.5t-221 -100.5l-23 -95q6 -1 16 -3.5t36 -13.5t46 -26.5t36 -44.5t16 -65q0 -78 -66 -130t-166 -52q-50 0 -99 15.5t-75 35.5l-24 16l28 94q52 -55 142 -55q53 0 90 22.5t37 53.5q0 30 -39 52.5t-86 29.5l-41 4l37 156q-155 7 -254 80.5
t-119 195.5z" />
    <glyph glyph-name="Scaron" unicode="&#x160;" 
d="M1116 1137l-182 -54q-19 83 -105.5 139t-203.5 56q-128 0 -213 -64q-84 -63 -84 -155q0 -103 114 -160q87 -42 277 -90q65 -17 88 -23.5t64 -21.5t83 -35q98 -46 149.5 -122.5t57.5 -198.5q0 -192 -147 -312q-143 -119 -373 -119q-204 0 -352 97q-144 95 -185 245l185 56
q18 -94 116 -156.5t236 -62.5q145 0 240 65q96 69 96 172q0 107 -103 160q-90 46 -206 76l-86 22l-80 25l-84 29q-9 3 -34.5 14.5t-39.5 17.5q-15 8 -28 15.5t-21 12t-19.5 14t-15.5 13t-18 16.5t-19 17q-41 41 -58 92t-24 130q0 180 135 294q136 115 347 115q187 0 321 -90
q134 -88 172 -229zM633 1745l262 168l74 -94l-330 -250h-12l-328 250l72 96z" />
    <glyph glyph-name="scaron" unicode="&#x161;" horiz-adv-x="976" 
d="M868 834l-161 -29q-17 61 -78 96t-152 35q-89 0 -147 -38.5t-58 -100.5q0 -85 113 -125l260 -92q244 -89 244 -291q0 -145 -111.5 -228.5t-288.5 -83.5q-170 0 -279 75t-132 204l162 29q18 -70 85.5 -113t168.5 -43q99 0 165 43.5t66 110.5q0 95 -141 145l-254 88
q-224 76 -224 268q0 143 105.5 223t277.5 80q154 0 255 -67.5t124 -185.5zM483 1403l262 170l74 -96l-330 -250h-12l-330 250l74 98z" />
    <glyph glyph-name="uni0162" unicode="&#x162;" horiz-adv-x="1368" 
d="M55 1434h1258v-172h-537v-1262h-184v1262h-537v172zM588 -219q0 41 30 69.5t74 28.5q50 0 81.5 -37t31.5 -98q0 -46 -18 -88t-47.5 -72.5t-49.5 -46.5t-41 -29l-10 -6l-47 49l24 21q19 17 41 50t21 56q-37 5 -63.5 35t-26.5 68z" />
    <glyph glyph-name="uni0163" unicode="&#x163;" horiz-adv-x="741" 
d="M31 913v152h172v213h172v-213h297v-152h-297v-579q0 -72 43.5 -120t109.5 -48h144v-166h-156q-133 0 -223 90t-90 223v600h-172zM537 -256q0 -46 -18 -88t-47.5 -72.5t-49.5 -46.5t-41 -29l-8 -6l-47 49l24 21q19 17 41 50t21 56q-37 5 -63.5 35t-26.5 68q0 41 30 69.5
t74 28.5q50 0 80.5 -37t30.5 -98z" />
    <glyph glyph-name="Tcaron" unicode="&#x164;" horiz-adv-x="1368" 
d="M592 1262h-537v172h1258v-172h-537v-1262h-184v1262zM678 1569l-330 250l74 96l262 -170l262 168l72 -94l-328 -250h-12z" />
    <glyph glyph-name="tcaron" unicode="&#x165;" horiz-adv-x="772" 
d="M31 913v152h172v213h172v-213h297v-152h-297v-579q0 -72 43.5 -120t109.5 -48h144v-166h-156q-133 0 -223 90t-90 223v600h-172zM717 1378q0 -138 -156 -235l-10 -6l-47 49l24 20q19 17 41 49.5t21 55.5q-37 6 -63.5 36t-26.5 68q0 41 30 69.5t74 28.5q50 0 81.5 -37
t31.5 -98z" />
    <glyph glyph-name="Tbar" unicode="&#x166;" horiz-adv-x="1368" 
d="M1059 606h-283v-606h-184v606h-283v172h283v484h-537v172h1258v-172h-537v-484h283v-172z" />
    <glyph glyph-name="tbar" unicode="&#x167;" horiz-adv-x="741" 
d="M203 913h-172v152h172v213h172v-213h297v-152h-297v-254h207v-133h-207v-192q0 -72 43.5 -120t109.5 -48h144v-166h-156q-133 0 -223 90t-90 223v213h-137v133h137v254z" />
    <glyph glyph-name="Utilde" unicode="&#x168;" horiz-adv-x="1499" 
d="M1174 573v861h186v-861q0 -253 -176 -426q-176 -170 -434 -170q-261 0 -437 170q-174 171 -174 426v861h185v-861q0 -183 120 -303q123 -120 306 -120q181 0 301 120q123 123 123 303zM569 1591h-137q0 87 60 150t145 63q62 0 123 -49q62 -47 90 -47q31 0 53.5 24.5
t22.5 61.5h139q0 -90 -58.5 -150.5t-144.5 -60.5q-63 0 -125 47q-58 49 -88 49q-33 0 -56.5 -26t-23.5 -62z" />
    <glyph glyph-name="utilde" unicode="&#x169;" 
d="M141 401v664h172v-619q0 -128 86 -217q88 -88 219 -88q140 0 234 88q96 90 96 222v614h172v-1065h-172v176q-120 -199 -377 -199q-185 0 -309 121q-121 121 -121 303zM453 1251h-138q0 88 60 149.5t145 61.5q62 0 123 -49q62 -47 90 -47q31 0 53.5 25t22.5 63h139
q0 -90 -59 -151.5t-144 -61.5q-62 0 -124 47q-58 49 -89 49q-33 0 -56 -25t-23 -61z" />
    <glyph glyph-name="Umacron" unicode="&#x16a;" horiz-adv-x="1499" 
d="M1174 573v861h186v-861q0 -253 -176 -426q-176 -170 -434 -170q-261 0 -437 170q-174 171 -174 426v861h185v-861q0 -183 120 -303q123 -120 306 -120q181 0 301 120q123 123 123 303zM1044 1618h-589v147h589v-147z" />
    <glyph glyph-name="umacron" unicode="&#x16b;" 
d="M141 401v664h172v-619q0 -128 86 -217q88 -88 219 -88q140 0 234 88q96 90 96 222v614h172v-1065h-172v176q-120 -199 -377 -199q-185 0 -309 121q-121 121 -121 303zM928 1423v-145h-590v145h590z" />
    <glyph glyph-name="Ubreve" unicode="&#x16c;" horiz-adv-x="1499" 
d="M1174 573v861h186v-861q0 -253 -176 -426q-176 -170 -434 -170q-261 0 -437 170q-174 171 -174 426v861h185v-861q0 -183 120 -303q123 -120 306 -120q181 0 301 120q123 123 123 303zM444 1845h140q0 -75 47 -125.5t119 -50.5t118.5 50.5t46.5 125.5h140
q0 -130 -88 -215q-86 -86 -217 -86t-220 86q-86 86 -86 215z" />
    <glyph glyph-name="ubreve" unicode="&#x16d;" 
d="M141 401v664h172v-619q0 -128 86 -217q88 -88 219 -88q140 0 234 88q96 90 96 222v614h172v-1065h-172v176q-120 -199 -377 -199q-185 0 -309 121q-121 121 -121 303zM328 1505h139q0 -75 47 -125.5t119 -50.5t119 50.5t47 125.5h139q0 -132 -88 -217q-86 -86 -217 -86
q-130 0 -219 86q-86 86 -86 217z" />
    <glyph glyph-name="Uring" unicode="&#x16e;" horiz-adv-x="1499" 
d="M1174 573v861h186v-861q0 -253 -176 -426q-176 -170 -434 -170q-261 0 -437 170q-174 171 -174 426v861h185v-861q0 -183 120 -303q123 -120 306 -120q181 0 301 120q123 123 123 303zM530 1761q0 91 64 155t156 64q88 0 153 -65q66 -66 66 -154q0 -91 -66 -157
q-64 -64 -153 -64q-92 0 -156 64.5t-64 156.5zM682 1829q-26 -26 -26 -67t26 -70q26 -26 67.5 -26t67.5 26q26 29 26 70t-26 67t-67.5 26t-67.5 -26z" />
    <glyph glyph-name="uring" unicode="&#x16f;" 
d="M571 -23q-185 0 -309 121q-121 121 -121 303v664h172v-619q0 -128 86 -217q88 -88 219 -88q140 0 234 88q96 90 96 222v614h172v-1065h-172v176q-120 -199 -377 -199zM633 1200q-92 0 -155.5 64t-63.5 155q0 92 63.5 156.5t155.5 64.5q88 0 153 -65q66 -66 66 -156
q0 -89 -66 -155q-64 -64 -153 -64zM539 1419q0 -38 28 -66t66 -28t66 28t28 66q0 41 -27.5 69t-66.5 28t-66.5 -28t-27.5 -69z" />
    <glyph glyph-name="Uhungarumlaut" unicode="&#x170;" horiz-adv-x="1499" 
d="M1174 573v861h186v-861q0 -253 -176 -426q-176 -170 -434 -170q-261 0 -437 170q-174 171 -174 426v861h185v-861q0 -183 120 -303q123 -120 306 -120q181 0 301 120q123 123 123 303zM561 1538l-88 86l272 322l123 -125zM940 1538l-90 86l274 322l123 -125z" />
    <glyph glyph-name="uhungarumlaut" unicode="&#x171;" 
d="M141 401v664h172v-619q0 -128 86 -217q88 -88 219 -88q140 0 234 88q96 90 96 222v614h172v-1065h-172v176q-120 -199 -377 -199q-185 0 -309 121q-121 121 -121 303zM1130 1481l-307 -283l-90 84l275 324zM444 1198l-88 84l273 324l123 -125z" />
    <glyph glyph-name="Uogonek" unicode="&#x172;" horiz-adv-x="1499" 
d="M139 573v861h185v-861q0 -183 120 -303q123 -120 306 -120q181 0 301 120q123 123 123 303v861h186v-861q0 -217 -135 -380q-134 -162 -348 -203q-113 -104 -113 -197q0 -40 24 -64t62 -24q26 0 54.5 13t45.5 28l15 14l61 -75l-29 -27q-15 -18 -73 -45q-60 -29 -111 -29
q-79 0 -132.5 50.5t-53.5 125.5q0 105 106 217q-253 6 -424 177q-170 170 -170 419z" />
    <glyph glyph-name="uogonek" unicode="&#x173;" 
d="M141 401v664h172v-619q0 -128 86 -217q88 -88 219 -88q140 0 234 88q96 90 96 222v614h172v-1065h-12l-35 -31q-21 -21 -55 -73q-35 -56 -35 -103q0 -41 24.5 -64.5t63.5 -23.5q52 0 98 41l15 14l63 -75l-28 -27q-15 -18 -74 -45q-60 -29 -111 -29q-79 0 -132.5 50.5
t-53.5 125.5q0 53 31 112.5t67 94.5l31 33h-29v176q-120 -199 -377 -199q-185 0 -309 121q-121 121 -121 303z" />
    <glyph glyph-name="Wcircumflex" unicode="&#x174;" horiz-adv-x="2078" 
d="M676 0h-148l-493 1434h190l375 -1139l367 1139h147l367 -1135l374 1135h189l-492 -1434h-149l-363 1114zM776 1567l-71 98l327 250h12l330 -250l-74 -96l-262 170z" />
    <glyph glyph-name="wcircumflex" unicode="&#x175;" horiz-adv-x="1597" 
d="M391 0l-362 1065h174l260 -799l260 799h151l261 -801l262 801h174l-365 -1065h-149l-258 778l-258 -778h-150zM799 1397l-262 -170l-74 96l330 250h12l330 -250l-74 -94z" />
    <glyph glyph-name="Ycircumflex" unicode="&#x176;" horiz-adv-x="1374" 
d="M592 0v584l-557 850h213l436 -674l440 674h213l-559 -842v-592h-186zM426 1567l-74 98l330 250h10l330 -250l-74 -96l-262 170z" />
    <glyph glyph-name="ycircumflex" unicode="&#x177;" horiz-adv-x="1089" 
d="M453 31l-424 1034h178l334 -827l344 827h178l-524 -1247q-60 -146 -153 -212.5t-236 -66.5h-50v166h50q168 0 239 170zM283 1227l-74 96l330 250h12l330 -250l-74 -94l-262 168z" />
    <glyph glyph-name="Ydieresis" unicode="&#x178;" horiz-adv-x="1374" 
d="M592 584l-557 850h213l436 -674l440 674h213l-559 -842v-592h-186v584zM899 1792q50 0 83.5 -33t33.5 -82t-33.5 -81.5t-83.5 -32.5q-48 0 -80.5 32.5t-32.5 81.5t32.5 82t80.5 33zM475 1792q48 0 81.5 -33t33.5 -82t-33.5 -81.5t-81.5 -32.5q-50 0 -82.5 32.5
t-32.5 81.5t33 82t82 33z" />
    <glyph glyph-name="Zacute" unicode="&#x179;" horiz-adv-x="1310" 
d="M1231 172v-172h-1139v141l877 1121h-871v172h1129v-142l-875 -1120h879zM981 1763l-395 -194l-60 104l373 244z" />
    <glyph glyph-name="zacute" unicode="&#x17a;" horiz-adv-x="1040" 
d="M958 160v-160h-876v133l631 772h-621v160h856v-133l-631 -772h641zM840 1421l-396 -194l-59 106l373 242z" />
    <glyph glyph-name="Zdotaccent" unicode="&#x17b;" horiz-adv-x="1310" 
d="M1231 0h-1139v141l877 1121h-871v172h1129v-142l-875 -1120h879v-172zM543 1683q0 54 33.5 87.5t87.5 33.5q37 3 67 -19.5t43 -55t7 -70t-33 -62.5q-24 -26 -61 -31.5t-69.5 7t-55 42.5t-19.5 68z" />
    <glyph glyph-name="zdotaccent" unicode="&#x17c;" horiz-adv-x="1040" 
d="M82 0v133l631 772h-621v160h856v-133l-631 -772h641v-160h-876zM522 1225q-54 0 -87.5 33.5t-33.5 84.5t35 85t86 34t85 -34t34 -85t-34 -84.5t-85 -33.5z" />
    <glyph glyph-name="Zcaron" unicode="&#x17d;" horiz-adv-x="1310" 
d="M1231 0h-1139v141l877 1121h-871v172h1129v-142l-875 -1120h879v-172zM655 1569l-327 250l71 96l263 -170l262 168l73 -94l-329 -250h-13z" />
    <glyph glyph-name="zcaron" unicode="&#x17e;" horiz-adv-x="1040" 
d="M958 160v-160h-876v133l631 772h-621v160h856v-133l-631 -772h641zM526 1227h-12l-328 250l72 98l262 -172l262 170l74 -96z" />
    <glyph glyph-name="uni018F" unicode="&#x18f;" horiz-adv-x="1687" 
d="M844 1456q315 0 528 -213t213 -526q0 -316 -213 -529q-211 -211 -528 -211q-316 0 -527 211q-213 213 -213 529q0 38 5 78h1277q-27 210 -178 346q-149 137 -364 137q-136 0 -251.5 -58t-189.5 -163l-184 69q101 155 265 242.5t360 87.5zM844 156q211 0 360 131
q151 133 178 336h-1075q27 -203 178 -336q149 -131 359 -131z" />
    <glyph glyph-name="florin" unicode="&#x192;" horiz-adv-x="731" 
d="M-90 -461h-139l28 166h129q66 0 118.5 48t64.5 120l151 860h-178l27 154h178l59 336q25 135 129 223q110 90 240 90h141l-29 -166h-129q-66 0 -118 -48t-64 -120l-57 -315h284l-26 -154h-285l-153 -880q-25 -137 -131 -224q-107 -90 -240 -90z" />
    <glyph glyph-name="uni01DD" unicode="&#x1dd;" horiz-adv-x="1261" 
d="M78 592h915q-18 144 -127 239q-111 97 -262 97q-201 0 -315 -156l-168 53q74 122 201.5 192t281.5 70q242 0 406 -159q161 -154 161 -396q0 -237 -157 -397q-158 -158 -391 -158q-234 0 -392 158q-157 160 -157 397q0 32 4 60zM991 453h-739q24 -139 127 -228
q106 -86 246 -86q136 0 239 86q103 89 127 228z" />
    <glyph glyph-name="Aringacute" unicode="&#x1fa;" horiz-adv-x="1476" 
d="M369 322l-140 -322h-194l620 1413q-62 25 -99.5 80.5t-37.5 124.5q0 90 64 154q65 65 157 65q72 0 125 -41l334 215l82 -153l-336 -164q14 -32 14 -76q0 -67 -37.5 -123.5t-99.5 -81.5l621 -1413h-195l-139 322h-739zM1032 494l-293 675l-295 -675h588zM739 1712
q-41 0 -68.5 -26.5t-27.5 -67.5t27.5 -68.5t68.5 -27.5t68 27.5t27 68.5q0 40 -28 67t-67 27z" />
    <glyph glyph-name="aringacute" unicode="&#x1fb;" horiz-adv-x="1320" 
d="M614 1087q241 0 390 -174v152h172v-1065h-172v152q-150 -175 -390 -175q-222 0 -374 158q-150 159 -150 397q0 240 150 396q150 159 374 159zM633 150q155 0 260 108q106 109 106 274q0 167 -106 273q-104 110 -260 110q-153 0 -260 -110q-105 -108 -105 -273
q0 -163 105 -274q108 -108 260 -108zM662 1640q66 0 118 -34l324 209l82 -152l-322 -160q17 -49 17 -84q0 -89 -66 -155q-64 -64 -153 -64q-94 0 -158 64t-64 155q0 92 64 156q65 65 158 65zM662 1325q38 0 66 28t28 66q0 41 -29 69t-65 27t-68 -28q-27 -32 -28 -68t27 -65
t69 -29z" />
    <glyph glyph-name="AEacute" unicode="&#x1fc;" horiz-adv-x="2066" 
d="M248 0h-213l926 1434h1015v-172h-755v-451h651v-172h-651v-467h766v-172h-951v322h-583zM563 494h473v741zM1481 1763l-396 -194l-61 104l375 244z" />
    <glyph glyph-name="aeacute" unicode="&#x1fd;" horiz-adv-x="2172" 
d="M614 -23q-222 0 -374 158q-150 159 -150 397q0 240 150 396q150 159 374 159q241 0 390 -174v152h172v-152q152 174 393 174q226 0 379 -159q153 -156 153 -396q0 -5 -4 -59h-917q18 -145 127 -240q107 -94 264 -94q200 0 315 154l168 -53q-73 -123 -196.5 -193
t-274.5 -70q-251 0 -407 179v-156h-172v152q-150 -175 -390 -175zM633 150q155 0 260 108q106 109 106 274q0 167 -106 273q-104 110 -260 110q-153 0 -260 -110q-105 -108 -105 -273q0 -163 105 -274q108 -108 260 -108zM1182 612h741q-24 140 -129 228q-104 88 -246 88
q-138 0 -239 -88q-103 -89 -127 -228zM1401 1421l-395 -194l-60 106l373 242z" />
    <glyph glyph-name="Oslashacute" unicode="&#x1fe;" horiz-adv-x="1687" 
d="M299 59l63 91q-124 103 -191 249.5t-67 317.5q0 315 211 526q213 213 529 213q194 0 366 -90l64 90l121 -82l-64 -92q254 -214 254 -565q0 -316 -213 -529q-211 -211 -528 -211q-195 0 -363 91l-65 -91zM1223 1126l-637 -907q114 -63 258 -63q235 0 391 159
q158 166 158 402q0 250 -170 409zM469 303l635 911q-116 64 -260 64q-236 0 -391 -162q-158 -161 -158 -399q0 -252 174 -414zM768 1569l-61 104l374 244l82 -154z" />
    <glyph glyph-name="oslashacute" unicode="&#x1ff;" horiz-adv-x="1292" 
d="M645 1087q143 0 258 -59l43 59l119 -81l-41 -60q178 -156 178 -414q0 -237 -160 -397q-161 -158 -397 -158q-141 0 -258 60l-41 -60l-119 82l41 62q-178 156 -178 411q0 238 158 396q159 159 397 159zM918 797l-429 -613q72 -34 156 -34q162 0 270 108q109 112 109 274
q0 159 -106 265zM373 270l428 611q-72 34 -156 34q-161 0 -268 -110q-109 -109 -109 -273q0 -157 105 -262zM569 1227l-59 106l373 242l82 -154z" />
    <glyph glyph-name="uni0218" unicode="&#x218;" 
d="M1116 1137l-182 -54q-19 83 -105.5 139t-203.5 56q-128 0 -213 -64q-84 -63 -84 -155q0 -103 114 -160q87 -42 277 -90q65 -17 88 -23.5t64 -21.5t83 -35q98 -46 149.5 -122.5t57.5 -198.5q0 -192 -147 -312q-143 -119 -373 -119q-204 0 -352 97q-144 95 -185 245l185 56
q18 -94 116 -156.5t236 -62.5q145 0 240 65q96 69 96 172q0 107 -103 160q-90 46 -206 76l-86 22l-80 25l-84 29q-9 3 -34.5 14.5t-39.5 17.5q-15 8 -28 15.5t-21 12t-19.5 14t-15.5 13t-18 16.5t-19 17q-41 41 -58 92t-24 130q0 180 135 294q136 115 347 115q187 0 321 -90
q134 -88 172 -229zM797 -256q0 -46 -18 -88t-47.5 -72.5t-49.5 -46.5t-41 -29l-10 -6l-45 49l24 21q19 17 41 50t21 56q-38 4 -64 34.5t-26 68.5q0 41 29.5 69.5t72.5 28.5q50 0 81.5 -37t31.5 -98z" />
    <glyph glyph-name="uni0219" unicode="&#x219;" horiz-adv-x="976" 
d="M868 834l-161 -29q-17 61 -78 96t-152 35q-89 0 -147 -38.5t-58 -100.5q0 -85 113 -125l260 -92q244 -89 244 -291q0 -145 -111.5 -228.5t-288.5 -83.5q-170 0 -279 75t-132 204l162 29q18 -70 85.5 -113t168.5 -43q99 0 165 43.5t66 110.5q0 95 -141 145l-254 88
q-224 76 -224 268q0 143 105.5 223t277.5 80q154 0 255 -67.5t124 -185.5zM641 -256q0 -46 -18 -88t-47.5 -72.5t-49.5 -46.5t-41 -29l-10 -6l-45 49l25 21q19 17 40.5 50t20.5 56q-38 4 -64 34.5t-26 68.5q0 41 29.5 69.5t72.5 28.5q50 0 81.5 -37t31.5 -98z" />
    <glyph glyph-name="uni021A" unicode="&#x21a;" horiz-adv-x="1368" 
d="M55 1434h1258v-172h-537v-1262h-184v1262h-537v172zM588 -219q0 41 30 69.5t74 28.5q50 0 81.5 -37t31.5 -98q0 -46 -18 -88t-47.5 -72.5t-49.5 -46.5t-41 -29l-10 -6l-47 49l24 21q19 17 41 50t21 56q-37 5 -63.5 35t-26.5 68z" />
    <glyph glyph-name="uni021B" unicode="&#x21b;" horiz-adv-x="741" 
d="M31 913v152h172v213h172v-213h297v-152h-297v-579q0 -72 43.5 -120t109.5 -48h144v-166h-156q-133 0 -223 90t-90 223v600h-172zM537 -256q0 -46 -18 -88t-47.5 -72.5t-49.5 -46.5t-41 -29l-8 -6l-47 49l24 21q19 17 41 50t21 56q-37 5 -63.5 35t-26.5 68q0 41 30 69.5
t74 28.5q50 0 80.5 -37t30.5 -98z" />
    <glyph glyph-name="uni0237" unicode="&#x237;" horiz-adv-x="479" 
d="M162 1065h172v-1212q0 -134 -90 -224t-224 -90h-86v166h74q66 0 110 48t44 120v1192z" />
    <glyph glyph-name="uni0259" unicode="&#x259;" horiz-adv-x="1261" 
d="M78 592h915q-18 144 -127 239q-111 97 -262 97q-201 0 -315 -156l-168 53q74 122 201.5 192t281.5 70q242 0 406 -159q161 -154 161 -396q0 -237 -157 -397q-158 -158 -391 -158q-234 0 -392 158q-157 160 -157 397q0 32 4 60zM991 453h-739q24 -139 127 -228
q106 -86 246 -86q136 0 239 86q103 89 127 228z" />
    <glyph glyph-name="circumflex" unicode="&#x2c6;" horiz-adv-x="892" 
d="M446 1620l-262 -170l-73 96l329 250h13l329 -250l-73 -94z" />
    <glyph glyph-name="caron" unicode="&#x2c7;" horiz-adv-x="892" 
d="M446 1626l263 170l73 -94l-329 -252h-13l-329 252l73 96z" />
    <glyph glyph-name="breve" unicode="&#x2d8;" horiz-adv-x="831" 
d="M111 1729h139q0 -75 48 -126t120 -51q69 0 116.5 51t47.5 126h139q0 -130 -88 -218q-86 -86 -217 -86q-130 0 -219 86q-86 89 -86 218z" />
    <glyph glyph-name="dotaccent" unicode="&#x2d9;" horiz-adv-x="460" 
d="M145 1481q-35 35 -35 86.5t35 83.5q35 35 86.5 35t83.5 -35q35 -32 35 -83.5t-35 -86.5q-32 -32 -83.5 -32t-86.5 32z" />
    <glyph glyph-name="ring" unicode="&#x2da;" horiz-adv-x="661" 
d="M332 1864q87 0 153 -66t66 -156q0 -89 -66 -155q-64 -64 -153 -64q-94 0 -158 64q-63 63 -63 155q0 93 63 156q66 66 158 66zM236 1642q0 -39 27.5 -66.5t68.5 -27.5t67.5 26.5t26.5 67.5q0 42 -26.5 69.5t-67.5 27.5t-68.5 -28t-27.5 -69z" />
    <glyph glyph-name="ogonek" unicode="&#x2db;" horiz-adv-x="622" 
d="M207 -33l33 33h133l-35 -31q-20 -21 -55 -73q-35 -56 -35 -103q0 -40 24 -64t62 -24q26 0 54.5 13t45.5 28l15 14l63 -75l-29 -27q-15 -18 -73 -45q-60 -29 -111 -29q-80 0 -134 50.5t-54 125.5q0 53 30 113t66 94z" />
    <glyph glyph-name="tilde" unicode="&#x2dc;" horiz-adv-x="856" 
d="M250 1475h-139q0 88 61 149q62 62 145 62q62 0 121 -50q62 -47 90 -47q33 0 55.5 25t22.5 63h137q0 -90 -58.5 -151.5t-143.5 -61.5q-64 0 -123 47q-59 50 -88 50q-33 0 -56.5 -25t-23.5 -61z" />
    <glyph glyph-name="hungarumlaut" unicode="&#x2dd;" horiz-adv-x="995" 
d="M201 1421l-90 84l274 324l121 -125zM578 1421l-89 84l273 324l123 -125z" />
    <glyph glyph-name="uni0394" unicode="&#x394;" horiz-adv-x="1449" 
d="M1415 0h-1380l616 1434h148zM1147 172l-422 997l-422 -997h844z" />
    <glyph glyph-name="uni03A9" unicode="&#x3a9;" horiz-adv-x="1687" 
d="M104 733q0 311 211 516q213 207 529 207t528 -209q213 -207 213 -516q0 -169 -67.5 -313.5t-190.5 -245.5h258v-172h-555v172q157 50 262 199q101 146 101 336q0 241 -158 407q-156 164 -391 164t-391 -164q-158 -166 -158 -403q0 -194 104 -340t275 -199v-172h-553v172
h246q-263 213 -263 561z" />
    <glyph glyph-name="uni0400" unicode="&#x400;" horiz-adv-x="1282" 
d="M160 1434h1032v-172h-848v-451h743v-172h-743v-467h858v-172h-1042v1434zM801 1673l-62 -104l-395 194l82 154z" />
    <glyph glyph-name="uni0401" unicode="&#x401;" horiz-adv-x="1282" 
d="M160 1434h1032v-172h-848v-451h743v-172h-743v-467h858v-172h-1042v1434zM961 1595q-32 -32 -82 -32t-82 32t-32 82t32 82t82 32t82 -32t32 -82t-32 -82zM371 1595q-32 32 -32 82t32 82t82 32t82 -32t32 -82t-32 -82t-82 -32t-82 32z" />
    <glyph glyph-name="uni0402" unicode="&#x402;" horiz-adv-x="1832" 
d="M592 0v1262h-537v172h1258v-172h-537v-408q166 41 320 41q279 0 432 -122t153 -347q0 -221 -151 -336q-149 -113 -400 -113l3 173q362 0 362 274q0 299 -403 299q-162 0 -316 -43v-680h-184z" />
    <glyph glyph-name="uni0403" unicode="&#x403;" horiz-adv-x="1132" 
d="M344 1262v-1262h-184v1434h917v-172h-733zM915 1763l-393 -194l-61 104l375 244z" />
    <glyph glyph-name="uni0404" unicode="&#x404;" horiz-adv-x="1589" 
d="M844 1456q209 0 380 -99.5t269 -273.5l-180 -67q-73 123 -195.5 192.5t-273.5 69.5q-212 0 -361 -131q-147 -130 -182 -336h731v-172h-733q27 -209 178 -348q153 -135 367 -135q151 0 273.5 69.5t195.5 192.5l180 -68q-98 -174 -269 -273.5t-380 -99.5q-318 0 -529 211
t-211 529q0 315 211 526q213 213 529 213z" />
    <glyph glyph-name="uni0405" unicode="&#x405;" 
d="M1116 1137l-182 -54q-19 83 -105.5 139t-203.5 56q-128 0 -213 -64q-84 -63 -84 -155q0 -103 114 -160q87 -42 277 -90q65 -17 88 -23.5t64 -21.5t83 -35q98 -46 149.5 -122.5t57.5 -198.5q0 -192 -147 -312q-143 -119 -373 -119q-204 0 -352 97q-144 95 -185 245l185 56
q18 -94 116 -156.5t236 -62.5q145 0 240 65q96 69 96 172q0 107 -103 160q-90 46 -206 76l-86 22l-80 25l-84 29q-9 3 -34.5 14.5t-39.5 17.5q-15 8 -28 15.5t-21 12t-19.5 14t-15.5 13t-18 16.5t-19 17q-41 41 -58 92t-24 130q0 180 135 294q136 115 347 115q187 0 321 -90
q134 -88 172 -229z" />
    <glyph glyph-name="uni0406" unicode="&#x406;" horiz-adv-x="503" 
d="M344 0h-184v1434h184v-1434z" />
    <glyph glyph-name="uni0407" unicode="&#x407;" horiz-adv-x="503" 
d="M344 0h-184v1434h184v-1434zM-43 1595q-32 32 -32 82t32 82t82 32t82 -32t32 -82t-32 -82t-82 -32t-82 32zM383 1595q-32 32 -32 82t32 82t82 32t82 -32t32 -82t-32 -82t-82 -32t-82 32z" />
    <glyph glyph-name="uni0408" unicode="&#x408;" horiz-adv-x="1218" 
d="M1071 1434v-920q0 -228 -158 -383q-157 -154 -393 -154q-148 0 -271 65t-196 179l154 101q48 -80 130.5 -126t184.5 -46q157 0 264 104t107 260v920h178z" />
    <glyph glyph-name="uni0409" unicode="&#x409;" horiz-adv-x="2334" 
d="M88 0h-53v172h53q70 0 119 43q52 47 83.5 180.5t31.5 341.5v697h1019v-557h439q198 0 329 -125q134 -128 134 -314q0 -185 -134 -313q-131 -125 -329 -125h-623v1262h-651v-525q0 -737 -418 -737zM1341 705v-533h439q116 0 192 75.5t76 190.5t-76 191t-192 76h-439z" />
    <glyph glyph-name="uni040A" unicode="&#x40a;" horiz-adv-x="2373" 
d="M344 0h-184v1434h184v-590h850v590h186v-590h439q196 0 329 -121t133 -301t-133 -301t-329 -121h-625v672h-850v-672zM1819 672h-439v-500h439q114 0 192 72t78 178t-78 178t-192 72z" />
    <glyph glyph-name="uni040B" unicode="&#x40b;" horiz-adv-x="1832" 
d="M592 0v1262h-537v172h1258v-172h-537v-402q149 35 303 35q288 0 445 -123t157 -350v-422h-186v422q0 301 -416 301q-161 0 -303 -37v-686h-184z" />
    <glyph glyph-name="uni040C" unicode="&#x40c;" horiz-adv-x="1316" 
d="M1282 0h-238l-673 731l633 703h237l-633 -703zM160 0v1434h184v-1434h-184zM979 1763l-395 -194l-62 104l375 244z" />
    <glyph glyph-name="uni040D" unicode="&#x40d;" horiz-adv-x="1546" 
d="M160 0v1434h184v-1121l875 1121h167v-1434h-186v1114l-872 -1114h-168zM907 1673l-59 -104l-395 194l82 154z" />
    <glyph glyph-name="uni040E" unicode="&#x40e;" horiz-adv-x="1400" 
d="M653 358l-618 1076h205l505 -885l422 885h199l-524 -1102q-156 -332 -439 -332h-147v172h133q157 0 264 186zM702 1573q-152 0 -256 90q-100 87 -100 225h154q0 -72 57 -121t143 -49t143.5 49t57.5 121h152q0 -137 -101 -225q-104 -90 -250 -90z" />
    <glyph glyph-name="uni040F" unicode="&#x40f;" horiz-adv-x="1503" 
d="M160 0v1434h184v-1262h815v1262h184v-1434h-499v-348h-185v348h-499z" />
    <glyph glyph-name="uni0410" unicode="&#x410;" horiz-adv-x="1476" 
d="M229 0h-194l629 1434h149l629 -1434h-195l-139 322h-739zM1032 494l-293 675l-295 -675h588z" />
    <glyph glyph-name="uni0411" unicode="&#x411;" horiz-adv-x="1355" 
d="M160 1434h956v-172h-772v-385h440q195 0 328 -127t133 -312q0 -186 -133 -313q-131 -125 -328 -125h-624v1434zM344 705v-533h440q117 0 193 76q78 78 78 190q0 113 -78 191q-76 76 -193 76h-440z" />
    <glyph glyph-name="uni0412" unicode="&#x412;" horiz-adv-x="1415" 
d="M881 0h-721v1434h680q172 0 290 -109q119 -107 119 -266q0 -194 -162 -301q107 -50 169.5 -145t62.5 -212q0 -168 -127 -286q-127 -115 -311 -115zM881 659h-537v-487h537q104 0 174.5 70t70.5 174q0 101 -71 172t-174 71zM840 1262h-496v-431h496q94 0 156.5 62
t62.5 154t-62.5 153.5t-156.5 61.5z" />
    <glyph glyph-name="uni0413" unicode="&#x413;" horiz-adv-x="1132" 
d="M344 1262v-1262h-184v1434h917v-172h-733z" />
    <glyph glyph-name="uni0414" unicode="&#x414;" horiz-adv-x="1701" 
d="M233 -348h-184v520h162q178 58 178 559v703h1028v-1262h236v-520h-185v348h-1235v-348zM457 172h774v1090h-658v-523q0 -381 -116 -567z" />
    <glyph glyph-name="uni0415" unicode="&#x415;" horiz-adv-x="1282" 
d="M160 1434h1032v-172h-848v-451h743v-172h-743v-467h858v-172h-1042v1434z" />
    <glyph glyph-name="uni0416" unicode="&#x416;" horiz-adv-x="2037" 
d="M266 0h-231l639 731l-598 703h231l600 -703zM2003 0h-231l-639 731l598 703h231l-598 -703zM1114 1434v-1434h-186v1434h186z" />
    <glyph glyph-name="uni0417" unicode="&#x417;" horiz-adv-x="1312" 
d="M655 -23q-409 0 -569 349l178 67q111 -237 389 -237q165 0 268 72.5t103 189.5q0 97 -74 168q-72 69 -180 69h-276v172h272q93 0 157 62.5t64 150.5q0 106 -93 172t-245 66q-269 0 -377 -236l-180 68q159 346 559 346q233 0 379 -113q150 -114 150 -286q0 -96 -49 -179
t-134 -133q103 -54 161.5 -145t58.5 -201q0 -182 -160 -303q-155 -119 -402 -119z" />
    <glyph glyph-name="uni0418" unicode="&#x418;" horiz-adv-x="1546" 
d="M328 0h-168v1434h184v-1121l875 1121h167v-1434h-186v1114z" />
    <glyph glyph-name="uni0419" unicode="&#x419;" horiz-adv-x="1546" 
d="M1200 1114l-872 -1114h-168v1434h184v-1121l875 1121h167v-1434h-186v1114zM782 1573q-150 0 -254 90q-100 87 -100 225h152q0 -72 57.5 -121t144.5 -49q85 0 142 49t57 121h152q0 -137 -101 -225q-104 -90 -250 -90z" />
    <glyph glyph-name="uni041A" unicode="&#x41a;" horiz-adv-x="1316" 
d="M1282 0h-238l-673 731l633 703h237l-633 -703zM160 0v1434h184v-1434h-184z" />
    <glyph glyph-name="uni041B" unicode="&#x41b;" horiz-adv-x="1501" 
d="M88 0h-53v172h53q70 0 119 43q52 47 83.5 180.5t31.5 341.5v697h1021v-1434h-186v1262h-651v-525q0 -737 -418 -737z" />
    <glyph glyph-name="uni041C" unicode="&#x41c;" horiz-adv-x="1841" 
d="M344 0h-184v1434h184l578 -1008l575 1008h184v-1434h-184v1083l-516 -905h-121l-516 903v-1081z" />
    <glyph glyph-name="uni041D" unicode="&#x41d;" horiz-adv-x="1540" 
d="M344 0h-184v1434h184v-623h850v623h186v-1434h-186v639h-850v-639z" />
    <glyph glyph-name="uni041E" unicode="&#x41e;" horiz-adv-x="1687" 
d="M844 1456q315 0 528 -213t213 -526q0 -316 -213 -529q-211 -211 -528 -211q-318 0 -529 211t-211 529q0 315 211 526q213 213 529 213zM844 156q235 0 391 159q158 166 158 402q0 238 -158 399q-155 162 -391 162t-391 -162q-158 -161 -158 -399q0 -236 158 -402
q156 -159 391 -159z" />
    <glyph glyph-name="uni041F" unicode="&#x41f;" horiz-adv-x="1540" 
d="M344 1262v-1262h-184v1434h1220v-1434h-186v1262h-850z" />
    <glyph glyph-name="uni0420" unicode="&#x420;" horiz-adv-x="1345" 
d="M344 549v-549h-184v1434h628q199 0 332 -127t133 -316q0 -188 -133 -315t-332 -127h-444zM788 1262h-444v-541h444q117 0 195 78t78 192q0 117 -78 194t-195 77z" />
    <glyph glyph-name="uni0421" unicode="&#x421;" horiz-adv-x="1589" 
d="M844 1456q209 0 380 -99.5t269 -273.5l-180 -67q-73 123 -195.5 192.5t-273.5 69.5q-236 0 -391 -162q-158 -161 -158 -399q0 -236 158 -402q156 -159 391 -159q151 0 273.5 69.5t195.5 192.5l180 -68q-98 -174 -269 -273.5t-380 -99.5q-318 0 -529 211t-211 529
q0 315 211 526q213 213 529 213z" />
    <glyph glyph-name="uni0422" unicode="&#x422;" horiz-adv-x="1368" 
d="M592 1262h-537v172h1258v-172h-537v-1262h-184v1262z" />
    <glyph glyph-name="uni0423" unicode="&#x423;" horiz-adv-x="1400" 
d="M653 358l-618 1076h205l505 -885l422 885h199l-524 -1102q-156 -332 -439 -332h-147v172h133q157 0 264 186z" />
    <glyph glyph-name="uni0424" unicode="&#x424;" horiz-adv-x="1757" 
d="M786 1307v149h185v-149q298 -3 489 -170q193 -166 193 -420q0 -253 -193 -422q-192 -165 -489 -168v-150h-185v150q-297 3 -489 168q-193 169 -193 422q0 254 193 420q191 167 489 170zM786 305v823q-215 0 -352 -116q-139 -115 -139 -295q0 -179 139 -297
q139 -115 352 -115zM971 1128v-823q211 0 350 115q139 118 139 297q0 180 -139 295q-137 116 -350 116z" />
    <glyph glyph-name="uni0425" unicode="&#x425;" horiz-adv-x="1386" 
d="M582 731l-527 703h221l418 -555l416 555h221l-526 -703l547 -731h-222l-436 582l-438 -582h-221z" />
    <glyph glyph-name="uni0426" unicode="&#x426;" horiz-adv-x="1628" 
d="M160 0v1434h184v-1262h815v1262h184v-1262h238v-520h-186v348h-1235z" />
    <glyph glyph-name="uni0427" unicode="&#x427;" horiz-adv-x="1415" 
d="M725 539q-300 0 -463.5 123t-163.5 350v422h185v-422q0 -301 440 -301q180 0 348 43v680h184v-1434h-184v582q-162 -43 -346 -43z" />
    <glyph glyph-name="uni0428" unicode="&#x428;" horiz-adv-x="2215" 
d="M160 0v1434h184v-1262h666v1262h184v-1262h678v1262h184v-1434h-1896z" />
    <glyph glyph-name="uni0429" unicode="&#x429;" horiz-adv-x="2340" 
d="M160 1434h184v-1262h666v1262h184v-1262h678v1262h184v-1262h238v-520h-187v348h-1947v1434z" />
    <glyph glyph-name="uni042A" unicode="&#x42a;" horiz-adv-x="1742" 
d="M563 0v1262h-508v172h695v-557h438q199 0 330 -125q133 -127 133 -314q0 -186 -133 -313q-131 -125 -330 -125h-625zM750 705v-533h438q116 0 192 76q78 78 78 190q0 113 -78 191q-76 76 -192 76h-438z" />
    <glyph glyph-name="uni042B" unicode="&#x42b;" horiz-adv-x="1814" 
d="M784 0h-624v1434h184v-557h440q195 0 328 -127t133 -312q0 -186 -133 -313q-131 -125 -328 -125zM344 705v-533h440q117 0 193 76q78 78 78 190q0 98 -57.5 169t-151.5 91l-45 7h-17h-440zM1655 0h-187v1434h187v-1434z" />
    <glyph glyph-name="uni042C" unicode="&#x42c;" horiz-adv-x="1339" 
d="M160 0v1434h184v-557h440q195 0 328 -127t133 -312q0 -186 -133 -313q-131 -125 -328 -125h-624zM344 705v-533h440q98 0 171.5 57t93.5 148l6 45q0 124 -74.5 203.5t-196.5 79.5h-440z" />
    <glyph glyph-name="uni042D" unicode="&#x42d;" horiz-adv-x="1589" 
d="M98 350l178 68q73 -123 195.5 -192.5t273.5 -69.5q217 0 367 135q151 139 178 348h-657v172h655q-35 210 -182 336q-149 131 -361 131q-151 0 -273.5 -69.5t-195.5 -192.5l-178 67q94 173 266 273t381 100q314 0 527 -213t213 -526q0 -316 -213 -529q-211 -211 -527 -211
q-209 0 -381 100t-266 273z" />
    <glyph glyph-name="uni042E" unicode="&#x42e;" horiz-adv-x="2203" 
d="M160 0v1434h184v-623h283q35 283 235 463q206 182 498 182q313 0 526 -213t213 -526q0 -316 -213 -529q-211 -211 -526 -211q-299 0 -504 187q-204 186 -231 475h-281v-639h-184zM1360 156q235 0 391 159q158 166 158 402q0 238 -158 399q-155 162 -391 162
q-238 0 -393 -162q-156 -159 -156 -399q0 -239 156 -402q156 -159 393 -159z" />
    <glyph glyph-name="uni042F" unicode="&#x42f;" horiz-adv-x="1390" 
d="M643 553l-338 -553h-209l346 571q-147 41 -236 156t-89 266q0 187 133 314t332 127h649v-1434h-187v553h-401zM582 725h462v537h-462q-116 0 -197 -78q-78 -78 -78 -191q0 -114 78 -192q79 -76 197 -76z" />
    <glyph glyph-name="uni0430" unicode="&#x430;" horiz-adv-x="1320" 
d="M614 1087q241 0 390 -174v152h172v-1065h-172v152q-150 -175 -390 -175q-222 0 -374 158q-150 159 -150 397q0 240 150 396q150 159 374 159zM633 915q-153 0 -260 -110q-105 -108 -105 -273q0 -163 105 -274q108 -108 260 -108q155 0 260 108q106 109 106 274
q0 167 -106 273q-104 110 -260 110z" />
    <glyph glyph-name="uni0431" unicode="&#x431;" horiz-adv-x="1329" 
d="M96 774q0 353 154.5 534t476.5 212q376 38 389 39v-173q-289 -28 -377 -38q-250 -24 -361.5 -160.5t-105.5 -392.5q45 132 160 212t268 80q227 0 383 -159t156 -398q0 -237 -158 -395t-391 -158q-253 0 -424 201q-170 200 -170 596zM694 150q155 0 260 108
q105 111 105 274q0 165 -105 273q-104 110 -260 110q-157 0 -264 -110q-104 -107 -104 -273q0 -164 104 -274q108 -108 264 -108z" />
    <glyph glyph-name="uni0432" unicode="&#x432;" horiz-adv-x="1142" 
d="M145 1065h549q118 0 204.5 -61t109.5 -158q7 -36 8 -43q0 -153 -111 -238q74 -37 118 -105t44 -149q0 -135 -94 -223t-236 -88h-592v1065zM317 479v-313h420q63 0 106.5 45t43.5 111q0 67 -43.5 112t-106.5 45h-420zM694 899h-377v-274h377q63 0 103.5 38.5t40.5 98.5
t-40.5 98.5t-103.5 38.5z" />
    <glyph glyph-name="uni0433" unicode="&#x433;" horiz-adv-x="866" 
d="M317 899v-899h-172v1065h686v-166h-514z" />
    <glyph glyph-name="uni0434" unicode="&#x434;" horiz-adv-x="1372" 
d="M217 0v-307h-172v473h160q92 83 92 356v543h836v-899h194v-473h-172v307h-938zM395 166h566v733h-492v-381q0 -219 -74 -352z" />
    <glyph glyph-name="uni0435" unicode="&#x435;" horiz-adv-x="1261" 
d="M1184 473h-916q18 -145 127 -240q107 -94 262 -94q201 0 316 154l168 -53q-74 -123 -202 -193t-282 -70q-239 0 -405 158q-162 158 -162 397q0 238 158 396q156 159 391 159t391 -159q158 -158 158 -396q0 -5 -4 -59zM270 612h740q-24 140 -129 228q-104 88 -246 88
q-139 0 -240 -88q-101 -87 -125 -228z" />
    <glyph glyph-name="uni0436" unicode="&#x436;" horiz-adv-x="1540" 
d="M242 0h-207l436 551l-395 514h205l397 -514zM1505 0h-207l-434 551l396 514h204l-395 -514zM856 1065v-1065h-172v1065h172z" />
    <glyph glyph-name="uni0437" unicode="&#x437;" horiz-adv-x="1105" 
d="M84 270l174 47q71 -176 289 -176q124 0 206.5 54.5t82.5 134.5q0 63 -48 105t-120 42h-262v146h249q69 0 114.5 37.5t45.5 93.5q0 72 -76 121t-188 49q-216 0 -287 -176l-174 47q50 137 174.5 214.5t294.5 77.5q184 0 309 -90q125 -88 125 -221q0 -140 -133 -223
q154 -83 154 -246q0 -141 -131 -235q-133 -95 -332 -95q-172 0 -295 77t-172 216z" />
    <glyph glyph-name="uni0438" unicode="&#x438;" horiz-adv-x="1273" 
d="M954 776l-663 -776h-146v1065h172v-780l664 780h145v-1065h-172v776z" />
    <glyph glyph-name="uni0439" unicode="&#x439;" horiz-adv-x="1273" 
d="M954 776l-663 -776h-146v1065h172v-780l664 780h145v-1065h-172v776zM297 1511h147q0 -75 54.5 -124.5t138.5 -49.5t138 49.5t54 124.5h146q0 -135 -96 -225q-94 -88 -242 -88q-146 0 -244 88q-96 90 -96 225z" />
    <glyph glyph-name="uni043A" unicode="&#x43a;" horiz-adv-x="1075" 
d="M1040 0h-215l-479 551l438 514h211l-436 -514zM317 1065v-1065h-172v1065h172z" />
    <glyph glyph-name="uni043B" unicode="&#x43b;" horiz-adv-x="1226" 
d="M115 0h-70v166h57q154 0 154 336v563h825v-1065h-172v899h-481v-430q0 -233 -83 -351t-230 -118z" />
    <glyph glyph-name="uni043C" unicode="&#x43c;" horiz-adv-x="1449" 
d="M317 741v-741h-172v1065h172l408 -709l405 709h173v-1065h-173v737l-352 -614h-106z" />
    <glyph glyph-name="uni043D" unicode="&#x43d;" horiz-adv-x="1269" 
d="M317 459v-459h-172v1065h172v-440h635v440h172v-1065h-172v459h-635z" />
    <glyph glyph-name="uni043E" unicode="&#x43e;" horiz-adv-x="1292" 
d="M248 135q-158 161 -158 397q0 238 158 396q159 159 397 159t397 -159q160 -157 160 -396q0 -237 -160 -397q-161 -158 -397 -158t-397 158zM645 150q162 0 270 108q109 112 109 274q0 164 -109 273q-107 110 -270 110q-161 0 -268 -110q-109 -109 -109 -273
q0 -162 109 -274q108 -108 268 -108z" />
    <glyph glyph-name="uni043F" unicode="&#x43f;" horiz-adv-x="1253" 
d="M317 899v-899h-172v1065h961v-1065h-172v899h-617z" />
    <glyph glyph-name="uni0440" unicode="&#x440;" horiz-adv-x="1320" 
d="M317 -461h-172v1526h172v-152q149 174 388 174q224 0 374 -159q152 -158 152 -396q0 -236 -152 -397q-152 -158 -374 -158q-238 0 -388 175v-613zM686 915q-153 0 -260 -110q-104 -107 -104 -273q0 -164 104 -274q108 -108 260 -108q155 0 260 108q107 110 107 274
q0 166 -107 273q-104 110 -260 110z" />
    <glyph glyph-name="uni0441" unicode="&#x441;" horiz-adv-x="1226" 
d="M1153 766l-172 -51q-48 93 -137 146.5t-199 53.5q-161 0 -268 -110q-109 -109 -109 -273q0 -162 109 -274q108 -108 268 -108q110 0 199 53.5t137 146.5l172 -51q-66 -149 -201.5 -235.5t-306.5 -86.5q-236 0 -397 158q-158 161 -158 397q0 238 158 396q159 159 397 159
q171 0 306.5 -86t201.5 -235z" />
    <glyph glyph-name="uni0442" unicode="&#x442;" horiz-adv-x="1040" 
d="M434 0v899h-399v166h971v-166h-400v-899h-172z" />
    <glyph glyph-name="uni0443" unicode="&#x443;" horiz-adv-x="1089" 
d="M389 -125l64 156l-424 1034h178l334 -827l344 827h178l-524 -1247q-60 -146 -153 -212.5t-236 -66.5h-50v166h50q168 0 239 170z" />
    <glyph glyph-name="uni0444" unicode="&#x444;" horiz-adv-x="1609" 
d="M956 -23q-44 0 -65 3v-441h-172v441q-21 -3 -66 -3q-236 0 -397 158q-160 160 -160 397q0 239 160 396q159 159 397 159q52 0 66 -2v451h172v-451q14 2 65 2q240 0 396 -159q159 -156 159 -396q0 -238 -159 -397q-158 -158 -396 -158zM653 915q-163 0 -270 -110
q-109 -109 -109 -273q0 -162 109 -274q108 -108 270 -108q4 0 66 4v757q-62 4 -66 4zM956 915q-11 0 -65 -4v-757q54 -4 65 -4q161 0 269 108q108 111 108 274q0 165 -108 273q-107 110 -269 110z" />
    <glyph glyph-name="uni0445" unicode="&#x445;" horiz-adv-x="1112" 
d="M868 0l-311 408l-313 -408h-205l416 545l-398 520h205l295 -383l293 383h205l-396 -520l414 -545h-205z" />
    <glyph glyph-name="uni0446" unicode="&#x446;" horiz-adv-x="1337" 
d="M145 0v1065h172v-899h607v899h172v-899h196v-473h-172v307h-975z" />
    <glyph glyph-name="uni0447" unicode="&#x447;" horiz-adv-x="1136" 
d="M94 729v336h178v-336q0 -80 62 -127t178 -47q80 0 307 25v485h172v-1065h-172v414q-227 -25 -319 -25q-184 0 -297 96q-109 95 -109 244z" />
    <glyph glyph-name="uni0448" unicode="&#x448;" horiz-adv-x="1785" 
d="M145 0v1065h172v-899h490v899h172v-899h487v899h172v-1065h-1493z" />
    <glyph glyph-name="uni0449" unicode="&#x449;" horiz-adv-x="1880" 
d="M145 1065h172v-899h490v899h172v-899h487v899h172v-899h197v-473h-172v307h-1518v1065z" />
    <glyph glyph-name="uni044A" unicode="&#x44a;" horiz-adv-x="1361" 
d="M420 0v899h-385v166h557v-385h354q150 0 244 -98q98 -94 98 -242q0 -146 -98 -244q-96 -96 -244 -96h-526zM946 514h-354v-348h354q69 0 116.5 50.5t47.5 123.5t-47.5 123.5t-116.5 50.5z" />
    <glyph glyph-name="uni044B" unicode="&#x44b;" horiz-adv-x="1505" 
d="M672 0h-527v1065h172v-385h355q148 0 246 -98q98 -94 98 -242q0 -139 -89 -233.5t-229 -106.5h-26zM1360 0h-172v1065h172v-1065zM672 514h-355v-348h355q69 0 117.5 50.5t48.5 123.5t-48.5 123.5t-117.5 50.5z" />
    <glyph glyph-name="uni044C" unicode="&#x44c;" horiz-adv-x="1089" 
d="M672 0h-527v1065h172v-385h355q141 0 235 -88q97 -91 109 -225q0 -163 -93 -265t-251 -102zM317 514v-348h355q69 0 117.5 50.5t48.5 123.5t-48.5 123.5t-117.5 50.5h-355z" />
    <glyph glyph-name="uni044D" unicode="&#x44d;" horiz-adv-x="1226" 
d="M74 299l172 51q47 -94 135.5 -147t198.5 -53q142 0 245 86q104 90 125 227h-483v158h481q-29 131 -130.5 212.5t-237.5 81.5q-110 0 -198.5 -53t-135.5 -147l-172 51q63 148 199 234.5t307 86.5q238 0 397 -159q160 -157 160 -396q0 -237 -160 -397q-161 -158 -397 -158
q-171 0 -307 87t-199 235z" />
    <glyph glyph-name="uni044E" unicode="&#x44e;" horiz-adv-x="1734" 
d="M145 0v1065h172v-440h242q30 202 180 331q149 131 361 131q233 0 389 -159q156 -156 156 -396q0 -238 -156 -397q-158 -158 -389 -158q-216 0 -367 136q-152 137 -176 346h-240v-459h-172zM1362 805q-104 110 -262 110t-262 -110q-105 -108 -105 -273q0 -163 105 -274
q105 -108 262 -108t262 108q104 110 104 274q0 166 -104 273z" />
    <glyph glyph-name="uni044F" unicode="&#x44f;" horiz-adv-x="1171" 
d="M573 387l-270 -387h-203l275 393q-119 25 -194 117.5t-75 216.5q0 145 97 242q101 96 243 96h580v-1065h-172v387h-281zM446 553h408v346h-408q-69 0 -115 -49t-46 -123t46 -124t115 -50z" />
    <glyph glyph-name="uni0450" unicode="&#x450;" horiz-adv-x="1261" 
d="M1184 473h-916q18 -145 127 -240q107 -94 262 -94q201 0 316 154l168 -53q-74 -123 -202 -193t-282 -70q-239 0 -405 158q-162 158 -162 397q0 238 158 396q156 159 391 159t391 -159q158 -158 158 -396q0 -5 -4 -59zM270 612h740q-24 140 -129 228q-104 88 -246 88
q-139 0 -240 -88q-101 -87 -125 -228zM717 1227l-395 194l81 154l375 -242z" />
    <glyph glyph-name="uni0451" unicode="&#x451;" horiz-adv-x="1261" 
d="M1184 473h-916q18 -145 127 -240q107 -94 262 -94q201 0 316 154l168 -53q-74 -123 -202 -193t-282 -70q-239 0 -405 158q-162 158 -162 397q0 238 158 396q156 159 391 159t391 -159q158 -158 158 -396q0 -5 -4 -59zM270 612h740q-24 140 -129 228q-104 88 -246 88
q-139 0 -240 -88q-101 -87 -125 -228zM315 1337q0 49 32.5 81t82.5 32t82.5 -32t32.5 -81q5 -71 -55 -100t-120 0t-55 100zM741 1337q0 49 32.5 81t82.5 32t82.5 -32t32.5 -81q5 -71 -55 -100t-120 0t-55 100z" />
    <glyph glyph-name="uni0452" unicode="&#x452;" horiz-adv-x="1271" 
d="M317 1536v-186h400v-133h-400v-330q126 200 381 200q187 0 310 -120q122 -119 122 -303v-811q0 -134 -90 -224t-223 -90h-86v166h74q66 0 109.5 48t43.5 120v745q0 130 -88 218t-219 88q-141 0 -237 -90q-97 -91 -97 -220v-614h-172v1217h-125v133h125v186h172z" />
    <glyph glyph-name="uni0453" unicode="&#x453;" horiz-adv-x="866" 
d="M317 899v-899h-172v1065h686v-166h-514zM805 1421l-395 -194l-62 106l375 242z" />
    <glyph glyph-name="uni0454" unicode="&#x454;" horiz-adv-x="1226" 
d="M645 -23q-236 0 -397 158q-158 161 -158 397q0 238 158 396q159 159 397 159q171 0 306.5 -86t201.5 -235l-172 -51q-48 93 -137 146.5t-199 53.5q-136 0 -236.5 -81.5t-129.5 -212.5h520v-158h-525q21 -137 125 -227q106 -86 246 -86q110 0 199 53.5t137 146.5l172 -51
q-66 -149 -201.5 -235.5t-306.5 -86.5z" />
    <glyph glyph-name="uni0455" unicode="&#x455;" horiz-adv-x="976" 
d="M868 834l-161 -29q-17 61 -78 96t-152 35q-89 0 -147 -38.5t-58 -100.5q0 -85 113 -125l260 -92q244 -89 244 -291q0 -145 -111.5 -228.5t-288.5 -83.5q-170 0 -279 75t-132 204l162 29q18 -70 85.5 -113t168.5 -43q99 0 165 43.5t66 110.5q0 95 -141 145l-254 88
q-224 76 -224 268q0 143 105.5 223t277.5 80q154 0 255 -67.5t124 -185.5z" />
    <glyph glyph-name="uni0456" unicode="&#x456;" horiz-adv-x="462" 
d="M317 0h-172v1065h172v-1065zM145 1239q-32 35 -32 86.5t32 83.5q35 35 86 35t86 -35q35 -32 35 -83.5t-35 -86.5q-35 -32 -86 -32t-86 32z" />
    <glyph glyph-name="uni0457" unicode="&#x457;" horiz-adv-x="462" 
d="M317 0h-172v1065h172v-1065zM-76 1337q0 49 32.5 81t82.5 32t82.5 -32t32.5 -81t-32.5 -81.5t-82.5 -32.5t-82.5 31.5t-32.5 82.5zM309 1337q0 49 32.5 81t82.5 32t82.5 -32t32.5 -81q5 -71 -55 -100t-120 0t-55 100z" />
    <glyph glyph-name="uni0458" unicode="&#x458;" horiz-adv-x="479" 
d="M162 1065h172v-1212q0 -134 -90 -224t-224 -90h-86v166h74q66 0 110 48t44 120v1192zM162 1239q-35 35 -35 86.5t35 83.5q35 35 86.5 35t83.5 -35q35 -32 35 -83.5t-35 -86.5q-32 -32 -83.5 -32t-86.5 32z" />
    <glyph glyph-name="uni0459" unicode="&#x459;" horiz-adv-x="1851" 
d="M115 0h-70v166h57q154 0 154 336v563h825v-385h353q151 0 245 -98q99 -94 99 -242q0 -145 -99 -244q-96 -96 -245 -96h-525v899h-481v-430q0 -233 -83 -351t-230 -118zM1434 514h-353v-348h353q69 0 117 50.5t48 123.5t-48 123.5t-117 50.5z" />
    <glyph glyph-name="uni045A" unicode="&#x45a;" horiz-adv-x="1894" 
d="M317 487v-487h-172v1065h172v-414h635v414h172v-414h355q148 0 243 -92q99 -91 99 -231q0 -142 -99 -236q-95 -92 -243 -92h-527v487h-635zM1479 487h-355v-321h355q69 0 116 46.5t47 115.5q0 67 -47 113t-116 46z" />
    <glyph glyph-name="uni045B" unicode="&#x45b;" horiz-adv-x="1271" 
d="M317 1536v-186h400v-133h-400v-330q126 200 381 200q187 0 310 -120q122 -119 122 -303v-664h-172v618q0 130 -88 218t-219 88q-141 0 -237 -90q-97 -91 -97 -220v-614h-172v1217h-125v133h125v186h172z" />
    <glyph glyph-name="uni045C" unicode="&#x45c;" horiz-adv-x="1075" 
d="M825 0l-479 551l438 514h211l-436 -514l481 -551h-215zM317 1065v-1065h-172v1065h172zM858 1421l-395 -194l-60 106l373 242z" />
    <glyph glyph-name="uni045D" unicode="&#x45d;" horiz-adv-x="1273" 
d="M954 776l-663 -776h-146v1065h172v-780l664 780h145v-1065h-172v776zM768 1333l-61 -106l-396 194l82 154z" />
    <glyph glyph-name="uni045E" unicode="&#x45e;" horiz-adv-x="1089" 
d="M453 31l-424 1034h178l334 -827l344 827h178l-524 -1247q-60 -146 -153 -212.5t-236 -66.5h-50v166h50q168 0 239 170zM207 1511h145q0 -75 55 -124.5t140 -49.5q82 0 137 49.5t55 124.5h146q0 -134 -97 -225q-94 -88 -241 -88q-146 0 -244 88q-96 90 -96 225z" />
    <glyph glyph-name="uni045F" unicode="&#x45f;" horiz-adv-x="1243" 
d="M145 0v1065h172v-899h607v899h172v-1065h-391v-307h-173v307h-387z" />
    <glyph glyph-name="uni0490" unicode="&#x490;" horiz-adv-x="1091" 
d="M344 1262v-1262h-184v1434h690v311h186v-483h-692z" />
    <glyph glyph-name="uni0491" unicode="&#x491;" horiz-adv-x="860" 
d="M317 899v-899h-172v1065h508v268h172v-434h-508z" />
    <glyph glyph-name="uni04D8" unicode="&#x4d8;" horiz-adv-x="1687" 
d="M844 1456q315 0 528 -213t213 -526q0 -316 -213 -529q-211 -211 -528 -211q-316 0 -527 211q-213 213 -213 529q0 38 5 78h1277q-27 210 -178 346q-149 137 -364 137q-136 0 -251.5 -58t-189.5 -163l-184 69q101 155 265 242.5t360 87.5zM844 156q211 0 360 131
q151 133 178 336h-1075q27 -203 178 -336q149 -131 359 -131z" />
    <glyph glyph-name="uni04D9" unicode="&#x4d9;" horiz-adv-x="1261" 
d="M78 592h915q-18 144 -127 239q-111 97 -262 97q-201 0 -315 -156l-168 53q74 122 201.5 192t281.5 70q242 0 406 -159q161 -154 161 -396q0 -237 -157 -397q-158 -158 -391 -158q-234 0 -392 158q-157 160 -157 397q0 32 4 60zM991 453h-739q24 -139 127 -228
q106 -86 246 -86q136 0 239 86q103 89 127 228z" />
    <glyph glyph-name="Wgrave" unicode="&#x1e80;" horiz-adv-x="2078" 
d="M676 0h-148l-493 1434h190l375 -1139l367 1139h147l367 -1135l374 1135h189l-492 -1434h-149l-363 1114zM1174 1673l-60 -104l-395 194l82 154z" />
    <glyph glyph-name="wgrave" unicode="&#x1e81;" horiz-adv-x="1597" 
d="M391 0l-362 1065h174l260 -799l260 799h151l261 -801l262 801h174l-365 -1065h-149l-258 778l-258 -778h-150zM559 1575l375 -242l-62 -106l-393 194z" />
    <glyph glyph-name="Wacute" unicode="&#x1e82;" horiz-adv-x="2078" 
d="M676 0h-148l-493 1434h190l375 -1139l367 1139h147l367 -1135l374 1135h189l-492 -1434h-149l-363 1114zM1358 1763l-395 -194l-60 104l373 244z" />
    <glyph glyph-name="wacute" unicode="&#x1e83;" horiz-adv-x="1597" 
d="M391 0l-362 1065h174l260 -799l260 799h151l261 -801l262 801h174l-365 -1065h-149l-258 778l-258 -778h-150zM1118 1421l-395 -194l-59 106l372 242z" />
    <glyph glyph-name="Wdieresis" unicode="&#x1e84;" horiz-adv-x="2078" 
d="M676 0h-148l-493 1434h190l375 -1139l367 1139h147l367 -1135l374 1135h189l-492 -1434h-149l-363 1114zM1251 1792q50 0 83.5 -33t33.5 -82t-33.5 -81.5t-83.5 -32.5q-48 0 -81 32.5t-33 81.5t33 82t81 33zM827 1792q48 0 81.5 -33t33.5 -82t-33.5 -81.5t-81.5 -32.5
q-49 0 -81.5 32.5t-32.5 81.5q0 50 32.5 82.5t81.5 32.5z" />
    <glyph glyph-name="wdieresis" unicode="&#x1e85;" horiz-adv-x="1597" 
d="M541 0h-150l-362 1065h174l260 -799l260 799h151l261 -801l262 801h174l-365 -1065h-149l-258 778zM897 1337q0 49 32.5 81t82.5 32t82 -32t32 -81q5 -71 -55 -100t-119.5 0t-54.5 100zM471 1337q0 49 33 81t84 32q48 0 80 -32t32 -81q0 -50 -32 -82t-80 -32
q-51 0 -84 31.5t-33 82.5z" />
    <glyph glyph-name="Germandbls" unicode="&#x1e9e;" horiz-adv-x="1372" 
d="M338 905v-905h-178v907q0 226 155 375q158 152 392 152h538v-123l-280 -400q138 -38 225 -159q92 -121 92 -275q0 -213 -174 -356q-172 -144 -424 -144l2 179q169 0 291 90q121 92 121 233q0 135 -117 230q-113 94 -295 94l322 459h-306q-154 0 -260 -103
q-104 -101 -104 -254z" />
    <glyph glyph-name="Ygrave" unicode="&#x1ef2;" horiz-adv-x="1374" 
d="M592 0v584l-557 850h213l436 -674l440 674h213l-559 -842v-592h-186zM821 1673l-59 -104l-395 194l82 154z" />
    <glyph glyph-name="ygrave" unicode="&#x1ef3;" horiz-adv-x="1089" 
d="M453 31l-424 1034h178l334 -827l344 827h178l-524 -1247q-60 -146 -153 -212.5t-236 -66.5h-50v166h50q168 0 239 170zM618 1227l-395 194l82 154l375 -242z" />
    <glyph glyph-name="figuredash" unicode="&#x2012;" horiz-adv-x="1228" 
d="M137 637v160h955v-160h-955z" />
    <glyph glyph-name="endash" unicode="&#x2013;" horiz-adv-x="1228" 
d="M137 453v159h955v-159h-955z" />
    <glyph glyph-name="emdash" unicode="&#x2014;" horiz-adv-x="2048" 
d="M137 453v159h1774v-159h-1774z" />
    <glyph glyph-name="quoteleft" unicode="&#x2018;" horiz-adv-x="448" 
d="M94 1270q0 56 20.5 109t47 86.5t59 62t48 38.5t22.5 13l55 -57q-12 -9 -31 -31q-23 -27 -45 -68q-27 -47 -24 -84q45 -6 75.5 -40.5t30.5 -81.5q0 -51 -36 -86t-87 -35q-60 0 -97.5 48t-37.5 126z" />
    <glyph glyph-name="quoteright" unicode="&#x2019;" horiz-adv-x="448" 
d="M356 1386q0 -178 -188 -305l-8 -6l-58 60q15 11 29 28q23 27 47 68q30 54 27 86q-44 5 -75.5 40.5t-31.5 82.5q0 51 34.5 85t88.5 34q60 0 97.5 -47.5t37.5 -125.5z" />
    <glyph glyph-name="quotesinglbase" unicode="&#x201a;" horiz-adv-x="448" 
d="M356 47q0 -55 -20.5 -107.5t-47 -86t-58.5 -62t-48 -39.5t-22 -14l-58 57q15 11 29 31q22 22 47 68q30 51 27 83q-45 6 -76 42t-31 83q0 51 34.5 85t88.5 34q60 0 97.5 -48t37.5 -126z" />
    <glyph glyph-name="quotereversed" unicode="&#x201b;" horiz-adv-x="448" 
d="M94 1393q0 75 37.5 120.5t97.5 45.5q54 0 88.5 -34t34.5 -85q0 -47 -31 -82.5t-75 -40.5q-1 -30 21.5 -70t51.5 -67l27 -25l-55 -59l-8 6q-189 124 -189 291z" />
    <glyph glyph-name="quotedblleft" unicode="&#x201c;" horiz-adv-x="780" 
d="M424 1270q0 56 20.5 109t47 86.5t59 62t48 38.5t22.5 13l55 -57q-12 -9 -31 -31q-23 -27 -45 -68q-28 -48 -25 -84q45 -6 76 -40.5t31 -81.5q0 -51 -36 -86t-87 -35q-60 0 -97.5 48t-37.5 126zM94 1270q0 56 20.5 109t47 86.5t59 62t48 38.5t22.5 13l55 -57
q-12 -9 -31 -31q-23 -27 -45 -68q-27 -47 -24 -84q45 -6 75.5 -40.5t30.5 -81.5q0 -51 -36 -86t-87 -35q-60 0 -97.5 48t-37.5 126z" />
    <glyph glyph-name="quotedblright" unicode="&#x201d;" horiz-adv-x="780" 
d="M356 1386q0 -178 -188 -305l-8 -6l-58 60q15 11 29 28q23 27 47 68q30 54 27 86q-44 5 -75.5 40.5t-31.5 82.5q0 51 34.5 85t88.5 34q60 0 97.5 -47.5t37.5 -125.5zM686 1386q0 -50 -16 -97.5t-39 -80.5t-51 -61.5t-48.5 -43.5t-35.5 -22l-7 -6l-55 60q15 11 29 28
q17 20 45 68q30 54 27 86q-44 5 -75.5 40.5t-31.5 82.5q0 51 34.5 85t88.5 34q60 0 97.5 -47.5t37.5 -125.5z" />
    <glyph glyph-name="quotedblbase" unicode="&#x201e;" horiz-adv-x="780" 
d="M356 47q0 -55 -20.5 -107.5t-47 -86t-58.5 -62t-48 -39.5t-22 -14l-58 57q15 11 29 31q22 22 47 68q30 51 27 83q-45 6 -76 42t-31 83q0 51 34.5 85t88.5 34q60 0 97.5 -48t37.5 -126zM686 47q0 -55 -20.5 -107.5t-47 -86t-58.5 -62.5t-48.5 -39.5t-22.5 -13.5l-55 57
q15 11 29 31q17 17 45 68q30 51 27 83q-45 6 -76 42t-31 83q0 51 34.5 85t88.5 34q60 0 97.5 -48t37.5 -126z" />
    <glyph glyph-name="uni201F" unicode="&#x201f;" horiz-adv-x="780" 
d="M424 1393q0 75 37.5 120.5t97.5 45.5q54 0 88.5 -34t34.5 -85q0 -47 -31.5 -82.5t-75.5 -40.5q-1 -30 22 -69.5t52 -67.5l27 -25l-55 -59l-7 6q-20 10 -47.5 31.5t-62 57.5t-57.5 89.5t-23 112.5zM94 1393q0 75 37.5 120.5t97.5 45.5q54 0 88.5 -34t34.5 -85
q0 -47 -31 -82.5t-75 -40.5q-1 -30 21.5 -70t51.5 -67l27 -25l-55 -59l-8 6q-189 124 -189 291z" />
    <glyph glyph-name="dagger" unicode="&#x2020;" horiz-adv-x="970" 
d="M55 870v140h359v424h145v-424h356v-140h-356v-1075h-145v1075h-359z" />
    <glyph glyph-name="daggerdbl" unicode="&#x2021;" horiz-adv-x="970" 
d="M414 219h-359v139h359v512h-359v140h359v424h145v-424h356v-140h-356v-512h356v-139h-356v-424h-145v424z" />
    <glyph glyph-name="bullet" unicode="&#x2022;" horiz-adv-x="688" 
d="M344 778q105 0 175.5 -70.5t70.5 -175.5t-70.5 -175t-175.5 -70q-106 0 -176 69.5t-70 175.5t70 176t176 70z" />
    <glyph glyph-name="ellipsis" unicode="&#x2026;" horiz-adv-x="1323" 
d="M344 100q0 -54 -34.5 -88.5t-88.5 -34.5t-88.5 34.5t-34.5 88.5t34.5 88.5t88.5 34.5q53 0 88 -35.5t35 -87.5zM539 100q0 51 36 87t87 36t86.5 -36t35.5 -87q0 -54 -34 -88.5t-88 -34.5t-88.5 34.5t-34.5 88.5zM979 100q0 52 35 87.5t88 35.5q54 0 89.5 -34.5
t35.5 -88.5t-35.5 -88.5t-89.5 -34.5t-88.5 34.5t-34.5 88.5z" />
    <glyph glyph-name="perthousand" unicode="&#x2030;" horiz-adv-x="2471" 
d="M315 0l-90 76l1133 1358l92 -78zM424 1456q150 0 250 -100q100 -97 100 -248q0 -150 -100 -250q-101 -98 -250 -98q-147 0 -248 98q-100 100 -100 250q0 151 100 248q100 100 248 100zM424 913q85 0 139.5 55t54.5 140t-54.5 140t-139.5 55q-82 0 -137.5 -56.5
t-55.5 -138.5t55.5 -138.5t137.5 -56.5zM899 326q0 146 98 247q101 101 250 101q150 0 248 -101q100 -100 100 -247q0 -150 -100 -250q-99 -99 -248 -99q-148 0 -250 99q-98 101 -98 250zM1247 131q82 0 138.5 55.5t56.5 137.5q0 84 -56.5 140t-138.5 56q-85 0 -139.5 -54.5
t-54.5 -139.5t54.5 -140t139.5 -55zM1700 326q0 147 100 247q101 101 248 101q150 0 248 -101q100 -100 100 -247q0 -150 -100 -250q-99 -99 -248 -99q-146 0 -248 99q-100 100 -100 250zM2243 324q0 84 -56.5 140t-138.5 56q-83 0 -139 -55t-56 -139t56.5 -139.5
t138.5 -55.5t138.5 55.5t56.5 137.5z" />
    <glyph glyph-name="guilsinglleft" unicode="&#x2039;" horiz-adv-x="663" 
d="M457 152l-381 380l381 381l102 -102l-278 -279l278 -278z" />
    <glyph glyph-name="guilsinglright" unicode="&#x203a;" horiz-adv-x="663" 
d="M207 913l381 -381l-381 -380l-103 102l279 278l-279 279z" />
    <glyph glyph-name="fraction" unicode="&#x2044;" horiz-adv-x="1157" 
d="M147 0h-147l1010 1434h147z" />
    <glyph glyph-name="Euro" unicode="&#x20ac;" horiz-adv-x="1734" 
d="M256 821h-201v133h232q70 225 260 365q189 137 442 137q209 0 381 -100t266 -273l-178 -67q-73 123 -195.5 192.5t-273.5 69.5q-168 0 -301.5 -87.5t-200.5 -236.5h551v-133h-589q-7 -43 -7 -104.5t7 -104.5h589v-133h-551q67 -149 200 -236t302 -87q151 0 273.5 69.5
t195.5 192.5l178 -68q-94 -173 -266 -273t-381 -100q-252 0 -442 138q-191 140 -260 364h-232v133h201q-12 104 0 209z" />
    <glyph glyph-name="uni20B4" unicode="&#x20b4;" horiz-adv-x="1312" 
d="M197 504h-111v133h240q64 43 84 53q28 14 125 62l96 47h-545v131h784q109 71 109 151t-88 138q-86 59 -209 59q-117 0 -203.5 -56t-105.5 -139l-185 54q38 141 172 229q137 90 324 90q210 0 342 -106q137 -104 137 -250q0 -91 -73 -170h141v-131h-293q-54 -33 -170 -90
q-102 -47 -150 -72h613v-133h-825q-76 -64 -76 -135q0 -86 96 -152q94 -61 238 -61q139 0 237.5 62.5t116.5 156.5l184 -56q-41 -152 -186 -245q-148 -97 -350 -97q-225 0 -373 109q-148 112 -148 270q0 78 52 148z" />
    <glyph glyph-name="uni2113" unicode="&#x2113;" horiz-adv-x="993" 
d="M254 442l-164 -71v180q70 27 164 76v542q0 169 88 279q88 111 223 111q137 0 226 -111q92 -109 92 -270q0 -350 -457 -639v-246q0 -64 36 -103.5t97 -39.5q51 0 101 31.5t77 68.5l25 35l106 -105q-36 -45 -61 -71q-128 -132 -264 -132q-123 0 -207 93q-82 94 -82 231v141
zM426 1178v-445q285 205 285 436q0 92 -42 154.5t-104 62.5q-61 0 -100 -58.5t-39 -149.5z" />
    <glyph glyph-name="uni2116" unicode="&#x2116;" horiz-adv-x="2306" 
d="M338 1114v-1114h-178v1434h162l886 -1115v1115h178v-1434h-161zM2097 897q-92 -92 -231 -92t-234 92q-94 94 -94 233q0 141 94 232q94 94 234 94t231 -94q92 -92 92 -232q0 -138 -92 -233zM1866 958q72 0 121 49.5t49 122.5t-49 123t-121 50q-74 0 -124 -50t-50 -123
t50 -122.5t124 -49.5zM2177 494h-625v151h625v-151z" />
    <glyph glyph-name="uni2117" unicode="&#x2117;" horiz-adv-x="1671" 
d="M317 199q-213 216 -213 518q0 303 213 516q215 215 519 215t516 -215q215 -212 215 -516q0 -303 -215 -518q-213 -213 -516 -213t-519 213zM1487 717q0 271 -193 461q-190 190 -458 190t-461 -190q-191 -191 -191 -461q0 -267 191 -461q193 -190 461 -190t458 190
q193 193 193 461zM721 338h-117v758h334q109 0 182.5 -69.5t73.5 -172.5t-74 -174q-73 -70 -182 -70h-217v-272zM938 987h-217v-266h217q57 0 96 38t39 95t-39 95t-96 38z" />
    <glyph glyph-name="trademark" unicode="&#x2122;" horiz-adv-x="1593" 
d="M858 717h-104v717h104l281 -490l280 490h103v-717h-103v528l-248 -442h-67l-246 436v-522zM283 717v618h-260v99h624v-99h-260v-618h-104z" />
    <glyph glyph-name="estimated" unicode="&#x212e;" horiz-adv-x="1671" 
d="M1567 717h-1135v-508q179 -141 404 -141q182 0 335 93t240 255h90q-89 -197 -270 -314q-180 -116 -395 -116q-301 0 -517 213q-215 215 -215 518t213 516q215 215 519 215t516 -215q215 -212 215 -516zM432 1225v-426h807v426q-179 141 -403 141q-226 0 -404 -141z" />
    <glyph glyph-name="uni2150" unicode="&#x2150;" horiz-adv-x="1654" 
d="M248 645v651l-158 -79l-43 96l236 121h79v-789h-114zM1337 1434l-1007 -1434h-156l1008 1434h155zM1198 0l289 684h-412v104h533v-110l-283 -678h-127z" />
    <glyph glyph-name="uni2151" unicode="&#x2151;" horiz-adv-x="1665" 
d="M1325 381q74 0 123 42.5t49 108.5t-49.5 111t-122.5 45q-72 0 -121 -43.5t-49 -109.5t49 -110t121 -44zM1044 133l101 47q54 -78 164 -78q84 0 138 47t54 117v111q-58 -107 -186 -107q-117 0 -199 76q-80 77 -80 189q0 113 82 186q82 76 207 76q122 0 205 -74
q84 -75 84 -182v-273q0 -119 -88 -198q-87 -78 -215 -78q-88 0 -159 37.5t-108 103.5zM248 645v651l-158 -79l-43 96l236 121h79v-789h-114zM1337 1434l-1007 -1434h-156l1008 1434h155z" />
    <glyph glyph-name="uni2152" unicode="&#x2152;" horiz-adv-x="2230" 
d="M1686 518v-248q0 -72 53 -120t131 -48t132 48t54 120v248q0 72 -54 121t-132 49t-131 -49t-53 -121zM1276 0v651l-158 -80l-43 97l234 120h80v-788h-113zM1571 272v244q0 119 86 199q85 82 213 82q129 0 215 -80t86 -201v-244q0 -120 -86 -200t-215 -80q-127 0 -213 80
q-86 83 -86 200zM248 645v651l-158 -79l-43 96l236 121h79v-789h-114zM1337 1434l-1007 -1434h-156l1008 1434h155z" />
    <glyph glyph-name="onethird" unicode="&#x2153;" horiz-adv-x="1660" 
d="M248 645v651l-158 -79l-43 96l236 121h79v-789h-114zM1337 1434l-1007 -1434h-156l1008 1434h155zM1468 569q0 50 -44 84.5t-111 34.5q-121 0 -162 -90l-100 39q33 73 105 116.5t163 43.5q116 0 193 -64.5t77 -161.5q0 -114 -119 -163q66 -25 102 -73t36 -108
q0 -99 -84 -168q-82 -67 -205 -67q-97 0 -171.5 45t-105.5 119l107 39q35 -93 168 -93q74 0 123 37t49 92q0 54 -48 90.5t-120 36.5h-59v88h43q70 0 116.5 34.5t46.5 88.5z" />
    <glyph glyph-name="twothirds" unicode="&#x2154;" horiz-adv-x="1835" 
d="M471 1200q0 55 -45.5 94t-108.5 39q-117 0 -170 -127l-106 51q37 86 110.5 135.5t165.5 49.5q115 0 191 -70q80 -71 80 -168q0 -116 -166 -266l-191 -184h369v-109h-547v82l295 283q123 117 123 190zM502 0h-154l1008 1434h155zM1642 569q0 50 -44.5 84.5t-110.5 34.5
q-121 0 -162 -90l-100 39q33 73 105 116.5t163 43.5q115 0 191.5 -64.5t76.5 -161.5q0 -111 -116 -163q135 -53 135 -181q0 -100 -82 -167.5t-205 -67.5q-97 0 -172.5 45t-106.5 119l107 39q18 -42 63 -67.5t105 -25.5q75 0 124.5 36.5t49.5 92.5q0 54 -49 90.5t-121 36.5
h-57v88h41q72 0 118.5 34.5t46.5 88.5z" />
    <glyph glyph-name="uni2155" unicode="&#x2155;" horiz-adv-x="1671" 
d="M248 645v651l-158 -79l-43 96l236 121h79v-789h-114zM1337 1434l-1007 -1434h-156l1008 1434h155zM1620 254q0 -111 -86 -188q-83 -74 -209 -74q-99 0 -177 50t-110 132l115 33q53 -105 172 -105q74 0 125 43.5t51 106.5q0 66 -54.5 111t-135.5 45h-213l39 380h417v-104
h-323l-19 -172h125q119 0 201 -76q82 -73 82 -182z" />
    <glyph glyph-name="uni2156" unicode="&#x2156;" horiz-adv-x="1845" 
d="M471 1200q0 55 -45.5 94t-108.5 39q-117 0 -170 -127l-106 51q37 86 110.5 135.5t165.5 49.5q115 0 191 -70q80 -71 80 -168q0 -116 -166 -266l-191 -184h369v-109h-547v82l295 283q123 117 123 190zM502 0h-154l1008 1434h155zM1792 254q0 -112 -84 -187t-209 -75
q-99 0 -177 50t-110 132l115 33q47 -105 170 -105q75 0 126.5 43.5t51.5 106.5q0 66 -55 111t-135 45h-213l37 380h420v-104h-326l-17 -172h123q122 0 201 -76q82 -73 82 -182z" />
    <glyph glyph-name="uni2157" unicode="&#x2157;" horiz-adv-x="1871" 
d="M475 1214q0 50 -45 84.5t-111 34.5q-120 0 -161 -90l-101 39q33 73 105.5 116.5t163.5 43.5q115 0 191.5 -64t76.5 -161q0 -111 -117 -164q135 -53 135 -181q0 -100 -81.5 -167.5t-204.5 -67.5q-97 0 -172.5 45t-106.5 119l109 39q35 -92 166 -92q75 0 124.5 36.5
t49.5 92.5q0 54 -48 90.5t-120 36.5h-60v88h41q72 0 119 34t47 88zM528 0h-153l1007 1434h154zM1819 254q0 -110 -84 -188q-83 -74 -211 -74q-99 0 -175.5 49.5t-109.5 132.5l113 33q52 -105 172 -105q75 0 125.5 43.5t50.5 106.5q0 66 -54.5 111t-134.5 45h-215l39 380h420
v-104h-325l-19 -172h125q119 0 201 -76q82 -73 82 -182z" />
    <glyph glyph-name="uni2158" unicode="&#x2158;" horiz-adv-x="1923" 
d="M471 1262l-289 -349h289v349zM471 645v158h-424v110l432 521h107v-521h110v-110h-110v-158h-115zM1589 1434l-1007 -1434h-156l1008 1434h155zM1872 254q0 -111 -86 -188q-83 -74 -209 -74q-99 0 -177 50t-110 132l115 33q53 -105 172 -105q74 0 125 43.5t51 106.5
q0 66 -54.5 111t-135.5 45h-213l39 380h417v-104h-323l-19 -172h125q119 0 201 -76q82 -73 82 -182z" />
    <glyph glyph-name="uni2159" unicode="&#x2159;" horiz-adv-x="1673" 
d="M1511 248q0 62 -49.5 104.5t-122.5 42.5t-122.5 -42.5t-49.5 -104.5t49.5 -104t122.5 -42q74 0 123 41.5t49 104.5zM1612 653l-103 -51q-53 86 -161 86q-80 0 -133.5 -47t-53.5 -119v-110q62 92 189 92q115 0 198 -74q82 -73 82 -182q0 -107 -84 -182q-83 -74 -207 -74
q-126 0 -209 74q-81 72 -81 182v274q0 118 86 195q86 80 213 80q86 0 156.5 -38.5t107.5 -105.5zM248 645v651l-158 -79l-43 96l236 121h79v-789h-114zM1337 1434l-1007 -1434h-156l1008 1434h155z" />
    <glyph glyph-name="uni215A" unicode="&#x215a;" horiz-adv-x="1835" 
d="M1673 248q0 62 -49.5 104.5t-122.5 42.5t-122.5 -42.5t-49.5 -104.5t49.5 -104t122.5 -42q74 0 123 41.5t49 104.5zM1774 653l-103 -51q-53 86 -162 86q-80 0 -132 -47t-52 -119v-110q59 92 186 92q116 0 199 -74q82 -73 82 -182q0 -107 -84 -182q-83 -74 -207 -74
q-126 0 -209 74q-82 73 -82 182v274q0 118 86 195q86 80 213 80q87 0 157.5 -38.5t107.5 -105.5zM625 899q0 -112 -84 -187t-209 -75q-99 0 -177 50t-110 132l115 33q46 -104 170 -104q75 0 126.5 43t51.5 106q0 66 -55.5 111t-135.5 45h-213l39 381h418v-105h-323l-19 -172
h123q122 0 201 -76q82 -73 82 -182zM1499 1434l-1007 -1434h-156l1007 1434h156z" />
    <glyph glyph-name="oneeighth" unicode="&#x215b;" horiz-adv-x="1673" 
d="M1157 229q0 -55 48.5 -91t123.5 -36q74 0 123 36t49 91q0 54 -49.5 90.5t-122.5 36.5t-122.5 -36.5t-49.5 -90.5zM1221 655q-41 -31 -41 -80t41 -81q43 -31 108.5 -31t106.5 31q43 32 43 81t-43 80q-41 32 -106.5 32t-108.5 -32zM1061 586q0 91 76.5 151t191.5 60
t191.5 -61t76.5 -152q0 -109 -106 -172q129 -68 129 -193q0 -96 -84 -162q-83 -65 -207 -65q-125 0 -208 65.5t-83 163.5q0 127 129 191q-106 63 -106 174zM248 645v651l-158 -79l-43 96l236 121h79v-789h-114zM1337 1434l-1007 -1434h-156l1008 1434h155z" />
    <glyph glyph-name="threeeighths" unicode="&#x215c;" horiz-adv-x="1871" 
d="M1239 221q0 126 127 191q-106 63 -106 174q0 90 77 149q77 62 191 62q115 0 191.5 -61t76.5 -152q0 -109 -106 -172q129 -64 129 -193q0 -96 -84 -162q-83 -65 -207 -65t-206.5 65.5t-82.5 163.5zM1536 1434l-1008 -1434h-153l1007 1434h154zM326 637q-97 0 -172.5 45
t-106.5 119l109 39q35 -92 166 -92q75 0 124.5 36.5t49.5 92.5q0 54 -48 90.5t-120 36.5h-60v88h41q72 0 119 34t47 88q0 50 -45 84.5t-111 34.5q-120 0 -161 -90l-101 39q33 73 105.5 116.5t163.5 43.5q115 0 191.5 -64t76.5 -161q0 -111 -117 -164q135 -53 135 -181
q0 -100 -81.5 -167.5t-204.5 -67.5zM1356 229q0 -55 49 -91t123 -36t124 36t50 91q0 54 -50 90.5t-124 36.5q-73 0 -122.5 -36.5t-49.5 -90.5zM1528 688q-64 0 -107 -32t-43 -81t43 -80.5t107 -31.5q66 0 108.5 31.5t42.5 80.5t-42.5 81t-108.5 32z" />
    <glyph glyph-name="fiveeighths" unicode="&#x215d;" horiz-adv-x="1835" 
d="M1382 655q-41 -31 -41 -80t41 -81q43 -31 108.5 -31t106.5 31q43 32 43 81t-43 80q-41 32 -106.5 32t-108.5 -32zM1319 229q0 -55 49 -91t123 -36t123 36t49 91q0 54 -49.5 90.5t-122.5 36.5t-122.5 -36.5t-49.5 -90.5zM1223 586q0 91 76.5 151t191.5 60t191.5 -61
t76.5 -152q0 -109 -106 -172q129 -68 129 -193q0 -96 -84 -162q-83 -65 -207 -65q-125 0 -208 65.5t-83 163.5q0 127 129 191q-106 63 -106 174zM625 899q0 -112 -84 -187t-209 -75q-99 0 -177 50t-110 132l115 33q46 -104 170 -104q75 0 126.5 43t51.5 106q0 66 -55.5 111
t-135.5 45h-213l39 381h418v-105h-323l-19 -172h123q122 0 201 -76q82 -73 82 -182zM1499 1434l-1007 -1434h-156l1007 1434h156z" />
    <glyph glyph-name="seveneighths" unicode="&#x215e;" horiz-adv-x="1740" 
d="M1225 229q0 -55 48.5 -91t123.5 -36q74 0 123 36t49 91q0 54 -49.5 90.5t-122.5 36.5t-122.5 -36.5t-49.5 -90.5zM1288 655q-41 -31 -41 -80t41 -81q43 -31 108.5 -31t106.5 31q43 32 43 81t-43 80q-41 32 -106.5 32t-108.5 -32zM1128 586q0 91 76.5 151t192.5 60
q115 0 191.5 -61t76.5 -152q0 -109 -106 -172q129 -68 129 -193q0 -96 -84 -162q-83 -65 -207 -65q-125 0 -208 65.5t-83 163.5q0 127 129 191q-107 64 -107 174zM147 645l289 684h-411v105h532v-111l-283 -678h-127zM1405 1434l-1008 -1434h-155l1007 1434h156z" />
    <glyph glyph-name="uni215F" unicode="&#x215f;" horiz-adv-x="1337" 
d="M248 645v651l-158 -79l-43 96l236 121h79v-789h-114zM1337 1434l-1007 -1434h-156l1008 1434h155z" />
    <glyph glyph-name="arrowleft" unicode="&#x2190;" horiz-adv-x="1402" 
d="M635 219l-498 498l498 497l106 -106l-305 -311h828v-160h-828l305 -311z" />
    <glyph glyph-name="arrowup" unicode="&#x2191;" horiz-adv-x="1400" 
d="M203 782l497 498l498 -498l-104 -106l-314 307v-829h-159v829l-312 -307z" />
    <glyph glyph-name="arrowright" unicode="&#x2192;" horiz-adv-x="1402" 
d="M766 1214l498 -497l-498 -498l-104 107l305 311h-830v160h830l-305 311z" />
    <glyph glyph-name="arrowdown" unicode="&#x2193;" horiz-adv-x="1400" 
d="M1198 651l-498 -497l-497 497l106 107l312 -307v829h159v-829l314 307z" />
    <glyph glyph-name="uni2196" unicode="&#x2196;" horiz-adv-x="1400" 
d="M303 412v704h703v-151l-437 -4l586 -586l-113 -113l-585 586l-4 -436h-150z" />
    <glyph glyph-name="uni2197" unicode="&#x2197;" horiz-adv-x="1400" 
d="M453 1116h702v-704h-149l-5 436l-585 -586l-113 113l586 586l-436 4v151z" />
    <glyph glyph-name="uni2198" unicode="&#x2198;" horiz-adv-x="1400" 
d="M1155 967v-705h-702v150l436 6l-586 586l113 112l585 -588l5 439h149z" />
    <glyph glyph-name="uni2199" unicode="&#x2199;" horiz-adv-x="1400" 
d="M1006 262h-703v705h150l4 -439l585 588l113 -112l-586 -586l437 -6v-150z" />
    <glyph glyph-name="emptyset" unicode="&#x2205;" horiz-adv-x="1687" 
d="M844 1456q194 0 366 -96l70 96h164l-123 -176q125 -106 194.5 -252t69.5 -311q0 -307 -217 -524q-219 -216 -524 -216q-193 0 -367 97l-67 -97h-166l123 175q-124 104 -193.5 251.5t-69.5 313.5q0 304 218 522q217 217 522 217zM453 272l673 965q-133 74 -282 74
q-246 0 -420 -174t-174 -420q0 -263 203 -445zM844 123q246 0 420 174t174 420q0 264 -201 444l-676 -964q133 -74 283 -74z" />
    <glyph glyph-name="product" unicode="&#x220f;" horiz-adv-x="1359" 
d="M338 1268v-1626h-178v1792h1040v-1792h-178v1626h-684z" />
    <glyph glyph-name="summation" unicode="&#x2211;" horiz-adv-x="1040" 
d="M979 -193v-165h-918v139l467 756l-467 757v140h918v-166h-709l453 -731l-453 -730h709z" />
    <glyph glyph-name="minus" unicode="&#x2212;" horiz-adv-x="1228" 
d="M137 637v160h955v-160h-955z" />
    <glyph glyph-name="integral" unicode="&#x222b;" horiz-adv-x="641" 
d="M20 -358v165h62q66 0 108.5 48t42.5 120v1248q0 132 91 223q90 90 223 90h74v-166h-62q-66 0 -109.5 -48t-43.5 -120v-1247q0 -132 -91 -223q-90 -90 -223 -90h-72z" />
    <glyph glyph-name="approxequal" unicode="&#x2248;" horiz-adv-x="1228" 
d="M793 774q-52 -2 -108.5 22t-96 54t-84.5 54t-76 22q-57 0 -95 -40t-38 -100h-158q0 127 86 213q89 86 211 86q94 0 203 -77q107 -76 162 -76q57 0 95 39.5t38 99.5h160q-3 -126 -91 -211q-86 -86 -208 -86zM793 350q-52 -2 -108.5 22t-96 54t-84.5 54t-76 22
q-57 0 -95 -40t-38 -100h-158q0 128 86 211q89 86 211 86q97 0 203 -75q107 -76 162 -76q57 0 95 39.5t38 99.5h160q-3 -126 -91 -211q-86 -86 -208 -86z" />
    <glyph glyph-name="notequal" unicode="&#x2260;" horiz-adv-x="1228" 
d="M772 874l-147 -315h467v-158h-539l-119 -254h-160l119 254h-256v158h328l147 315h-475v158h547l119 254h160l-119 -254h248v-158h-320z" />
    <glyph glyph-name="lessequal" unicode="&#x2264;" horiz-adv-x="1228" 
d="M1092 401l-955 404v143l955 408v-174l-711 -305l711 -306v-170zM137 113v159h955v-159h-955z" />
    <glyph glyph-name="greaterequal" unicode="&#x2265;" horiz-adv-x="1228" 
d="M1092 948v-143l-955 -404v170l711 306l-711 305v174zM137 272h955v-159h-955v159z" />
    <glyph glyph-name="uni23F4" unicode="&#x23f4;" horiz-adv-x="790" 
d="M606 272l-504 445l504 444v-889z" />
    <glyph glyph-name="uni23F5" unicode="&#x23f5;" horiz-adv-x="790" 
d="M184 1161l504 -444l-504 -445v889z" />
    <glyph glyph-name="uni23F6" unicode="&#x23f6;" horiz-adv-x="929" 
d="M20 465l445 504l444 -504h-889z" />
    <glyph glyph-name="uni23F7" unicode="&#x23f7;" horiz-adv-x="929" 
d="M909 969l-444 -504l-445 504h889z" />
    <glyph glyph-name="filledbox" unicode="&#x25a0;" horiz-adv-x="1753" 
d="M1593 0h-1433v1434h1433v-1434z" />
    <glyph glyph-name="H22073" unicode="&#x25a1;" horiz-adv-x="1753" 
d="M1593 0h-1433v1434h1433v-1434zM1448 145v1143h-1143v-1143h1143z" />
    <glyph glyph-name="uni25A2" unicode="&#x25a2;" horiz-adv-x="1753" 
d="M1593 0h-1433v1434h1433v-1434zM1448 145v1143h-1143v-1143h1143z" />
    <glyph glyph-name="triagup" unicode="&#x25b2;" horiz-adv-x="1826" 
d="M61 0l852 1475l852 -1475h-1704z" />
    <glyph glyph-name="uni25B3" unicode="&#x25b3;" horiz-adv-x="1826" 
d="M913 1475l852 -1475h-1704zM315 145h1198l-600 1039z" />
    <glyph glyph-name="triagdn" unicode="&#x25bc;" horiz-adv-x="1826" 
d="M1765 1434l-852 -1475l-852 1475h1704z" />
    <glyph glyph-name="uni25BD" unicode="&#x25bd;" horiz-adv-x="1826" 
d="M61 1434h1704l-852 -1475zM913 250l600 1038h-1198z" />
    <glyph glyph-name="uni25C6" unicode="&#x25c6;" horiz-adv-x="1638" 
d="M819 -41l-758 758l758 758l758 -758z" />
    <glyph glyph-name="uni25C7" unicode="&#x25c7;" horiz-adv-x="1638" 
d="M819 -41l-758 758l758 758l758 -758zM819 164l553 553l-553 553l-553 -553z" />
    <glyph glyph-name="lozenge" unicode="&#x25ca;" horiz-adv-x="1056" 
d="M61 717l414 717h107l413 -717l-413 -717h-107zM528 201l297 516l-297 516l-297 -516z" />
    <glyph glyph-name="circle" unicode="&#x25cb;" horiz-adv-x="1687" 
d="M104 717q0 304 218 522q217 217 522 217t522 -217q219 -219 219 -522q0 -307 -217 -524q-219 -216 -524 -216q-303 0 -522 216q-218 218 -218 524zM424 1137q-174 -174 -174 -420t174 -420t420 -174t420 174t174 420t-174 420t-420 174t-420 -174z" />
    <glyph glyph-name="H18533" unicode="&#x25cf;" horiz-adv-x="1687" 
d="M104 717q0 304 218 522q217 217 522 217t522 -217q219 -219 219 -522q0 -307 -217 -524q-219 -216 -524 -216q-303 0 -522 216q-218 218 -218 524z" />
    <glyph glyph-name="uni25D0" unicode="&#x25d0;" horiz-adv-x="1687" 
d="M104 717q0 304 218 522q217 217 522 217t522 -217q219 -219 219 -522q0 -307 -217 -524q-219 -216 -524 -216q-303 0 -522 216q-218 218 -218 524zM844 1311v-1188q246 0 420 174t174 420t-174 420t-420 174z" />
    <glyph glyph-name="uni25D1" unicode="&#x25d1;" horiz-adv-x="1687" 
d="M1585 717q0 -307 -217 -524q-219 -216 -524 -216q-303 0 -522 216q-218 218 -218 524q0 304 218 522q217 217 522 217t522 -217q219 -219 219 -522zM844 123v1188q-246 0 -420 -174t-174 -420t174 -420t420 -174z" />
    <glyph glyph-name="uni25D2" unicode="&#x25d2;" horiz-adv-x="1687" 
d="M844 -23q-304 0 -522 218t-218 522t218 522q217 217 522 217q307 0 524 -217t217 -522t-217 -522q-218 -218 -524 -218zM250 717h1188q0 246 -174 420t-420 174t-420 -174t-174 -420z" />
    <glyph glyph-name="uni25D3" unicode="&#x25d3;" horiz-adv-x="1687" 
d="M844 1456q307 0 524 -217t217 -522t-217 -522q-218 -218 -524 -218q-304 0 -522 218t-218 522t218 522q217 217 522 217zM1438 717h-1188q0 -246 174 -420t420 -174t420 174t174 420z" />
    <glyph glyph-name="uni25D4" unicode="&#x25d4;" horiz-adv-x="1687" 
d="M104 717q0 304 218 522q217 217 522 217t522 -217q219 -219 219 -522q0 -307 -217 -524q-219 -216 -524 -216q-303 0 -522 216q-218 218 -218 524zM1438 717h-594v594q-246 0 -420 -174t-174 -420t174 -420t420 -174t420 174t174 420z" />
    <glyph glyph-name="uni25D5" unicode="&#x25d5;" horiz-adv-x="1687" 
d="M104 717q0 304 218 522q217 217 522 217t522 -217q219 -219 219 -522q0 -307 -217 -524q-219 -216 -524 -216q-303 0 -522 216q-218 218 -218 524zM250 717h594v594q-246 0 -420 -174t-174 -420z" />
    <glyph glyph-name="uni25D6" unicode="&#x25d6;" horiz-adv-x="1003" 
d="M104 717q0 304 218 522q217 217 522 217v-1479q-303 0 -522 216q-218 218 -218 524z" />
    <glyph glyph-name="uni25D7" unicode="&#x25d7;" horiz-adv-x="1003" 
d="M899 717q0 -307 -217 -524q-219 -216 -522 -216v1479q305 0 522 -217t217 -522z" />
    <glyph glyph-name="uni25EF" unicode="&#x25ef;" horiz-adv-x="1687" 
d="M104 717q0 304 218 522q217 217 522 217t522 -217q219 -219 219 -522q0 -307 -217 -524q-219 -216 -524 -216q-303 0 -522 216q-218 218 -218 524zM424 1137q-174 -174 -174 -420t174 -420t420 -174t420 174t174 420t-174 420t-420 174t-420 -174z" />
    <glyph glyph-name="uni2639" unicode="&#x2639;" horiz-adv-x="1617" 
d="M424 938q0 54 36.5 90.5t90.5 36.5q55 0 92 -36.5t37 -90.5q0 -56 -37 -92.5t-92 -36.5q-54 0 -90.5 37t-36.5 92zM942 938q0 54 36.5 90.5t90.5 36.5q55 0 92 -36.5t37 -90.5q0 -56 -37 -92.5t-92 -36.5q-54 0 -90.5 37t-36.5 92zM475 293h-82q0 161 119 268
q121 109 297 109q174 0 295 -109t121 -268h-82q0 125 -96 209t-238 84t-238 -84t-96 -209zM295 203q-213 213 -213 514t213 514t514 213t514 -213t213 -514t-213 -514t-514 -213t-514 213zM350 1176q-190 -190 -190 -459t190 -459t459 -190t459 190t190 459t-190 459
t-459 190t-459 -190z" />
    <glyph glyph-name="smileface" unicode="&#x263a;" horiz-adv-x="1617" 
d="M424 938q0 54 36.5 90.5t90.5 36.5q55 0 92 -36.5t37 -90.5q0 -56 -37 -92.5t-92 -36.5q-54 0 -90.5 37t-36.5 92zM942 938q0 54 36.5 90.5t90.5 36.5q55 0 92 -36.5t37 -90.5q0 -56 -37 -92.5t-92 -36.5q-54 0 -90.5 37t-36.5 92zM393 608h82q0 -125 96 -209t238 -84
t238 84t96 209h82q0 -161 -121 -270q-119 -107 -295 -107q-178 0 -297 107t-119 270zM295 203q-213 213 -213 514t213 514t514 213t514 -213t213 -514t-213 -514t-514 -213t-514 213zM350 1176q-190 -190 -190 -459t190 -459t459 -190t459 190t190 459t-190 459t-459 190
t-459 -190z" />
    <glyph glyph-name="invsmileface" unicode="&#x263b;" horiz-adv-x="1617" 
d="M424 938q0 -55 36.5 -92t90.5 -37q55 0 92 36.5t37 92.5q0 54 -37 90.5t-92 36.5q-54 0 -90.5 -36.5t-36.5 -90.5zM942 938q0 -55 36.5 -92t90.5 -37q55 0 92 36.5t37 92.5q0 54 -37 90.5t-92 36.5q-54 0 -90.5 -36.5t-36.5 -90.5zM475 608h-82q0 -163 119 -270t297 -107
q176 0 295 107q121 109 121 270h-82q0 -125 -96 -209t-238 -84t-238 84t-96 209zM295 203q-213 213 -213 514t213 514t514 213t514 -213t213 -514t-213 -514t-514 -213t-514 213z" />
    <glyph glyph-name="commaaccent" horiz-adv-x="468" 
d="M344 -256q0 -46 -18 -88t-47.5 -72.5t-49.5 -46.5t-41 -29l-10 -6l-45 49l25 21q18 16 39 49.5t20 56.5q-37 4 -62.5 34.5t-25.5 68.5q0 42 29 70t73 28q50 0 81.5 -37t31.5 -98z" />
    <glyph glyph-name="zero.fitted" horiz-adv-x="1228" 
d="M88 483v467q0 217 150 361q151 145 376 145q224 0 375 -145q152 -146 152 -361v-467q0 -214 -152 -360t-375 -146q-224 0 -376 146q-150 144 -150 360zM264 952v-471q0 -143 101 -237t249 -94q149 0 250 94t101 237v471q0 142 -101 236q-104 96 -250 96q-145 0 -249 -96
q-101 -94 -101 -236z" />
    <glyph glyph-name="one.fitted" horiz-adv-x="1228" 
d="M608 1206l-329 -170l-78 158l463 240h122v-1262h344v-172h-866v172h344v1034z" />
    <glyph glyph-name="two.fitted" horiz-adv-x="1228" 
d="M897 1022q0 108 -88 184q-90 78 -213 78q-109 0 -196 -64.5t-130 -175.5l-168 80q67 153 198.5 242.5t295.5 89.5q202 0 344 -127q141 -126 141 -301q0 -115 -71.5 -228.5t-229.5 -260.5l-383 -367h703v-172h-979v133l543 524q127 126 180 204.5t53 160.5z" />
    <glyph glyph-name="three.fitted" horiz-adv-x="1228" 
d="M893 1053q0 100 -88 164q-88 67 -219 67q-108 0 -189 -44t-118 -120l-162 78q61 120 185 189t284 69q210 0 352 -115q141 -114 141 -282q0 -100 -55 -184t-152 -134q111 -52 176.5 -144.5t65.5 -203.5q0 -178 -149 -297t-373 -119q-172 0 -306 77.5t-190 207.5l172 64
q36 -81 122 -128.5t202 -47.5q144 0 239 71q97 72 97 180q0 107 -94 177q-92 71 -232 71h-108v166h77q138 0 230 68t92 170z" />
    <glyph glyph-name="four.fitted" horiz-adv-x="1228" 
d="M825 0v295h-749v172l760 967h168v-965h192v-174h-192v-295h-179zM825 1155l-538 -686h538v686z" />
    <glyph glyph-name="five.fitted" horiz-adv-x="1228" 
d="M596 -23q-173 0 -308.5 85.5t-197.5 232.5l176 51q44 -91 132 -143.5t198 -52.5q145 0 248 86q100 84 100 213q0 132 -104 217q-104 88 -262 88h-383l69 680h750v-166h-600l-35 -348h205q232 0 389 -136q155 -134 155 -335t-153 -336q-154 -136 -379 -136z" />
    <glyph glyph-name="six.fitted" horiz-adv-x="1228" 
d="M1114 1204l-166 -82q-48 76 -129 119t-180 43q-152 0 -256 -96q-102 -94 -102 -236v-180q126 141 346 141t370 -135q152 -137 152 -336q0 -194 -152 -331q-152 -134 -370 -134q-223 0 -375 134q-150 135 -150 335v504q0 216 154 361q157 145 387 145q153 0 278 -67.5
t193 -184.5zM289 446q0 -126 96 -213q100 -83 242 -83q144 0 239 83q97 85 97 209q0 125 -97 213q-95 86 -239 86q-142 0 -242 -86q-96 -84 -96 -209z" />
    <glyph glyph-name="seven.fitted" horiz-adv-x="1228" 
d="M379 0l518 1268h-760v166h948v-174l-512 -1260h-194z" />
    <glyph glyph-name="eight.fitted" horiz-adv-x="1228" 
d="M94 391q0 115 66 209t182 150q-99 51 -154 135t-55 186q0 165 137 275t346 110q205 0 342 -110q140 -113 140 -277q0 -99 -55.5 -183.5t-153.5 -135.5q116 -56 182 -150t66 -209q0 -175 -150 -295q-146 -119 -371 -119q-223 0 -372 119q-150 120 -150 295zM279 408
q0 -110 96 -185q94 -73 241 -73q143 0 238 71q96 75 96 185t-96 182q-95 74 -238 74q-146 0 -241 -74q-96 -72 -96 -180zM317 1057q0 -99 86 -164q87 -66 213 -66q127 0 211 66q86 65 86 164q0 97 -86 162q-83 65 -211 65q-127 0 -213 -65t-86 -162z" />
    <glyph glyph-name="nine.fitted" horiz-adv-x="1228" 
d="M102 238l166 81q44 -78 129 -123.5t189 -45.5q158 0 262 94q106 93 106 235v168q-125 -155 -342 -155q-219 0 -370 139q-150 138 -150 344q0 204 150 342q151 139 370 139q222 0 371 -137q150 -135 150 -338v-502q0 -212 -158 -358q-156 -144 -389 -144q-159 0 -287 69.5
t-197 191.5zM612 664q144 0 238 88q96 90 96 221t-96 221t-238 90q-143 0 -237 -88q-96 -90 -96 -219q0 -133 96 -223t237 -90z" />
    <glyph glyph-name="zero.sup" horiz-adv-x="720" 
d="M59 1020v244q0 118 86 198q88 82 215 82q129 0 215 -80q87 -81 87 -200v-244q0 -120 -87 -201q-86 -80 -215 -80q-126 0 -215 80q-86 83 -86 201zM176 1266v-248q0 -72 53 -120t131 -48t132.5 48t54.5 120v248q0 72 -54.5 121t-132.5 49t-131 -49t-53 -121z" />
    <glyph glyph-name="one.sup" horiz-adv-x="483" 
d="M248 1399l-158 -80l-43 96l236 121h79v-788h-114v651z" />
    <glyph glyph-name="two.sup" horiz-adv-x="655" 
d="M471 1303q0 55 -45.5 94t-108.5 39q-117 0 -170 -127l-106 51q37 86 110.5 135t165.5 49q116 0 191 -69q80 -71 80 -168q0 -117 -166 -267l-191 -184h369v-108h-547v81l295 283q123 117 123 191z" />
    <glyph glyph-name="three.sup" horiz-adv-x="667" 
d="M475 1317q0 50 -45 84.5t-111 34.5q-120 0 -161 -90l-101 38q33 73 105.5 116.5t163.5 43.5q115 0 191.5 -64t76.5 -161q0 -111 -117 -164q135 -53 135 -180q0 -100 -81.5 -168t-204.5 -68q-97 0 -172.5 45t-106.5 119l109 39q35 -92 166 -92q75 0 124.5 36.5t49.5 92.5
q0 54 -48 90.5t-120 36.5h-60v88h41q72 0 119 34.5t47 88.5z" />
    <glyph glyph-name="four.sup" horiz-adv-x="735" 
d="M471 748v157h-424v111l432 520h107v-520h110v-111h-110v-157h-115zM471 1362l-289 -346h289v346z" />
    <glyph glyph-name="five.sup" horiz-adv-x="677" 
d="M625 1001q0 -112 -84 -187t-209 -75q-99 0 -176.5 50t-110.5 133l115 32q46 -104 170 -104q75 0 126.5 43t51.5 106q0 66 -55.5 111t-135.5 45h-213l39 381h418v-104h-323l-19 -172h123q122 0 201 -76q82 -73 82 -183z" />
    <glyph glyph-name="six.sup" horiz-adv-x="688" 
d="M625 1401l-103 -51q-50 86 -160 86q-80 0 -133 -47t-53 -119v-111q62 92 189 92q117 0 196 -73q82 -73 82 -183q0 -107 -84 -182q-83 -74 -205 -74q-126 0 -209 74q-84 75 -84 182v275q0 117 86 194q89 80 215 80q87 0 157.5 -38.5t105.5 -104.5zM354 1143
q-73 0 -122.5 -43t-49.5 -105t49.5 -103.5t122.5 -41.5q72 0 121 41t49 104q0 62 -49 105t-121 43z" />
    <glyph glyph-name="seven.sup" horiz-adv-x="604" 
d="M147 748l289 684h-411v104h532v-111l-283 -677h-127z" />
    <glyph glyph-name="eight.sup" horiz-adv-x="686" 
d="M342 739q-123 0 -206 66t-83 164q0 125 127 190q-104 64 -104 174q0 92 76 150q76 61 190 61q115 0 192.5 -61t77.5 -152q0 -108 -108 -172q129 -65 129 -192q0 -96 -84 -162t-207 -66zM172 977q0 -55 48 -91t122 -36t124 36t50 91q0 54 -50 90.5t-124 36.5
q-73 0 -121.5 -36.5t-48.5 -90.5zM342 1210q66 0 109 32t43 81t-43 81t-109 32q-64 0 -106.5 -32t-42.5 -81t42.5 -81t106.5 -32z" />
    <glyph glyph-name="nine.sup" horiz-adv-x="679" 
d="M57 881l101 47q57 -78 164 -78q85 0 138.5 46t53.5 118v110q-25 -49 -74.5 -77.5t-109.5 -28.5q-117 0 -199 76q-80 77 -80 188q0 113 82 186q82 76 207 76q122 0 205 -74q84 -75 84 -182v-272q0 -120 -88 -199q-87 -78 -215 -78q-88 0 -160 38t-109 104zM217 1171
q50 -43 123.5 -43t120.5 43q49 43 49 109.5t-49 110.5q-45 45 -121 45q-75 0 -123 -45q-49 -43 -49 -109.5t49 -110.5z" />
    <glyph glyph-name="zero.sub" horiz-adv-x="720" 
d="M59 68v243q0 119 86 199q88 82 215 82q129 0 215 -80q87 -81 87 -201v-243q0 -120 -87 -201q-86 -80 -215 -80q-127 0 -215 82q-86 80 -86 199zM176 313v-247q0 -72 53 -121t131 -49t132.5 49t54.5 121v247q0 72 -54.5 121t-132.5 49t-131 -49t-53 -121z" />
    <glyph glyph-name="one.sub" horiz-adv-x="483" 
d="M248 446l-158 -79l-43 96l236 121h79v-789h-114v651z" />
    <glyph glyph-name="two.sub" horiz-adv-x="655" 
d="M471 350q0 55 -45.5 94t-108.5 39q-117 0 -170 -127l-106 52q37 86 110.5 135t165.5 49q115 0 191 -70q80 -71 80 -168q0 -116 -166 -266l-191 -184h369v-109h-547v82l295 283q123 117 123 190z" />
    <glyph glyph-name="three.sub" horiz-adv-x="667" 
d="M475 365q0 50 -45 84t-111 34q-120 0 -161 -90l-101 39q33 73 105.5 116.5t163.5 43.5q115 0 191.5 -64t76.5 -161q0 -111 -117 -164q135 -53 135 -180q0 -100 -81.5 -168t-204.5 -68q-97 0 -172.5 45t-106.5 119l109 39q17 -43 61 -68.5t105 -25.5q75 0 124.5 37.5
t49.5 93.5q0 54 -48 90.5t-120 36.5h-60v88h41q72 0 119 34.5t47 88.5z" />
    <glyph glyph-name="four.sub" horiz-adv-x="735" 
d="M471 -205v158h-424v110l432 521h107v-521h110v-110h-110v-158h-115zM471 410l-289 -347h289v347z" />
    <glyph glyph-name="five.sub" horiz-adv-x="677" 
d="M625 49q0 -112 -84 -187t-209 -75q-99 0 -177 50t-110 132l115 33q23 -50 68 -78t102 -28q75 0 126.5 44t51.5 107q0 66 -55.5 111t-135.5 45h-213l39 381h418v-105h-323l-19 -172h123q122 0 201 -76q82 -73 82 -182z" />
    <glyph glyph-name="six.sub" horiz-adv-x="688" 
d="M625 449l-103 -52q-50 86 -160 86q-80 0 -133 -47t-53 -119v-110q62 92 189 92q116 0 196 -74q82 -73 82 -182q0 -107 -84 -182q-83 -74 -205 -74q-126 0 -209 74q-84 75 -84 182v274q0 118 86 195q89 80 215 80q87 0 157.5 -38.5t105.5 -104.5zM354 190
q-73 0 -122.5 -42.5t-49.5 -104.5t49.5 -104.5t122.5 -42.5q72 0 121 42t49 105q0 62 -49 104.5t-121 42.5z" />
    <glyph glyph-name="seven.sub" horiz-adv-x="604" 
d="M147 -205l289 684h-411v105h532v-111l-283 -678h-127z" />
    <glyph glyph-name="eight.sub" horiz-adv-x="686" 
d="M342 -213q-123 0 -206 65.5t-83 163.5q0 126 127 191q-104 64 -104 174q0 91 76 149q77 62 190 62q115 0 192.5 -61t77.5 -152q0 -107 -108 -172q129 -65 129 -193q0 -98 -83 -162.5t-208 -64.5zM172 25q0 -56 48.5 -92.5t121.5 -36.5q74 0 124 37t50 92q0 54 -50 90.5
t-124 36.5q-73 0 -121.5 -36.5t-48.5 -90.5zM342 258q66 0 109 32t43 81t-43 80.5t-109 31.5q-64 0 -106.5 -31.5t-42.5 -80.5t42.5 -81t106.5 -32z" />
    <glyph glyph-name="nine.sub" horiz-adv-x="679" 
d="M57 -74l101 49q58 -79 164 -79q85 0 138.5 46.5t53.5 118.5v111q-25 -49 -74.5 -77.5t-109.5 -28.5q-118 0 -199 75q-80 77 -80 189q0 113 82 186q82 76 207 76q122 0 205 -74q84 -75 84 -182v-273q0 -120 -88 -196q-86 -80 -215 -80q-87 0 -159.5 38t-109.5 101z
M217 219q49 -43 123 -43t121 43q49 43 49 109t-49 110q-45 45 -121 45q-75 0 -123 -45q-49 -43 -49 -109t49 -110z" />
    <glyph glyph-name="exclamdown.case" horiz-adv-x="503" 
d="M375 1333q0 -51 -36 -87t-87 -36q-39 -4 -70 19t-44 56.5t-7 72t33 63.5q25 27 63.5 33t72 -7t56.5 -44t19 -70zM160 0l18 1006h150l16 -1006h-184z" />
    <glyph glyph-name="questiondown.case" horiz-adv-x="1112" 
d="M262 395q0 -102 90 -174q92 -71 226 -71q110 0 194 51t115 137l176 -51q-45 -138 -177 -224t-304 -86q-212 0 -357 121q-143 119 -143 299q0 70 27 135.5t67 110.5t90.5 83.5t91 60t76.5 34.5l39 15l8 170h150l18 -271q-44 -11 -135 -55q-62 -29 -117 -68
q-56 -40 -95.5 -99t-39.5 -118zM434 1333q0 54 34.5 88.5t88.5 34.5t88.5 -34.5t34.5 -88.5t-34.5 -88.5t-88.5 -34.5q-53 0 -88 35.5t-35 87.5z" />
    <glyph glyph-name="dagger.case" horiz-adv-x="970" 
d="M55 870v140h359v424h145v-424h356v-140h-356v-870h-145v870h-359z" />
    <glyph glyph-name="daggerdbl.case" horiz-adv-x="970" 
d="M414 397h-359v140h359v360h-359v139h359v398h145v-398h356v-139h-356v-360h356v-140h-356v-397h-145v397z" />
    <glyph glyph-name="slash.case" horiz-adv-x="1019" 
d="M160 -205h-160l858 1841h162z" />
    <glyph glyph-name="backslash.case" horiz-adv-x="1019" 
d="M160 1636l860 -1841h-162l-858 1841h160z" />
    <glyph glyph-name="parenleft.case" horiz-adv-x="608" 
d="M381 1604l31 34h161l-34 -41q-22 -28 -74 -116q-58 -98 -97.5 -197.5t-72.5 -249.5q-65 -315 -2 -635q21 -98 51 -185.5t69 -162.5t59.5 -109.5t57.5 -90.5q4 -6 6.5 -9.5t4.5 -7.5l32 -39h-161l-2 2q-170 188 -252 494q-54 208 -54 428q0 164 31 322.5t78 267.5
q42 100 88 179t80 116z" />
    <glyph glyph-name="parenright.case" horiz-adv-x="608" 
d="M66 1599l-31 39h164q37 -37 106 -147q56 -91 94 -184q37 -87 74 -256q33 -152 33 -332q0 -155 -28.5 -308.5t-69.5 -258.5q-43 -108 -89 -183q-52 -92 -73 -119q-32 -40 -45 -53l-2 -2h-164l33 41q24 30 75 117q59 99 98.5 199.5t69.5 246.5q70 309 2 633
q-21 106 -52.5 199t-72 168t-63.5 111.5t-59 88.5z" />
    <glyph glyph-name="bracketleft.case" horiz-adv-x="606" 
d="M227 -207v2h-96v1843h440v-145h-280v-1552h280v-148h-344z" />
    <glyph glyph-name="bracketright.case" horiz-adv-x="606" 
d="M475 -205h-440v146h280v1552h-280v145h440v-1843z" />
    <glyph glyph-name="braceleft.case" horiz-adv-x="661" 
d="M479 1638h148v-145h-135q-54 0 -89.5 -37.5t-35.5 -91.5v-416q0 -91 -49 -150.5t-132 -80.5q82 -21 131.5 -81t49.5 -151v-415q0 -54 36.5 -91.5t90.5 -37.5h133v-146h-148q-117 0 -194.5 79t-77.5 196v415q0 34 -18 63.5t-45 48t-51.5 29.5t-45.5 15l-18 4v148
q31 6 61 18q48 18 82.5 52.5t34.5 84.5v416q0 117 77.5 195.5t194.5 78.5z" />
    <glyph glyph-name="braceright.case" horiz-adv-x="661" 
d="M35 1493v145h149q117 0 193 -79q78 -78 78 -195v-416q0 -51 42 -91t93 -54l45 -10v-148q-22 -4 -64 -20q-47 -18 -81.5 -53.5t-34.5 -86.5v-415q0 -117 -78 -196t-195 -79h-147v146h135q54 0 89.5 37.5t35.5 91.5v415q0 91 50 152t132 80q-83 21 -132.5 80.5t-49.5 150.5
v416q0 56 -35.5 92.5t-89.5 36.5h-135z" />
    <glyph glyph-name="guillemotleft.case" horiz-adv-x="1081" 
d="M457 336l-381 381l381 381l102 -103l-278 -278l278 -279zM877 336l-381 381l381 381l102 -103l-281 -278l281 -279z" />
    <glyph glyph-name="guillemotright.case" horiz-adv-x="1081" 
d="M625 1098l381 -381l-381 -381l-103 102l281 279l-281 278zM207 1098l381 -381l-381 -381l-103 102l279 279l-279 278z" />
    <glyph glyph-name="guilsinglleft.case" horiz-adv-x="663" 
d="M457 336l-381 381l381 381l102 -103l-278 -278l278 -279z" />
    <glyph glyph-name="guilsinglright.case" horiz-adv-x="663" 
d="M207 1098l381 -381l-381 -381l-103 102l279 279l-279 278z" />
    <glyph glyph-name="hyphen.case" horiz-adv-x="819" 
d="M137 637v160h545v-160h-545z" />
    <glyph glyph-name="endash.case" horiz-adv-x="1228" 
d="M137 637v160h955v-160h-955z" />
    <glyph glyph-name="emdash.case" horiz-adv-x="2048" 
d="M137 637v160h1774v-160h-1774z" />
    <glyph glyph-name="bar.case" horiz-adv-x="409" 
d="M279 -205h-148v1843h148v-1843z" />
    <glyph glyph-name="brokenbar.case" horiz-adv-x="409" 
d="M279 1638v-753h-148v753h148zM131 -205v756h148v-756h-148z" />
    <glyph glyph-name="zero.dnom" horiz-adv-x="720" 
d="M59 272v244q0 119 86 199q88 82 215 82q129 0 215 -80q87 -81 87 -201v-244q0 -119 -87 -200q-86 -80 -215 -80q-126 0 -215 80q-86 83 -86 200zM176 518v-248q0 -72 53 -120t131 -48t132.5 48t54.5 120v248q0 72 -54.5 121t-132.5 49t-131 -49t-53 -121z" />
    <glyph glyph-name="one.dnom" horiz-adv-x="483" 
d="M248 651l-158 -80l-43 97l236 120h79v-788h-114v651z" />
    <glyph glyph-name="two.dnom" horiz-adv-x="655" 
d="M471 555q0 55 -45.5 94t-108.5 39q-117 0 -170 -127l-106 51q37 86 110.5 135.5t165.5 49.5q115 0 191 -70q80 -71 80 -168q0 -116 -166 -266l-191 -184h369v-109h-547v82l295 283q123 117 123 190z" />
    <glyph glyph-name="three.dnom" horiz-adv-x="667" 
d="M475 569q0 50 -45 84.5t-111 34.5q-120 0 -161 -90l-101 39q33 73 105.5 116.5t163.5 43.5q115 0 191.5 -64.5t76.5 -161.5q0 -111 -117 -163q135 -53 135 -181q0 -100 -81.5 -167.5t-204.5 -67.5q-97 0 -172.5 45t-106.5 119l109 39q35 -93 166 -93q75 0 124.5 36.5
t49.5 92.5q0 54 -48 90.5t-120 36.5h-60v88h41q72 0 119 34.5t47 88.5z" />
    <glyph glyph-name="four.dnom" horiz-adv-x="735" 
d="M471 0v158h-424v110l432 520h107v-520h110v-110h-110v-158h-115zM471 614l-289 -346h289v346z" />
    <glyph glyph-name="five.dnom" horiz-adv-x="677" 
d="M625 254q0 -112 -84 -187t-209 -75q-99 0 -177 50t-110 132l115 33q46 -105 170 -105q75 0 126.5 43.5t51.5 106.5q0 66 -55.5 111t-135.5 45h-213l39 380h418v-104h-323l-19 -172h123q122 0 201 -76q82 -73 82 -182z" />
    <glyph glyph-name="six.dnom" horiz-adv-x="688" 
d="M625 653l-103 -51q-50 86 -160 86q-80 0 -133 -47t-53 -119v-110q62 92 189 92q116 0 196 -74q82 -73 82 -182q0 -107 -84 -182q-83 -74 -205 -74q-126 0 -209 74q-84 75 -84 182v274q0 118 86 195q89 80 215 80q87 0 157.5 -39t105.5 -105zM354 395q-73 0 -122.5 -42.5
t-49.5 -104.5t49.5 -104t122.5 -42q72 0 121 41.5t49 104.5q0 62 -49 104.5t-121 42.5z" />
    <glyph glyph-name="seven.dnom" horiz-adv-x="604" 
d="M147 0l289 684h-411v104h532v-110l-283 -678h-127z" />
    <glyph glyph-name="eight.dnom" horiz-adv-x="686" 
d="M342 -8q-123 0 -206 65.5t-83 163.5q0 126 127 191q-104 64 -104 174q0 91 76 149q77 62 190 62q115 0 192.5 -61t77.5 -152q0 -108 -108 -172q129 -64 129 -193q0 -96 -84 -162q-83 -65 -207 -65zM172 229q0 -55 48 -91t122 -36t124 36t50 91q0 54 -50 90.5t-124 36.5
q-73 0 -121.5 -36.5t-48.5 -90.5zM342 463q66 0 109 31.5t43 80.5t-43 81t-109 32q-64 0 -106.5 -32t-42.5 -81t42.5 -80.5t106.5 -31.5z" />
    <glyph glyph-name="nine.dnom" horiz-adv-x="679" 
d="M57 133l101 47q57 -78 164 -78q85 0 138.5 46t53.5 118v111q-25 -49 -74.5 -78t-109.5 -29q-117 0 -199 76q-80 77 -80 189q0 113 82 186q82 76 207 76q122 0 205 -74q84 -75 84 -182v-273q0 -119 -88 -198q-87 -78 -215 -78q-88 0 -160 37.5t-109 103.5zM217 424
q49 -43 123 -43t121 43q49 43 49 109t-49 110q-45 45 -121 45q-75 0 -123 -45q-49 -43 -49 -109t49 -110z" />
    <glyph glyph-name="logo" horiz-adv-x="880" 
d="M41 1061v209h47q145 0 248 -103q102 -102 102 -247q0 -146 -102 -248q-103 -103 -248 -103h-47v211q186 0 186 140q0 141 -186 141zM442 1061v209h47q145 0 248 -103t103 -247q0 -145 -103 -248t-248 -103h-47v211q189 0 189 140q0 141 -189 141zM109 442h-56v41h152v-41
h-55v-237h-41v237zM285 328l-74 155h47l47 -102l49 102h47l-73 -155v-123h-43v123zM467 205h-41v278h78q37 0 63.5 -25.5t26.5 -62.5t-26.5 -62.5t-63.5 -25.5h-37v-102zM504 442h-37v-94h37q20 0 33.5 13.5t13.5 33.5q0 19 -13.5 33t-33.5 14zM743 205h-122v278h122v-41
h-79v-98h63v-41h-63v-57h79v-41z" />
    <glyph glyph-name="bullet.case" horiz-adv-x="688" 
d="M344 963q105 0 175.5 -70.5t70.5 -175.5t-70.5 -175.5t-175.5 -70.5q-106 0 -176 70t-70 176t70 176t176 70z" />
    <glyph glyph-name="zero.num" horiz-adv-x="720" 
d="M59 918v243q0 119 86 199q88 82 215 82q129 0 215 -80q87 -81 87 -201v-243q0 -120 -87 -201q-86 -80 -215 -80q-126 0 -215 80q-86 83 -86 201zM176 1163v-248q0 -72 53 -119.5t131 -47.5q79 0 133 48t54 119v248q0 72 -54.5 121t-132.5 49t-131 -49t-53 -121z" />
    <glyph glyph-name="one.num" horiz-adv-x="483" 
d="M248 1296l-158 -79l-43 96l236 121h79v-789h-114v651z" />
    <glyph glyph-name="two.num" horiz-adv-x="655" 
d="M471 1200q0 55 -45.5 94t-108.5 39q-117 0 -170 -127l-106 51q37 86 110.5 135.5t165.5 49.5q115 0 191 -70q80 -71 80 -168q0 -116 -166 -266l-191 -184h369v-109h-547v82l295 283q123 117 123 190z" />
    <glyph glyph-name="three.num" horiz-adv-x="667" 
d="M475 1214q0 50 -45 84.5t-111 34.5q-120 0 -161 -90l-101 39q33 73 105.5 116.5t163.5 43.5q115 0 191.5 -64t76.5 -161q0 -111 -117 -164q135 -53 135 -181q0 -100 -81.5 -167.5t-204.5 -67.5q-97 0 -172.5 45t-106.5 119l109 39q35 -92 166 -92q75 0 124.5 36.5
t49.5 92.5q0 54 -48 90.5t-120 36.5h-60v88h41q72 0 119 34t47 88z" />
    <glyph glyph-name="four.num" horiz-adv-x="735" 
d="M471 645v158h-424v110l432 521h107v-521h110v-110h-110v-158h-115zM471 1260l-289 -347h289v347z" />
    <glyph glyph-name="five.num" horiz-adv-x="677" 
d="M625 899q0 -112 -84 -187t-209 -75q-99 0 -177 50t-110 132l115 33q46 -104 170 -104q75 0 126.5 43t51.5 106q0 66 -55.5 111t-135.5 45h-213l39 381h418v-105h-323l-19 -172h123q122 0 201 -76q82 -73 82 -182z" />
    <glyph glyph-name="six.num" horiz-adv-x="688" 
d="M625 1298l-103 -51q-50 86 -160 86q-80 0 -133 -47t-53 -119v-110q62 92 189 92q116 0 196 -74q82 -73 82 -182q0 -107 -84 -182q-83 -74 -205 -74q-126 0 -209 74q-84 75 -84 182v274q0 118 86 195q89 80 215 80q87 0 157.5 -39t105.5 -105zM354 1040
q-73 0 -122.5 -42.5t-49.5 -104.5t49.5 -103.5t122.5 -41.5q72 0 121 41t49 104q0 62 -49 104.5t-121 42.5z" />
    <glyph glyph-name="seven.num" horiz-adv-x="604" 
d="M147 645l289 684h-411v105h532v-111l-283 -678h-127z" />
    <glyph glyph-name="eight.num" horiz-adv-x="686" 
d="M342 637q-123 0 -206 65.5t-83 163.5q0 126 127 191q-104 64 -104 174q0 91 76 149q77 62 190 62q115 0 192.5 -61t77.5 -152q0 -107 -108 -172q129 -65 129 -193q0 -96 -84 -162q-83 -65 -207 -65zM172 874q0 -55 48 -90.5t122 -35.5t124 35.5t50 90.5q0 54 -50 90.5
t-124 36.5q-73 0 -121.5 -36.5t-48.5 -90.5zM342 1108q66 0 109 32t43 81t-43 80.5t-109 31.5q-64 0 -106.5 -31.5t-42.5 -80.5t42.5 -81t106.5 -32z" />
    <glyph glyph-name="nine.num" horiz-adv-x="679" 
d="M57 778l101 47q56 -77 164 -77q85 0 138.5 45.5t53.5 117.5v111q-25 -49 -74.5 -78t-109.5 -29q-117 0 -199 76q-80 77 -80 189q0 113 82 186q82 76 207 76q122 0 205 -74q84 -75 84 -182v-273q0 -119 -88 -198q-87 -78 -215 -78q-88 0 -160 37.5t-109 103.5zM217 1069
q50 -43 123.5 -43t120.5 43q49 43 49 109t-49 110q-45 45 -121 45q-75 0 -123 -45q-49 -43 -49 -109t49 -110z" />
    <glyph glyph-name="afii10021.1" horiz-adv-x="1701" 
d="M1653 0h-1604v172h162q178 58 178 559v703h1028v-1262h236v-172zM457 172h774v1090h-658v-523q0 -381 -116 -567z" />
    <glyph glyph-name="afii10040.1" horiz-adv-x="1628" 
d="M160 1434h184v-1262h815v1262h184v-1262h238v-172h-1421v1434z" />
    <glyph glyph-name="afii10043.1" horiz-adv-x="2340" 
d="M160 0v1434h184v-1262h666v1262h184v-1262h678v1262h184v-1262h238v-172h-2134z" />
    <glyph glyph-name="germandbls.1" horiz-adv-x="1200" 
d="M317 905v-905h-172v1200q0 149 115 252q115 100 291 100h47v-172h-47q-100 0 -167 -53t-67 -131v-131h687v-133l-236 -326q160 -57 254 -200q98 -143 98 -330q0 -242 -162 -400q-164 -159 -401 -159v172q166 0 279 110q112 109 112 277q0 167 -112 276q-114 111 -279 111
v133l227 309h-467z" />
    <glyph glyph-name="R.1" horiz-adv-x="1372" 
d="M344 0h-184v1434h649q199 0 332 -121t133 -299q0 -118 -60.5 -214.5t-166.5 -152.5q135 -95 170 -252l92 -395h-183l-82 350q-23 94 -101.5 156.5t-174.5 62.5h-424v-569zM809 1262h-465v-521h465q117 0 194.5 74.5t77.5 185.5q0 112 -77.5 186.5t-194.5 74.5z" />
    <glyph glyph-name="Racute.1" horiz-adv-x="1390" 
d="M344 0h-184v1434h649q199 0 332 -121t133 -299q0 -118 -60.5 -214.5t-166.5 -152.5q135 -95 170 -252l92 -395h-183l-82 350q-23 94 -101.5 156.5t-174.5 62.5h-424v-569zM809 1262h-465v-521h465q117 0 194.5 74.5t77.5 185.5q0 112 -77.5 186.5t-194.5 74.5zM932 1763
l-395 -194l-62 104l375 244z" />
    <glyph glyph-name="Rcaron.1" horiz-adv-x="1390" 
d="M160 1434h649q199 0 332 -121t133 -299q0 -118 -60.5 -214.5t-166.5 -152.5q135 -95 170 -252l92 -395h-183l-82 350q-23 94 -101.5 156.5t-174.5 62.5h-424v-569h-184v1434zM809 1262h-465v-521h465q117 0 194.5 74.5t77.5 185.5q0 112 -77.5 186.5t-194.5 74.5z
M594 1569l-330 250l74 96l262 -170l260 168l74 -94l-328 -250h-12z" />
    <glyph glyph-name="Rcommaaccent.1" horiz-adv-x="1390" 
d="M160 1434h649q199 0 332 -121t133 -299q0 -118 -60.5 -214.5t-166.5 -152.5q135 -95 170 -252l92 -395h-183l-82 350q-23 94 -101.5 156.5t-174.5 62.5h-424v-569h-184v1434zM809 1262h-465v-521h465q117 0 194.5 74.5t77.5 185.5q0 112 -77.5 186.5t-194.5 74.5z
M633 -219q0 42 29 70t73 28q50 0 81.5 -37t31.5 -98q0 -46 -18 -88t-47.5 -72.5t-49.5 -46.5t-41 -29l-10 -6l-45 49l25 21q18 16 39 49.5t20 56.5q-37 4 -62.5 34.5t-25.5 68.5z" />
    <glyph glyph-name="u.1" 
d="M141 471v594h172v-580q0 -145 93 -241q91 -94 229 -94q137 0 225 94q92 95 92 241v580h172v-594q0 -213 -141 -354q-140 -140 -350 -140q-209 0 -352 140q-140 143 -140 354z" />
    <glyph glyph-name="uacute.1" 
d="M141 471v594h172v-580q0 -145 93 -241q91 -94 229 -94q137 0 225 94q92 95 92 241v580h172v-594q0 -213 -141 -354q-140 -140 -350 -140q-209 0 -352 140q-140 143 -140 354zM567 1227l-59 106l373 242l82 -154z" />
    <glyph glyph-name="ubreve.1" 
d="M141 471v594h172v-580q0 -145 93 -241q91 -94 229 -94q137 0 225 94q92 95 92 241v580h172v-594q0 -213 -141 -354q-140 -140 -350 -140q-209 0 -352 140q-140 143 -140 354zM340 1505h139q0 -75 47 -125.5t119 -50.5t118 50t46 126h139q0 -132 -88 -217
q-86 -86 -217 -86t-217 86t-86 217z" />
    <glyph glyph-name="ucircumflex.1" 
d="M141 471v594h172v-580q0 -145 93 -241q91 -94 229 -94q137 0 225 94q92 95 92 241v580h172v-594q0 -213 -141 -354q-140 -140 -350 -140q-209 0 -352 140q-140 143 -140 354zM643 1397l-262 -170l-74 96l330 250h12l330 -250l-74 -94z" />
    <glyph glyph-name="udieresis.1" 
d="M141 471v594h172v-580q0 -145 93 -241q91 -94 229 -94q137 0 225 94q92 95 92 241v580h172v-594q0 -213 -141 -354q-140 -140 -350 -140q-209 0 -352 140q-140 143 -140 354zM315 1337q0 49 33 81t84 32q48 0 80.5 -32t32.5 -81q0 -50 -32.5 -82t-80.5 -32
q-51 0 -84 31.5t-33 82.5zM741 1337q0 49 32.5 81t82.5 32t82.5 -32t32.5 -81q5 -71 -55 -100t-120 0t-55 100z" />
    <glyph glyph-name="ugrave.1" 
d="M141 471v594h172v-580q0 -145 93 -241q91 -94 229 -94q137 0 225 94q92 95 92 241v580h172v-594q0 -213 -141 -354q-140 -140 -350 -140q-209 0 -352 140q-140 143 -140 354zM717 1227l-393 194l79 154l375 -242z" />
    <glyph glyph-name="uhungarumlaut.1" 
d="M141 471v594h172v-580q0 -145 93 -241q91 -94 229 -94q137 0 225 94q92 95 92 241v580h172v-594q0 -213 -141 -354q-140 -140 -350 -140q-209 0 -352 140q-140 143 -140 354zM457 1198l-88 84l272 324l123 -125zM834 1198l-89 84l273 324l123 -125z" />
    <glyph glyph-name="umacron.1" 
d="M141 471v594h172v-580q0 -145 93 -241q91 -94 229 -94q137 0 225 94q92 95 92 241v580h172v-594q0 -213 -141 -354q-140 -140 -350 -140q-209 0 -352 140q-140 143 -140 354zM940 1278h-592v145h592v-145z" />
    <glyph glyph-name="uogonek.1" 
d="M141 471v594h172v-580q0 -145 93 -241q91 -94 229 -94q137 0 225 94q92 95 92 241v580h172v-594q0 -193 -112 -326q-116 -135 -291 -161q-109 -95 -109 -191q0 -40 24 -64t62 -24q27 0 56 13t45 28l14 14l64 -75l-29 -27q-15 -18 -74 -45q-60 -29 -110 -29
q-80 0 -134.5 50.5t-54.5 125.5q0 111 109 220q-192 15 -318 153q-125 137 -125 338z" />
    <glyph glyph-name="uring.1" 
d="M141 471v594h172v-580q0 -145 93 -241q91 -94 229 -94q137 0 225 94q92 95 92 241v580h172v-594q0 -213 -141 -354q-140 -140 -350 -140q-209 0 -352 140q-140 143 -140 354zM487 1264q-63 66 -63 155.5t63 155.5q66 66 156 66t156 -66t66 -155.5t-66 -155.5
q-66 -63 -156 -63t-156 63zM549 1419q0 -39 29 -66t65 -27.5t68 26.5q29 31 29 67.5t-28 66.5t-69 30q-39 0 -66.5 -28t-27.5 -69z" />
    <glyph glyph-name="utilde.1" 
d="M141 471v594h172v-580q0 -145 93 -241q91 -94 229 -94q137 0 225 94q92 95 92 241v580h172v-594q0 -213 -141 -354q-140 -140 -350 -140q-209 0 -352 140q-140 143 -140 354zM465 1251h-137q0 88 59.5 149.5t144.5 61.5q63 0 121 -49q62 -47 90 -47q33 0 55.5 25t22.5 63
h137q0 -90 -58.5 -151.5t-143.5 -61.5q-64 0 -123 47q-58 49 -88 49q-33 0 -56.5 -25t-23.5 -61z" />
    <glyph glyph-name="y.1" horiz-adv-x="1089" 
d="M455 29l-426 1036h178l334 -827l344 827h178l-641 -1526h-172z" />
    <glyph glyph-name="yacute.1" horiz-adv-x="1089" 
d="M455 29l-426 1036h178l334 -827l344 827h178l-641 -1526h-172zM864 1421l-395 -194l-61 106l374 242z" />
    <glyph glyph-name="ycircumflex.1" horiz-adv-x="1089" 
d="M455 29l-426 1036h178l334 -827l344 827h178l-641 -1526h-172zM283 1227l-74 96l330 250h12l330 -250l-74 -94l-262 168z" />
    <glyph glyph-name="ydieresis.1" horiz-adv-x="1089" 
d="M455 29l-426 1036h178l334 -827l344 827h178l-641 -1526h-172zM643 1337q0 49 32.5 81t82.5 32t82 -32t32 -81q5 -71 -54.5 -100t-119.5 0t-55 100zM217 1337q0 49 32.5 81t82.5 32t82 -32t32 -81q5 -71 -54.5 -100t-119.5 0t-55 100z" />
    <glyph glyph-name="ygrave.1" horiz-adv-x="1089" 
d="M455 29l-426 1036h178l334 -827l344 827h178l-641 -1526h-172zM680 1333l-62 -106l-395 194l82 154z" />
    <glyph glyph-name="afii10085.1" horiz-adv-x="1089" 
d="M455 29l-426 1036h178l334 -827l344 827h178l-641 -1526h-172z" />
    <glyph glyph-name="afii10110.1" horiz-adv-x="1089" 
d="M250 -461l205 490l-426 1036h178l334 -827l344 827h178l-641 -1526h-172zM207 1511h145q0 -75 55 -124.5t140 -49.5q82 0 137 49.5t55 124.5h146q0 -134 -97 -225q-94 -88 -241 -88q-146 0 -244 88q-96 90 -96 225z" />
    <glyph glyph-name="g.1" horiz-adv-x="1320" 
d="M614 -23q-222 0 -374 158q-150 159 -150 397q0 240 150 396q150 159 374 159q241 0 390 -174v152h172v-1020q0 -227 -156 -377q-157 -151 -383 -151q-103 0 -207 37l66 157q71 -22 135 -22q158 0 266 102q107 101 107 254v107q-150 -175 -390 -175zM633 150
q155 0 260 108q106 109 106 274q0 167 -106 273q-104 110 -260 110q-153 0 -260 -110q-105 -108 -105 -273q0 -163 105 -274q108 -108 260 -108z" />
    <glyph glyph-name="gbreve.1" horiz-adv-x="1320" 
d="M614 -23q-222 0 -374 158q-150 159 -150 397q0 240 150 396q150 159 374 159q241 0 390 -174v152h172v-1020q0 -227 -156 -377q-157 -151 -383 -151q-103 0 -207 37l66 157q71 -22 135 -22q158 0 266 102q107 101 107 254v107q-150 -175 -390 -175zM633 915
q-153 0 -260 -110q-105 -108 -105 -273q0 -163 105 -274q108 -108 260 -108q155 0 260 108q106 109 106 274q0 167 -106 273q-104 110 -260 110zM340 1505h139q0 -75 47 -125.5t119 -50.5t118 50t46 126h139q0 -131 -86 -217t-217 -86q-130 0 -219 86q-86 86 -86 217z" />
    <glyph glyph-name="gcircumflex.1" horiz-adv-x="1320" 
d="M614 -23q-222 0 -374 158q-150 159 -150 397q0 240 150 396q150 159 374 159q241 0 390 -174v152h172v-1020q0 -227 -156 -377q-157 -151 -383 -151q-103 0 -207 37l66 157q71 -22 135 -22q158 0 266 102q107 101 107 254v107q-150 -175 -390 -175zM633 915
q-153 0 -260 -110q-105 -108 -105 -273q0 -163 105 -274q108 -108 260 -108q155 0 260 108q106 109 106 274q0 167 -106 273q-104 110 -260 110zM381 1227l-72 96l328 250h12l330 -250l-74 -94l-262 168z" />
    <glyph glyph-name="gcommaaccent.1" horiz-adv-x="1320" 
d="M614 -23q-222 0 -374 158q-150 159 -150 397q0 240 150 396q150 159 374 159q241 0 390 -174v152h172v-1020q0 -227 -156 -377q-157 -151 -383 -151q-103 0 -207 37l66 157q71 -22 135 -22q158 0 266 102q107 101 107 254v107q-150 -175 -390 -175zM633 915
q-153 0 -260 -110q-105 -108 -105 -273q0 -163 105 -274q108 -108 260 -108q155 0 260 108q106 109 106 274q0 167 -106 273q-104 110 -260 110zM532 1335q0 46 18 88t47 72t49.5 46.5t41.5 29.5l10 6l45 -49l-24 -21q-18 -16 -39.5 -49.5t-20.5 -56.5q37 -5 63 -35t26 -68
q0 -41 -29.5 -69.5t-73.5 -28.5q-50 0 -81.5 37t-31.5 98z" />
    <glyph glyph-name="gdotaccent.1" horiz-adv-x="1320" 
d="M614 -23q-222 0 -374 158q-150 159 -150 397q0 240 150 396q150 159 374 159q241 0 390 -174v152h172v-1020q0 -227 -156 -377q-157 -151 -383 -151q-103 0 -207 37l66 157q71 -22 135 -22q158 0 266 102q107 101 107 254v107q-150 -175 -390 -175zM633 915
q-153 0 -260 -110q-105 -108 -105 -273q0 -163 105 -274q108 -108 260 -108q155 0 260 108q106 109 106 274q0 167 -106 273q-104 110 -260 110zM645 1225q-54 0 -87.5 33.5t-33.5 84.5t35 85t86 34t85 -34t34 -85t-34 -84.5t-85 -33.5z" />
    <glyph glyph-name="t.1" horiz-adv-x="741" 
d="M31 913v93l245 249h99v-190h297v-152h-297v-579q0 -72 43.5 -120t109.5 -48h144v-166h-156q-133 0 -223 90t-90 223v600h-172z" />
    <glyph glyph-name="tbar.1" horiz-adv-x="741" 
d="M203 913h-172v93l245 249h99v-190h297v-152h-297v-254h207v-131h-207v-194q0 -72 43.5 -120t109.5 -48h144v-166h-156q-133 0 -223 90t-90 223v215h-137v131h137v254z" />
    <glyph glyph-name="tcaron.1" horiz-adv-x="772" 
d="M31 913v93l245 249h99v-190h297v-152h-297v-579q0 -72 43.5 -120t109.5 -48h144v-166h-156q-133 0 -223 90t-90 223v600h-172zM717 1378q0 -138 -156 -235l-10 -6l-47 49l24 20q19 17 41 49.5t21 55.5q-37 6 -63.5 36t-26.5 68q0 41 30 69.5t74 28.5q50 0 81.5 -37
t31.5 -98z" />
    <glyph glyph-name="tcommaaccent.1" horiz-adv-x="741" 
d="M31 913v93l245 249h99v-190h297v-152h-297v-579q0 -72 43.5 -120t109.5 -48h144v-166h-156q-133 0 -223 90t-90 223v600h-172zM537 -256q0 -46 -18 -88t-47.5 -72.5t-49.5 -46.5t-41 -29l-8 -6l-47 49l24 21q19 17 41 50t21 56q-37 5 -63.5 35t-26.5 68q0 41 30 69.5
t74 28.5q50 0 80.5 -37t30.5 -98z" />
    <glyph glyph-name="uni021B.1" horiz-adv-x="741" 
d="M31 913v93l245 249h99v-190h297v-152h-297v-579q0 -72 43.5 -120t109.5 -48h144v-166h-156q-133 0 -223 90t-90 223v600h-172zM537 -256q0 -46 -18 -88t-47.5 -72.5t-49.5 -46.5t-41 -29l-8 -6l-47 49l24 21q19 17 41 50t21 56q-37 5 -63.5 35t-26.5 68q0 41 30 69.5
t74 28.5q50 0 80.5 -37t30.5 -98z" />
    </font>
</defs>
</svg>
