<?xml version="1.0" standalone="no"?>
<!DOCTYPE svg PUBLIC "-//W3C//DTD SVG 1.1//EN" "http://www.w3.org/Graphics/SVG/1.1/DTD/svg11.dtd" >
<svg xmlns="http://www.w3.org/2000/svg" xmlns:xlink="http://www.w3.org/1999/xlink" version="1.1">
<metadata>
Created by FontForge 20170731 at Fri Nov  6 18:23:30 2020
 By Aleksey,,,
Copyright (c) 2019 by Oleh Lishchuk. All rights reserved. |DCNT
</metadata>
<defs>
<font id="MazzardL-Black" horiz-adv-x="866" >
  <font-face 
    font-family="Mazzard L Black"
    font-weight="900"
    font-stretch="semi-expanded"
    units-per-em="2048"
    panose-1="0 0 0 0 0 0 0 0 0 0"
    ascent="1546"
    descent="-502"
    x-height="778"
    cap-height="1331"
    bbox="-129 -504 2578 1935"
    underline-thickness="102"
    underline-position="-358"
    unicode-range="U+000D-FB04"
  />
<missing-glyph horiz-adv-x="681" 
 />
    <glyph glyph-name="f_f" unicode="ff" horiz-adv-x="1069" 
d="M106 532h-98v246h98v377q0 119 95 199t237 80h109v-287h-78q-26 0 -44.5 -13.5t-18.5 -33.5v-322h204v377q0 119 95 199t237 80h109v-287h-78q-27 0 -45.5 -13.5t-18.5 -33.5v-322h154v-246h-154v-532h-299v532h-204v-532h-300v532z" />
    <glyph glyph-name="fi" unicode="fi" horiz-adv-x="925" 
d="M406 1100v-322h153v-246h-153v-532h-300v532h-98v246h98v377q0 119 95 199t237 80h109v-287h-78q-26 0 -44.5 -13.5t-18.5 -33.5zM895 0h-299v778h299v-778zM745 1284q78 0 128.5 -50t50.5 -128q4 -56 -29 -100t-81 -62.5t-103.5 -10.5t-92.5 46q-40 37 -48 92t11 103.5
t63.5 81t100.5 28.5z" />
    <glyph glyph-name="fl" unicode="fl" horiz-adv-x="925" 
d="M406 1100v-322h153v-246h-153v-532h-300v532h-98v246h98v377q0 119 95 199t237 80h109v-287h-78q-26 0 -44.5 -13.5t-18.5 -33.5zM895 0h-299v1434h299v-1434z" />
    <glyph glyph-name="f_f_i" unicode="ffi" horiz-adv-x="1429" 
d="M106 0v532h-98v246h98v377q0 119 95 199t237 80h109v-287h-78q-26 0 -44.5 -13.5t-18.5 -33.5v-322h204v377q0 119 95 199t237 80h109v-287h-78q-27 0 -45.5 -13.5t-18.5 -33.5v-322h490v-778h-299v532h-191v-532h-299v532h-204v-532h-300zM1249 1284q78 0 128 -50
t50 -128q4 -56 -28.5 -100t-81 -62.5t-103.5 -10.5t-92 46q-40 37 -48 92t11 103.5t63.5 81t100.5 28.5z" />
    <glyph glyph-name="f_f_l" unicode="ffl" horiz-adv-x="1429" 
d="M106 0v532h-98v246h98v377q0 119 95 199t237 80h109v-287h-78q-26 0 -44.5 -13.5t-18.5 -33.5v-322h204v377q0 119 95 199t237 80h109v-287h-78q-27 0 -45.5 -13.5t-18.5 -33.5v-322h154v-246h-154v-532h-299v532h-204v-532h-300zM1100 0v1434h299v-1434h-299z" />
    <glyph glyph-name="afii10104_afii10104" unicode="&#x457;&#x457;" horiz-adv-x="806" 
d="M350 0h-299v778h299v-778zM-82 1108q0 61 39 103t96 42t96 -42t39 -103q0 -63 -39 -105t-96 -42t-96 42t-39 105zM754 0h-299v778h299v-778zM268 1108q0 61 39 103t96 42t96.5 -42t39.5 -103q0 -63 -39.5 -105t-96.5 -42t-96 42t-39 105zM616 1108q0 61 40.5 103t97.5 42
t96 -42t39 -103q0 -63 -39 -105t-96 -42q-60 0 -99 42t-39 105z" />
    <glyph glyph-name=".notdef" horiz-adv-x="681" 
 />
    <glyph glyph-name="uni0000" horiz-adv-x="0" 
 />
    <glyph glyph-name="uni0000" horiz-adv-x="0" 
 />
    <glyph glyph-name="uni000D" unicode="&#xd;" horiz-adv-x="512" 
 />
    <glyph glyph-name="space" unicode=" " horiz-adv-x="409" 
 />
    <glyph glyph-name="exclam" unicode="!" horiz-adv-x="434" 
d="M59 145q0 69 46 115.5t112 46.5q69 0 114.5 -46.5t45.5 -115.5q0 -68 -45.5 -113.5t-114.5 -45.5q-66 0 -112 46t-46 113zM348 446h-262l-45 885h352z" />
    <glyph glyph-name="quotedbl" unicode="&#x22;" horiz-adv-x="655" 
d="M287 952h-205l-21 379h246zM573 952h-204l-21 379h246z" />
    <glyph glyph-name="numbersign" unicode="#" horiz-adv-x="1232" 
d="M20 317v226h269l43 245h-221v226h262l55 317h229l-55 -317h156l55 317h229l-55 -317h225v-226h-266l-43 -245h219v-226h-260l-55 -317h-229l55 317h-156l-55 -317h-229l55 317h-228zM561 788l-43 -245h156l43 245h-156z" />
    <glyph glyph-name="dollar" unicode="$" horiz-adv-x="1128" 
d="M469 -225v213q-165 26 -282 121.5t-152 232.5l356 68q12 -50 67 -83.5t128 -33.5q63 0 106 24.5t43 61.5q0 20 -15 36.5t-50.5 32.5t-61.5 25t-81 26q-23 7 -35 11q-147 49 -228 98q-90 53 -136 130t-52 196q0 161 98.5 272t263.5 137v216h207v-218q147 -25 249.5 -110.5
t131.5 -208.5l-348 -64q-11 36 -48.5 59t-86.5 23q-52 0 -84.5 -21t-32.5 -56q0 -22 14.5 -37.5t44.5 -32.5q39 -17 93 -33l122 -37q156 -49 254 -125q131 -98 131 -288q0 -172 -112 -286.5t-299 -137.5v-211h-205z" />
    <glyph glyph-name="percent" unicode="%" horiz-adv-x="1802" 
d="M471 0l-158 131l1008 1200l158 -131zM150 678q-109 115 -109 280q0 166 109 281q110 113 274 113q165 0 272 -113q111 -114 111 -281q0 -166 -111 -280q-108 -111 -272 -111q-163 0 -274 111zM340 1040q-32 -32 -32 -81.5t32 -84.5q35 -32 84.5 -32t81.5 32
q35 35 35 84.5t-35 81.5q-32 35 -81.5 35t-84.5 -35zM1104 92q-109 115 -109 281t109 278q110 113 274 113q166 0 273 -113q110 -110 110 -278t-110 -281q-106 -112 -273 -112q-165 0 -274 112zM1294 455q-32 -32 -32 -81.5t32 -84.5q35 -32 84.5 -32t81.5 32q35 35 35 84.5
t-35 81.5q-32 35 -81.5 35t-84.5 -35z" />
    <glyph glyph-name="ampersand" unicode="&#x26;" horiz-adv-x="1331" 
d="M545 -16q-223 0 -369 125q-145 127 -145 315q0 212 213 348q-66 123 -66 236q0 153 103 245q106 95 264 95q161 0 272 -99t111 -245q0 -192 -234 -324l180 -193q37 87 37 185h287q0 -232 -119 -406l246 -266h-414l-57 61q-145 -77 -309 -77zM651 285l-182 196l-47 54
q-47 -32 -66 -70.5t-9 -72.5t37.5 -62.5t73.5 -44.5t99 -15q51 0 94 15zM516 907q125 55 125 101q0 24 -22.5 38.5t-55.5 14.5q-71 0 -71 -66q0 -41 24 -88z" />
    <glyph glyph-name="quotesingle" unicode="'" horiz-adv-x="368" 
d="M287 952h-205l-21 379h246z" />
    <glyph glyph-name="parenleft" unicode="(" horiz-adv-x="641" 
d="M297 1499l29 37h295l-31 -43q-25 -37 -66 -121q-98 -193 -149 -461q-59 -322 0 -643q19 -107 47.5 -203t63 -172.5t55.5 -117.5t51 -92l29 -41h-295q-3 5 -31 41q-20 27 -66 114q-43 83 -84 193q-37 109 -65 262q-61 341 0 672q19 110 47 205t63.5 170.5t55 111.5
t51.5 88z" />
    <glyph glyph-name="parenright" unicode=")" horiz-adv-x="643" 
d="M49 1495l-29 41h295l29 -41q19 -22 68 -115q53 -102 87.5 -201.5t61.5 -252.5q63 -333 2 -672q-57 -320 -219 -573l-29 -39h-295q39 51 97 165q52 103 87 206t62 253q62 321 2 645q-19 106 -47.5 201.5t-63.5 173t-56 117.5t-52 92z" />
    <glyph glyph-name="asterisk" unicode="*" horiz-adv-x="763" 
d="M299 842l-156 -137l-123 213l199 67l-199 66l123 213l158 -138l-41 205h246l-41 -205l156 138l122 -213l-196 -66l196 -67l-122 -213l-156 137l41 -205h-246z" />
    <glyph glyph-name="plus" unicode="+" horiz-adv-x="1228" 
d="M471 522h-356v287h356v356h287v-356h356v-287h-356v-356h-287v356z" />
    <glyph glyph-name="comma" unicode="," horiz-adv-x="430" 
d="M389 82q0 -52 -24 -108.5t-58 -94.5q-26 -37 -71 -72q-51 -44 -89 -65l-90 96q104 76 107 119q-57 11 -95 59t-38 111q0 69 48 116.5t120 47.5q83 0 136.5 -60.5t53.5 -148.5z" />
    <glyph glyph-name="hyphen" unicode="-" horiz-adv-x="737" 
d="M94 266v246h549v-246h-549z" />
    <glyph glyph-name="period" unicode="." horiz-adv-x="403" 
d="M31 158q0 74 49 124t121 50q73 0 122.5 -50t49.5 -124t-49.5 -123t-122.5 -49q-72 0 -121 50t-49 122z" />
    <glyph glyph-name="slash" unicode="/" horiz-adv-x="1126" 
d="M248 -358h-248l879 1894h247z" />
    <glyph glyph-name="zero" unicode="0" horiz-adv-x="1155" 
d="M49 465v401q0 208 150 346q152 140 379 140q224 0 376 -140t152 -346v-401q0 -206 -152 -346q-151 -139 -376 -139q-228 0 -379 139q-150 138 -150 346zM385 870v-411q0 -66 56 -112t137 -46t135.5 46t54.5 112v411q0 68 -54.5 114t-135.5 46q-82 0 -137.5 -46
t-55.5 -114z" />
    <glyph glyph-name="one" unicode="1" horiz-adv-x="917" 
d="M399 946l-202 -90l-125 283l420 192h243v-1331h-336v946z" />
    <glyph glyph-name="two" unicode="2" horiz-adv-x="1099" 
d="M680 922q0 44 -41 76t-98 32q-136 0 -203 -162l-313 150q74 155 210.5 244.5t305.5 89.5q204 0 348 -123q143 -122 143 -295q0 -212 -295 -473l-151 -139h452v-322h-968v248l467 436q143 131 143 238z" />
    <glyph glyph-name="three" unicode="3" horiz-adv-x="1122" 
d="M684 920q0 48 -46.5 79t-119.5 31q-63 0 -111 -25.5t-65 -66.5l-299 109q63 137 196.5 221t301.5 84q210 0 352 -121q141 -120 141 -305q0 -150 -123 -232q160 -100 160 -276q0 -189 -149 -314q-145 -124 -373 -124q-192 0 -332 94q-138 95 -188 245l315 111
q11 -57 64.5 -93t130.5 -36q78 0 130 35.5t52 89.5q0 55 -51 90t-127 35h-103v258h64q76 0 128 31t52 80z" />
    <glyph glyph-name="four" unicode="4" horiz-adv-x="1200" 
d="M680 0v233h-635v322l651 776h322v-778h143v-320h-143v-233h-338zM680 836l-236 -283h236v283z" />
    <glyph glyph-name="five" unicode="5" horiz-adv-x="1146" 
d="M1096 446q0 -201 -150 -333q-148 -133 -371 -133q-201 0 -342 106q-142 106 -194 281l338 88q53 -154 194 -154q73 0 123.5 41.5t50.5 101.5q0 66 -61.5 110t-153.5 44h-385l72 733h756v-307h-479l-15 -119h131q207 0 346 -133q140 -134 140 -326z" />
    <glyph glyph-name="six" unicode="6" horiz-adv-x="1140" 
d="M1065 1069l-303 -143q-52 104 -184 104q-82 0 -137.5 -42.5t-55.5 -104.5v-80q78 63 213 63q199 0 342 -131q143 -128 143 -315q0 -191 -149 -316q-145 -124 -367 -124q-223 0 -370 126q-148 127 -148 316v457q0 203 150 338t379 135q164 0 294.5 -76.5t192.5 -206.5z
M567 545q-73 0 -120.5 -35t-47.5 -86q0 -54 47 -88.5t121 -34.5q72 0 119 35t47 86q0 53 -48 88t-118 35z" />
    <glyph glyph-name="seven" unicode="7" horiz-adv-x="1038" 
d="M166 0l485 1024h-622v307h981v-327l-478 -1004h-366z" />
    <glyph glyph-name="eight" unicode="8" horiz-adv-x="1138" 
d="M569 -20q-226 0 -372 116q-148 118 -148 293q0 183 160 301q-135 108 -135 273q0 162 141 276q140 113 354 113t351 -113q141 -114 141 -278q0 -163 -131 -273q160 -118 160 -303q0 -174 -150 -291q-147 -114 -371 -114zM399 420q0 -50 48.5 -84.5t121.5 -34.5
t120.5 32.5t47.5 82.5t-47.5 83t-120.5 33t-121.5 -32t-48.5 -80zM569 840q61 0 101.5 27.5t40.5 68.5t-40 67.5t-102 26.5t-102.5 -26.5t-40.5 -67.5t40 -68.5t103 -27.5z" />
    <glyph glyph-name="nine" unicode="9" horiz-adv-x="1140" 
d="M49 254l299 141q58 -94 193 -94q93 0 154 43t61 105v73q-70 -61 -207 -61q-199 0 -340 129t-141 317q0 191 145 318t365 127q221 0 366 -127q148 -127 148 -318v-454q0 -203 -156 -338t-387 -135q-169 0 -303.5 74.5t-196.5 199.5zM578 1030q-69 0 -114.5 -34.5
t-45.5 -88.5t46.5 -89.5t115.5 -35.5t115 34.5t46 88.5t-45.5 89.5t-117.5 35.5z" />
    <glyph glyph-name="colon" unicode=":" horiz-adv-x="403" 
d="M31 158q0 74 49 124t121 50q73 0 122.5 -50t49.5 -124t-49.5 -123t-122.5 -49q-72 0 -121 50t-49 122zM31 621q0 74 49 124t121 50q73 0 122.5 -50t49.5 -124q0 -73 -49.5 -122.5t-122.5 -49.5q-72 0 -121 50t-49 122z" />
    <glyph glyph-name="semicolon" unicode=";" horiz-adv-x="421" 
d="M31 633q0 74 49 124t121 50q73 0 122.5 -50t49.5 -124q0 -73 -49.5 -122.5t-122.5 -49.5q-72 0 -121 50t-49 122zM391 82q0 -52 -24 -108.5t-58 -94.5q-26 -37 -71 -72q-53 -46 -88 -65l-91 96q104 76 107 119q-57 11 -95 59t-38 111q0 69 48 116.5t120 47.5
q83 0 136.5 -60.5t53.5 -148.5z" />
    <glyph glyph-name="less" unicode="&#x3c;" horiz-adv-x="1228" 
d="M1073 102l-958 447v223l958 445v-316l-518 -239l518 -244v-316z" />
    <glyph glyph-name="equal" unicode="=" horiz-adv-x="1228" 
d="M115 727v287h999v-287h-999zM115 317v287h999v-287h-999z" />
    <glyph glyph-name="greater" unicode="&#x3e;" horiz-adv-x="1228" 
d="M1114 772v-223l-958 -447v316l518 244l-518 239v316z" />
    <glyph glyph-name="question" unicode="?" horiz-adv-x="1153" 
d="M741 899q0 56 -53.5 93.5t-132.5 37.5q-71 0 -121 -30t-67 -82l-338 92q46 151 186 247q142 95 334 95q227 0 377 -129q151 -130 151 -328q0 -74 -25 -137t-60.5 -102.5t-82 -70t-82.5 -44.5t-69 -21l-37 -6l-16 -68h-277l-37 252q55 6 121 25q219 56 229 176zM406 145
q0 69 45.5 115.5t111.5 46.5q69 0 114.5 -46.5t45.5 -115.5q0 -68 -45.5 -113.5t-114.5 -45.5q-66 0 -111.5 46t-45.5 113z" />
    <glyph glyph-name="at" unicode="@" horiz-adv-x="1591" 
d="M31 387q0 325 217 539q217 217 547 217q323 0 544 -209q222 -207 222 -496q0 -184 -97 -301q-94 -110 -245 -110q-163 0 -271 120q-88 -120 -235 -120q-136 0 -224 104q-90 107 -90 260q0 151 90 258q89 105 224 105q86 0 157 -47v34h269v-397q0 -41 22.5 -68.5
t55.5 -27.5q44 0 71 47t27 127q0 198 -150 336q-151 139 -368 139q-222 0 -373 -145q-148 -145 -148 -365q0 -216 144 -360q146 -146 356 -146q120 0 215 53l84 -225q-139 -74 -305 -74q-314 0 -526 218q-213 216 -213 534zM684 391q0 -42 26.5 -71t65.5 -29t66.5 29
t27.5 71q0 41 -28 71t-66 30t-65 -30t-27 -71z" />
    <glyph glyph-name="A" unicode="A" horiz-adv-x="1404" 
d="M371 0h-365l551 1331h291l551 -1331h-367l-78 197h-505zM702 831l-131 -327h263z" />
    <glyph glyph-name="B" unicode="B" horiz-adv-x="1267" 
d="M764 0h-696v1331h659q194 0 320 -108q127 -109 127 -273q0 -151 -113 -258q160 -115 160 -303q0 -165 -131 -278q-132 -111 -326 -111zM758 528h-340v-206h340q41 0 68.5 30t27.5 74q0 43 -27.5 72.5t-68.5 29.5zM719 1008h-301v-187h301q33 0 57.5 20.5t28.5 55.5
q2 4 2 18q0 41 -25 67t-63 26z" />
    <glyph glyph-name="C" unicode="C" horiz-adv-x="1429" 
d="M754 1352q216 0 387 -107q174 -107 256 -284l-342 -125q-43 85 -122 132.5t-179 47.5q-148 0 -242 -101q-96 -104 -96 -247q0 -148 96 -252q94 -101 242 -101q99 0 178.5 48t122.5 133l342 -125q-82 -180 -254.5 -285.5t-388.5 -105.5q-302 0 -504 196q-201 198 -201 490
q0 291 201 489q203 197 504 197z" />
    <glyph glyph-name="D" unicode="D" horiz-adv-x="1374" 
d="M623 0h-555v1331h555q301 0 499 -192q203 -194 203 -473q0 -281 -201 -476q-199 -190 -501 -190zM623 1008h-205v-686h205q145 0 239 98q99 102 99 246t-99 243q-94 99 -239 99z" />
    <glyph glyph-name="E" unicode="E" horiz-adv-x="1128" 
d="M68 1331h1007v-323h-657v-177h543v-323h-543v-186h665v-322h-1015v1331z" />
    <glyph glyph-name="F" unicode="F" horiz-adv-x="1112" 
d="M68 1331h1007v-323h-657v-185h543v-321h-543v-502h-350v1331z" />
    <glyph glyph-name="G" unicode="G" horiz-adv-x="1497" 
d="M762 1352q209 0 385 -105q177 -103 262 -286l-342 -125q-42 84 -124 132t-181 48q-148 0 -248 -103q-98 -101 -98 -245q0 -151 94 -252t242 -101q92 0 170.5 46.5t119.5 125.5h-346v277h746q6 -74 6 -76q-3 -307 -201 -508q-197 -200 -497 -200q-292 0 -498 194
q-203 197 -203 492q0 296 205 489q206 197 508 197z" />
    <glyph glyph-name="H" unicode="H" horiz-adv-x="1331" 
d="M418 0h-350v1331h350v-497h495v497h351v-1331h-351v510h-495v-510z" />
    <glyph glyph-name="I" unicode="I" horiz-adv-x="485" 
d="M418 0h-350v1331h350v-1331z" />
    <glyph glyph-name="J" unicode="J" horiz-adv-x="1103" 
d="M1042 1331v-825q0 -227 -159 -377q-158 -149 -400 -149q-151 0 -276 64t-199 175l291 191q62 -109 188 -109q93 0 155.5 59.5t62.5 147.5v823h337z" />
    <glyph glyph-name="K" unicode="K" horiz-adv-x="1277" 
d="M68 0v1331h350v-479l373 479h442l-506 -649l545 -682h-443l-411 516v-516h-350z" />
    <glyph glyph-name="L" unicode="L" horiz-adv-x="1067" 
d="M68 1331h350v-1009h614v-322h-964v1331z" />
    <glyph glyph-name="M" unicode="M" horiz-adv-x="1650" 
d="M412 0h-344v1331h344l413 -735l414 735h344v-1331h-344v682l-297 -549h-233l-297 549v-682z" />
    <glyph glyph-name="N" unicode="N" horiz-adv-x="1347" 
d="M403 0h-335v1331h311l563 -731v731h338v-1331h-313l-564 727v-727z" />
    <glyph glyph-name="O" unicode="O" horiz-adv-x="1505" 
d="M754 1352q299 0 499 -197q203 -197 203 -489q0 -293 -203 -490q-199 -196 -499 -196q-302 0 -504 196q-201 198 -201 490q0 291 201 489q203 197 504 197zM416 668q0 -148 96 -252q94 -101 242 -101q145 0 239 101q99 102 99 252q0 143 -99 245q-95 103 -239 103
q-148 0 -242 -101q-96 -104 -96 -247z" />
    <glyph glyph-name="P" unicode="P" horiz-adv-x="1214" 
d="M418 399v-399h-350v1331h612q211 0 356 -133q146 -134 146 -332q0 -197 -146 -334q-145 -133 -356 -133h-262zM680 1008h-262v-287h262q60 0 98.5 41t38.5 104q0 61 -38.5 101.5t-98.5 40.5z" />
    <glyph glyph-name="Q" unicode="Q" horiz-adv-x="1505" 
d="M754 -20q-302 0 -504 196q-201 198 -201 490q0 291 201 489q203 197 504 197q299 0 499 -197q203 -197 203 -489q0 -229 -125 -400l129 -129l-223 -223l-145 145q-152 -79 -338 -79zM416 668q0 -148 96 -252q94 -101 242 -101q43 0 73 9l-155 155l223 223l172 -172
q25 67 25 138q0 143 -99 245q-95 103 -239 103q-148 0 -242 -101q-96 -104 -96 -247z" />
    <glyph glyph-name="R" unicode="R" horiz-adv-x="1271" 
d="M68 1331h630q214 0 359 -133q143 -131 143 -332q0 -124 -59 -227.5t-164 -165.5l268 -473h-389l-229 399h-209v-399h-350v1331zM698 1008h-280v-287h280q60 0 100 41t40 104q0 60 -40 101t-100 41z" />
    <glyph glyph-name="S" unicode="S" horiz-adv-x="1128" 
d="M1026 1022l-348 -64q-11 36 -48.5 59t-86.5 23q-52 0 -84.5 -21t-32.5 -56q0 -22 14.5 -37.5t44.5 -32.5q39 -17 93 -33l122 -37q156 -49 254 -125q131 -98 131 -288q0 -196 -139 -314q-137 -116 -362 -116q-210 0 -357 100q-153 104 -192 262l356 68q12 -50 67 -83.5
t128 -33.5q63 0 106 24.5t43 61.5q0 20 -15 36.5t-50.5 32.5t-61.5 25t-81 26q-23 7 -35 11q-147 49 -228 98q-90 53 -136 130t-52 196q0 186 127 301q129 117 332 117q183 0 319 -92q137 -91 172 -238z" />
    <glyph glyph-name="T" unicode="T" horiz-adv-x="1169" 
d="M410 1008h-377v323h1104v-323h-377v-1008h-350v1008z" />
    <glyph glyph-name="U" unicode="U" horiz-adv-x="1320" 
d="M909 547v784h351v-788q0 -238 -173 -402q-170 -161 -428 -161q-256 0 -426 161q-172 163 -172 402v788h351v-784q0 -104 71.5 -175t175.5 -71q106 0 178 71t72 175z" />
    <glyph glyph-name="V" unicode="V" horiz-adv-x="1386" 
d="M838 0h-289l-543 1331h365l321 -827l322 827h366z" />
    <glyph glyph-name="W" unicode="W" horiz-adv-x="1898" 
d="M737 0h-291l-440 1331h359l223 -756l217 756h291l219 -756l221 756h356l-440 -1331h-291l-211 713z" />
    <glyph glyph-name="X" unicode="X" horiz-adv-x="1380" 
d="M481 680l-456 651h417l248 -354l248 354h418l-457 -651l475 -680h-416l-268 381l-268 -381h-416z" />
    <glyph glyph-name="Y" unicode="Y" horiz-adv-x="1351" 
d="M496 553l-490 778h402l262 -450l276 450h400l-500 -770v-561h-350v553z" />
    <glyph glyph-name="Z" unicode="Z" horiz-adv-x="1183" 
d="M1128 322v-322h-1073v270l580 738h-574v323h1063v-270l-581 -739h585z" />
    <glyph glyph-name="bracketleft" unicode="[" horiz-adv-x="700" 
d="M381 -84h299v-274h-594v1894h594v-274h-299v-1346z" />
    <glyph glyph-name="backslash" unicode="\" horiz-adv-x="1126" 
d="M248 1536l878 -1894h-247l-879 1894h248z" />
    <glyph glyph-name="bracketright" unicode="]" horiz-adv-x="698" 
d="M612 -358h-592v274h297v1346h-297v274h592v-1894z" />
    <glyph glyph-name="asciicircum" unicode="^" horiz-adv-x="1228" 
d="M115 582l387 749h223l389 -758h-321l-179 345l-178 -336h-321z" />
    <glyph glyph-name="underscore" unicode="_" horiz-adv-x="409" 
d="M0 -348v246h410v-246h-410z" />
    <glyph glyph-name="grave" unicode="`" horiz-adv-x="618" 
d="M459 1309l-398 182l140 221l356 -258z" />
    <glyph glyph-name="a" unicode="a" 
d="M14 391q0 174 101 287q102 117 247 117q96 0 175 -52v35h299v-778h-299v37q-77 -51 -175 -51q-145 0 -247 114q-101 116 -101 291zM330 393q0 -49 29 -81.5t71 -32.5q43 0 72.5 32.5t29.5 81.5q0 44 -30.5 77.5t-71.5 33.5t-70.5 -33t-29.5 -78z" />
    <glyph glyph-name="b" unicode="b" 
d="M31 0v1434h299v-691q79 52 174 52q146 0 248 -117q100 -112 100 -287q0 -176 -100 -291q-102 -114 -248 -114q-97 0 -174 51v-37h-299zM334 393q0 -49 29.5 -81.5t72.5 -32.5q42 0 71.5 32.5t29.5 81.5q0 44 -30 77.5t-71 33.5t-71.5 -33.5t-30.5 -77.5z" />
    <glyph glyph-name="c" unicode="c" horiz-adv-x="851" 
d="M852 504l-303 -88q-11 39 -41 63.5t-68 24.5q-44 0 -77 -33t-33 -76q0 -51 31 -83.5t79 -32.5q39 0 70.5 24t38.5 62l303 -89q-43 -132 -154 -211t-258 -79q-182 0 -305 114q-121 118 -121 291q0 172 121 287q123 117 305 117q146 0 257.5 -79.5t154.5 -211.5z" />
    <glyph glyph-name="d" unicode="d" 
d="M14 391q0 174 101 287q102 117 247 117q96 0 175 -52v691h299v-1434h-299v37q-77 -51 -175 -51q-145 0 -247 114q-101 116 -101 291zM330 393q0 -49 29 -81.5t71 -32.5q43 0 72.5 32.5t29.5 81.5q0 44 -30.5 77.5t-71.5 33.5t-70.5 -33t-29.5 -78z" />
    <glyph glyph-name="e" unicode="e" horiz-adv-x="872" 
d="M844 285h-504q35 -68 115 -68q59 0 98 45l287 -45q-50 -106 -154 -168.5t-237 -62.5q-190 0 -312 116q-123 117 -123 289q0 169 121 287q123 117 301 117q179 0 299 -117q123 -117 123 -287q0 -51 -14 -106zM340 496h213q-30 67 -107 67q-72 0 -106 -67z" />
    <glyph glyph-name="f" unicode="f" horiz-adv-x="565" 
d="M406 1100v-322h153v-246h-153v-532h-300v532h-98v246h98v377q0 119 95 199t237 80h109v-287h-78q-26 0 -44.5 -13.5t-18.5 -33.5z" />
    <glyph glyph-name="g" unicode="g" 
d="M14 391q0 174 101 287q102 117 247 117q96 0 175 -52v35h299v-893q0 -156 -117 -258q-114 -102 -291 -102q-142 0 -251.5 73t-141.5 189l291 51q29 -45 98 -45q47 0 80 24.5t33 59.5v160q-77 -51 -175 -51q-145 0 -247 114q-101 116 -101 291zM330 387q0 -44 29.5 -76
t70.5 -32t71.5 32t30.5 76q0 49 -30 83t-72 34q-41 0 -70.5 -34t-29.5 -83z" />
    <glyph glyph-name="h" unicode="h" horiz-adv-x="813" 
d="M330 434v-434h-299v1434h299v-705q72 66 174 66q112 0 196 -84q82 -82 82 -205v-506h-301v434q0 38 -21 64t-52 26q-32 0 -55 -26t-23 -64z" />
    <glyph glyph-name="i" unicode="i" horiz-adv-x="360" 
d="M330 0h-299v778h299v-778zM180 1284q78 0 128 -50t50 -128q4 -56 -28.5 -100t-81 -62.5t-103.5 -10.5t-92 46q-40 37 -48 92t11 103.5t63.5 81t100.5 28.5z" />
    <glyph glyph-name="j" unicode="j" horiz-adv-x="376" 
d="M37 778h301v-956q0 -122 -98 -201q-98 -82 -242 -82h-80v287h53q29 0 47.5 11t18.5 28v913zM59 979q-51 51 -51 127t51 127q54 51 129.5 51t124.5 -51q51 -51 51 -127t-51 -127q-49 -49 -124.5 -49t-129.5 49z" />
    <glyph glyph-name="k" unicode="k" horiz-adv-x="835" 
d="M31 0v1434h299v-883l139 227h348l-229 -375l248 -403h-353l-153 254v-254h-299z" />
    <glyph glyph-name="l" unicode="l" horiz-adv-x="360" 
d="M330 0h-299v1434h299v-1434z" />
    <glyph glyph-name="m" unicode="m" horiz-adv-x="1234" 
d="M330 0h-299v778h299v-47q67 64 168 64q136 0 219 -105q73 105 209 105q112 0 196 -84q82 -82 82 -207v-504h-301v434q3 55 -32 78t-70.5 0t-32.5 -78v-434h-301v434q3 55 -32.5 78t-71 0t-33.5 -78v-434z" />
    <glyph glyph-name="n" unicode="n" horiz-adv-x="813" 
d="M330 434v-434h-299v778h299v-49q72 66 174 66q112 0 196 -84q82 -82 82 -205v-506h-301v434q0 38 -21 64t-52 26q-32 0 -55 -26t-23 -64z" />
    <glyph glyph-name="o" unicode="o" horiz-adv-x="880" 
d="M14 391q0 169 121 287q123 117 305 117q183 0 303 -117q121 -118 121 -287q0 -171 -121 -289q-119 -116 -303 -116q-183 0 -305 116q-121 118 -121 289zM330 391q0 -47 32.5 -79.5t77.5 -32.5t78 32.5t33 79.5q0 44 -33.5 78.5t-77.5 34.5t-77 -34t-33 -79z" />
    <glyph glyph-name="p" unicode="p" 
d="M330 -461h-299v1239h299v-35q79 52 174 52q146 0 248 -117q100 -112 100 -287q0 -176 -100 -291q-102 -114 -248 -114q-97 0 -174 51v-498zM334 387q0 -44 30.5 -76t71.5 -32t71 32t30 76q0 49 -29.5 83t-71.5 34t-72 -34t-30 -83z" />
    <glyph glyph-name="q" unicode="q" 
d="M14 391q0 174 101 287q102 117 247 117q96 0 175 -52v35h299v-1239h-299v498q-77 -51 -175 -51q-145 0 -247 114q-101 116 -101 291zM432 504q-43 0 -72.5 -34t-29.5 -83q0 -44 29.5 -76t72.5 -32q41 0 70.5 32t29.5 76q0 49 -29.5 83t-70.5 34z" />
    <glyph glyph-name="r" unicode="r" horiz-adv-x="538" 
d="M330 778v-49q66 66 200 66v-303q-32 32 -86 32q-49 0 -81.5 -35t-32.5 -86v-403h-299v778h299z" />
    <glyph glyph-name="s" unicode="s" horiz-adv-x="733" 
d="M707 575l-269 -43q-12 43 -76 43q-47 0 -47 -16q0 -20 45 -29l99 -26q142 -41 201 -99t59 -155q0 -128 -89 -196t-259 -68q-323 0 -357 241l271 37q15 -49 90 -49q57 0 57 18q0 21 -61 33l-107 23q-129 26 -185 83t-56 158q0 265 342 265q315 0 342 -220z" />
    <glyph glyph-name="t" unicode="t" horiz-adv-x="571" 
d="M8 520v258h96v150h302v-150h143v-258h-143v-180q0 -23 18 -38t45 -15h80v-287h-156q-121 0 -205 72q-84 75 -84 180v268h-96z" />
    <glyph glyph-name="u" unicode="u" horiz-adv-x="813" 
d="M31 274v504h299v-432q-4 -55 36 -78t79.5 0t35.5 78v432h301v-778h-301v51q-71 -65 -172 -65q-112 0 -196 84q-82 82 -82 204z" />
    <glyph glyph-name="v" unicode="v" horiz-adv-x="880" 
d="M293 0l-293 778h309l131 -399l131 399h310l-293 -778h-295z" />
    <glyph glyph-name="w" unicode="w" horiz-adv-x="1161" 
d="M791 487l67 291h303l-231 -778h-279l-69 276l-74 -276h-277l-231 778h301l68 -295l71 295h281z" />
    <glyph glyph-name="x" unicode="x" horiz-adv-x="899" 
d="M549 0l-100 176l-99 -176h-350l266 403l-248 375h351l80 -145l81 145h351l-248 -375l266 -403h-350z" />
    <glyph glyph-name="y" unicode="y" horiz-adv-x="849" 
d="M279 -47l8 27l-287 798h309l113 -370l119 370h309l-330 -925q-114 -314 -430 -314h-20v287h22q146 0 187 127z" />
    <glyph glyph-name="z" unicode="z" horiz-adv-x="716" 
d="M31 0v188l233 320h-225v270h641v-186l-229 -320h235v-272h-655z" />
    <glyph glyph-name="braceleft" unicode="{" horiz-adv-x="739" 
d="M639 1536h80v-279h-78q-63 0 -107.5 -33.5t-44.5 -82.5v-191q0 -299 -172 -360q172 -64 172 -363v-190q0 -49 44.5 -83t107.5 -34h78v-278h-80q-184 0 -311 127q-125 125 -125 313v186q0 47 -43 92t-94 66l-46 20v283l52 21q32 16 80 61q51 45 51 98v187q0 188 125 313
q127 127 311 127z" />
    <glyph glyph-name="bar" unicode="|" horiz-adv-x="327" 
d="M266 -358h-205v1894h205v-1894z" />
    <glyph glyph-name="braceright" unicode="}" horiz-adv-x="739" 
d="M20 1257v279h80q185 0 312 -127q125 -125 125 -313v-187q0 -47 42.5 -92.5t92.5 -66.5l47 -21v-283q-26 -7 -51 -20q-30 -15 -82 -61q-49 -46 -49 -97v-186q0 -188 -125 -313q-127 -127 -312 -127h-80v278h78q63 0 107.5 34t44.5 83v190q0 299 172 363q-172 61 -172 360
v191q0 49 -44.5 82.5t-107.5 33.5h-78z" />
    <glyph glyph-name="asciitilde" unicode="~" horiz-adv-x="1228" 
d="M758 473q-49 0 -101.5 16.5t-88 37t-69 37t-50.5 16.5q-35 0 -58.5 -27t-23.5 -66h-250q0 161 100 267t254 106q63 0 128.5 -27t114 -54t68.5 -27q32 0 56 27t24 65h250q0 -156 -102 -264q-101 -107 -252 -107z" />
    <glyph glyph-name="exclamdown" unicode="&#xa1;" horiz-adv-x="434" 
d="M59 635q0 67 46 113.5t112 46.5q69 0 114.5 -46t45.5 -114q0 -69 -45.5 -115.5t-114.5 -46.5q-66 0 -112 46.5t-46 115.5zM41 -461l45 836h262l45 -836h-352z" />
    <glyph glyph-name="cent" unicode="&#xa2;" horiz-adv-x="851" 
d="M328 41v233q-141 36 -227.5 142.5t-86.5 251.5q0 141 86 250q87 106 228 141v231h225v-233q108 -26 185.5 -99t113.5 -178l-303 -88q-11 39 -41 63.5t-68 24.5q-44 0 -77 -32.5t-33 -75.5q0 -51 31.5 -84t78.5 -33q39 0 70.5 24t38.5 62l303 -88q-36 -105 -113.5 -178
t-185.5 -99v-235h-225z" />
    <glyph glyph-name="sterling" unicode="&#xa3;" horiz-adv-x="1212" 
d="M1085 0h-1034v324h123v188h-82v199h82v184q0 198 139 328q138 129 342 129q177 0 318 -99q140 -92 188 -243l-338 -92q-18 48 -64 80t-102 32q-62 0 -104.5 -38t-42.5 -93v-188h393v-199h-393v-188h575v-324z" />
    <glyph glyph-name="currency" unicode="&#xa4;" horiz-adv-x="954" 
d="M205 248l-144 145l115 115q-37 69 -37 157.5t37 155.5l-115 115l144 145l114 -114q69 37 158 37t158 -37l115 114l143 -145l-115 -115q37 -67 37 -155.5t-37 -157.5l115 -115l-143 -145l-117 117q-67 -37 -155 -37t-156 37zM381 760q-37 -37 -37 -95t37 -96
q38 -37 95.5 -37t94.5 37q38 38 38 96t-38 95q-37 38 -94.5 38t-95.5 -38z" />
    <glyph glyph-name="yen" unicode="&#xa5;" horiz-adv-x="1351" 
d="M266 608h195l-455 723h402l262 -446l274 446h402l-469 -723h198v-198h-229v-72h229v-199h-229v-139h-350v139h-230v199h230v72h-230v198z" />
    <glyph glyph-name="brokenbar" unicode="&#xa6;" horiz-adv-x="327" 
d="M266 1536v-799h-205v799h205zM61 -358v798h205v-798h-205z" />
    <glyph glyph-name="section" unicode="&#xa7;" horiz-adv-x="940" 
d="M479 -375q-175 0 -305 92q-125 91 -160 240l281 104q19 -78 68.5 -125t115.5 -47q62 0 107 38.5t45 92.5q0 71 -68 95l-266 102q-111 42 -176.5 122.5t-65.5 172.5q0 118 101 225q-101 101 -101 244q0 158 119 262q120 105 301 105q160 0 281 -86q120 -86 155 -228
l-274 -102q-24 69 -65.5 109t-94.5 40q-54 0 -91.5 -37t-37.5 -88q0 -67 45 -82l277 -102q120 -45 188 -127.5t68 -185.5q0 -122 -101 -223q101 -101 101 -240q0 -158 -127 -264q-125 -107 -320 -107zM563 559l-186 59l-4 -4q-25 -67 -25 -96q0 -66 43 -84l201 -72
q39 33 39 99q0 77 -68 98z" />
    <glyph glyph-name="dieresis" unicode="&#xa8;" horiz-adv-x="825" 
d="M217 1632q66 0 111 -44t45 -111t-45 -112.5t-111 -45.5q-67 0 -111.5 45t-44.5 113q0 67 44 111t112 44zM608 1632q66 0 111 -44t45 -111t-45 -112.5t-111 -45.5q-67 0 -111 45t-44 113q0 67 43.5 111t111.5 44z" />
    <glyph glyph-name="copyright" unicode="&#xa9;" horiz-adv-x="1470" 
d="M250 180q-201 201 -201 486q0 284 201 485t485 201q285 0 486 -201q200 -200 200 -485q0 -286 -200 -486t-486 -200q-285 0 -485 200zM324 1077q-170 -170 -170 -411q0 -242 170 -412t411 -170q242 0 412 170q172 169 172 412q0 242 -172 411q-169 172 -412 172
q-242 0 -411 -172zM741 1061q122 0 221.5 -61t149.5 -164l-199 -72q-52 104 -172 104q-84 0 -139 -57.5t-55 -142.5q0 -87 55 -145t139 -58q120 0 172 104l199 -73q-50 -104 -148.5 -164t-222.5 -60q-174 0 -290 113q-115 115 -115 281q0 165 115 280q118 115 290 115z" />
    <glyph glyph-name="ordfeminine" unicode="&#xaa;" horiz-adv-x="598" 
d="M6 1057q0 117 68 200q70 82 172 82q63 0 114 -32v20h222v-545h-222v25q-53 -33 -114 -33q-103 0 -171.5 81t-68.5 202zM240 1057q0 -29 16.5 -48.5t40.5 -19.5q25 0 42 19.5t17 48.5q0 26 -18 46.5t-41 20.5t-40 -20.5t-17 -46.5z" />
    <glyph glyph-name="guillemotleft" unicode="&#xab;" horiz-adv-x="1021" 
d="M389 20l-369 369l369 367l172 -174l-192 -193l192 -194zM807 20l-367 369l367 367l174 -174l-195 -193l195 -194z" />
    <glyph glyph-name="logicalnot" unicode="&#xac;" horiz-adv-x="1228" 
d="M838 238v284h-723v287h999v-571h-276z" />
    <glyph glyph-name="uni00AD" unicode="&#xad;" horiz-adv-x="737" 
d="M94 266v246h549v-246h-549z" />
    <glyph glyph-name="registered" unicode="&#xae;" horiz-adv-x="1470" 
d="M250 180q-201 201 -201 486q0 284 201 485t485 201q285 0 486 -201q200 -200 200 -485q0 -286 -200 -486t-486 -200q-285 0 -485 200zM324 254q170 -170 411 -170q242 0 412 170t170 412q0 241 -170 411q-169 172 -412 172q-242 0 -411 -172q-170 -170 -170 -411
q0 -242 170 -412zM623 285h-201v764h364q121 0 205 -78q82 -76 82 -191q0 -148 -127 -225l154 -270h-226l-131 227h-120v-227zM786 864h-163v-166h163q48 -4 68 39t0 86.5t-68 40.5z" />
    <glyph glyph-name="overscore" unicode="&#xaf;" horiz-adv-x="628" 
d="M567 1372h-506v225h506v-225z" />
    <glyph glyph-name="degree" unicode="&#xb0;" horiz-adv-x="847" 
d="M150 782q-109 115 -109 281t109 278q110 113 274 113q165 0 272 -113q111 -111 111 -278t-111 -281q-106 -112 -272 -112q-165 0 -274 112zM340 1145q-32 -32 -32 -81.5t32 -84.5q35 -32 84.5 -32t81.5 32q35 35 35 84.5t-35 81.5q-32 35 -81.5 35t-84.5 -35z" />
    <glyph glyph-name="plusminus" unicode="&#xb1;" horiz-adv-x="1228" 
d="M471 686h-356v287h356v356h287v-356h356v-287h-356v-274h-287v274zM115 41v287h999v-287h-999z" />
    <glyph glyph-name="twosuperior" unicode="&#xb2;" horiz-adv-x="604" 
d="M365 1204q0 21 -19.5 36t-48.5 15q-66 0 -104 -84l-183 89q41 85 117.5 133.5t169.5 48.5q115 0 192 -68q80 -68 80 -162q0 -120 -161 -262l-72 -63h237v-187h-536v144l254 237q74 68 74 123z" />
    <glyph glyph-name="threesuperior" unicode="&#xb3;" horiz-adv-x="616" 
d="M367 1202q0 23 -22.5 38t-59.5 15q-75 0 -90 -45l-175 60q36 78 110 125t169 47q117 0 194.5 -67t77.5 -169q0 -78 -63 -123q84 -53 84 -149q0 -106 -82 -175t-207 -69q-105 0 -184.5 53t-104.5 140l183 63q0 -30 31.5 -50t68 -19t65.5 18q42 31 18.5 68.5t-83.5 37.5
h-55v146h34q38 0 64.5 15.5t26.5 39.5z" />
    <glyph glyph-name="acute" unicode="&#xb4;" horiz-adv-x="618" 
d="M160 1309l-99 145l357 258l139 -221z" />
    <glyph glyph-name="mu" unicode="&#xb5;" horiz-adv-x="813" 
d="M289 -14v-447h-258v1239h299v-432q-4 -55 36 -78t79.5 0t35.5 78v432h301v-778h-301v51q-68 -65 -192 -65z" />
    <glyph glyph-name="paragraph" unicode="&#xb6;" horiz-adv-x="1255" 
d="M467 1331h758v-184h-164v-1505h-205v1505h-184v-1505h-205v835q-182 0 -305 123q-121 124 -121 305q0 180 123 303t303 123z" />
    <glyph glyph-name="middot" unicode="&#xb7;" horiz-adv-x="403" 
d="M31 666q0 74 49 124t121 50q73 0 122.5 -50t49.5 -124t-49.5 -123t-122.5 -49q-72 0 -121 50t-49 122z" />
    <glyph glyph-name="cedilla" unicode="&#xb8;" horiz-adv-x="602" 
d="M184 -139l35 139h207l-14 -51q5 -1 14 -4t31 -16t39 -30.5t31 -50t14 -71.5q0 -90 -69 -146.5t-173 -56.5q-62 0 -122 21.5t-89 48.5l-27 22l41 125q51 -57 142 -57q47 0 79.5 17t32.5 42t-41.5 43.5t-87.5 20.5z" />
    <glyph glyph-name="onesuperior" unicode="&#xb9;" horiz-adv-x="509" 
d="M217 1210l-108 -47l-70 164l233 107h142v-734h-197v510z" />
    <glyph glyph-name="ordmasculine" unicode="&#xba;" horiz-adv-x="610" 
d="M604 1055q0 -118 -86 -201q-85 -82 -213 -82q-130 0 -215 82q-84 84 -84 201t86 200q85 82 213 82q126 0 213 -84q86 -83 86 -198zM240 1055q0 -31 20.5 -49t45 -18t45 18t20.5 49q2 41 -31.5 57.5t-67.5 0t-32 -57.5z" />
    <glyph glyph-name="guillemotright" unicode="&#xbb;" horiz-adv-x="1021" 
d="M635 756l366 -367l-366 -369l-174 175l192 194l-192 193zM215 756l367 -367l-367 -369l-174 175l195 194l-195 193z" />
    <glyph glyph-name="onequarter" unicode="&#xbc;" horiz-adv-x="1628" 
d="M1423 1331l-931 -1331h-250l932 1331h249zM991 125v188l355 420h186v-422h76v-186h-76v-125h-197v125h-344zM217 1108l-108 -47l-70 164l233 106h142v-733h-197v510z" />
    <glyph glyph-name="onehalf" unicode="&#xbd;" horiz-adv-x="1697" 
d="M1423 1331l-931 -1331h-250l932 1331h249zM1286 471l-182 88q41 85 117.5 133.5t169.5 48.5q116 0 192 -67q80 -68 80 -162q0 -119 -162 -262l-71 -64h237v-186h-537v143l254 238q74 68 74 123q0 21 -19 36t-48 15q-67 0 -105 -84zM109 1061l-70 164l233 106h142v-733
h-197v510z" />
    <glyph glyph-name="threequarters" unicode="&#xbe;" horiz-adv-x="1714" 
d="M578 0h-250l932 1331h249zM1077 125v188l355 420h186v-422h76v-186h-76v-125h-197v125h-344zM303 588q-106 0 -185 53t-104 139l183 64q0 -30 31.5 -50t68 -19t65.5 18q42 31 18.5 68.5t-83.5 37.5h-55v145h34q38 0 64.5 16t26.5 40q0 23 -22.5 38t-59.5 15
q-75 0 -90 -45l-175 59q36 78 110 125t169 47q117 0 194.5 -66.5t77.5 -168.5q0 -78 -63 -123q84 -53 84 -150q0 -106 -82 -174.5t-207 -68.5zM1421 444l-110 -133h110v133z" />
    <glyph glyph-name="questiondown" unicode="&#xbf;" horiz-adv-x="1112" 
d="M412 -74q0 -43 48.5 -72.5t117.5 -29.5q61 0 105.5 35.5t61.5 97.5l338 -92q-48 -155 -182.5 -248.5t-316.5 -93.5q-218 0 -363 115t-145 290q0 67 24 123t56.5 89.5t78.5 60.5t77 38.5t65 20.5l35 6l14 109h279l36 -293q-50 -6 -114 -19q-89 -17 -150 -51.5t-65 -85.5z
M727 635q0 -69 -46 -115.5t-112 -46.5q-69 0 -114 46.5t-45 115.5q0 68 45 114t114 46q66 0 112 -46.5t46 -113.5z" />
    <glyph glyph-name="Agrave" unicode="&#xc0;" horiz-adv-x="1404" 
d="M371 0h-365l551 1331h291l551 -1331h-367l-78 197h-505zM909 1597l-98 -145l-397 182l139 221zM702 831l-131 -327h263z" />
    <glyph glyph-name="Aacute" unicode="&#xc1;" horiz-adv-x="1404" 
d="M449 197l-78 -197h-365l551 1331h291l551 -1331h-367l-78 197h-505zM993 1634l-397 -182l-98 145l356 258zM702 831l-131 -327h263z" />
    <glyph glyph-name="Acircumflex" unicode="&#xc2;" horiz-adv-x="1404" 
d="M371 0h-365l551 1331h291l551 -1331h-367l-78 197h-505zM702 1581l-221 -129l-98 139l309 260h21l309 -260l-98 -139zM702 831l-131 -327h263z" />
    <glyph glyph-name="Atilde" unicode="&#xc3;" horiz-adv-x="1404" 
d="M449 197l-78 -197h-365l551 1331h291l551 -1331h-367l-78 197h-505zM573 1495h-202q0 117 60.5 193.5t154.5 76.5q58 0 114 -39q56 -36 78 -36q23 0 37 19t14 46h203q0 -117 -60.5 -193.5t-154.5 -76.5q-59 0 -117 37q-56 39 -73 39q-23 0 -38.5 -18.5t-15.5 -47.5z
M702 831l-131 -327h263z" />
    <glyph glyph-name="Adieresis" unicode="&#xc4;" horiz-adv-x="1404" 
d="M449 197l-78 -197h-365l551 1331h291l551 -1331h-367l-78 197h-505zM508 1776q66 0 111 -44.5t45 -111.5t-45 -112.5t-111 -45.5q-67 0 -111.5 45t-44.5 113t44 112t112 44zM897 1776q66 0 111 -44.5t45 -111.5t-45 -112.5t-111 -45.5q-67 0 -111.5 45t-44.5 113
t44.5 112t111.5 44zM702 831l-131 -327h263z" />
    <glyph glyph-name="Aring" unicode="&#xc5;" horiz-adv-x="1404" 
d="M449 197l-78 -197h-365l551 1331h291l551 -1331h-367l-78 197h-505zM539 1868q64 67 163 67q100 0 164 -67q66 -66 66 -164t-66 -164q-65 -65 -164 -65q-98 0 -163 65q-66 66 -66 164t66 164zM702 831l-131 -327h263zM756 1704q0 34 -27 48t-53.5 0t-26.5 -48
q0 -33 26.5 -46.5t53.5 0t27 46.5z" />
    <glyph glyph-name="AE" unicode="&#xc6;" horiz-adv-x="2033" 
d="M395 0h-389l774 1331h1200v-323h-637v-177h523v-323h-523v-186h646v-322h-996v197h-487zM680 504h313v553z" />
    <glyph glyph-name="Ccedilla" unicode="&#xc7;" horiz-adv-x="1429" 
d="M49 666q0 291 201 489q203 197 504 197q216 0 387 -107q174 -107 256 -284l-342 -125q-43 85 -122 132.5t-179 47.5q-148 0 -242 -101q-96 -104 -96 -247q0 -148 96 -252q94 -101 242 -101q99 0 178.5 48t122.5 133l342 -125q-69 -150 -205 -251t-309 -130l-13 -41
q5 -1 14 -4t31 -16t39 -30.5t31 -50t14 -71.5q0 -90 -68.5 -146.5t-172.5 -56.5q-62 0 -122 21.5t-89 48.5l-27 22l41 125q51 -57 141 -57q47 0 80 17t33 42t-41.5 43.5t-87.5 20.5l-43 4l31 123q-272 27 -449 219q-176 194 -176 463z" />
    <glyph glyph-name="Egrave" unicode="&#xc8;" horiz-adv-x="1128" 
d="M68 1331h1007v-323h-657v-177h543v-323h-543v-186h665v-322h-1015v1331zM780 1597l-98 -145l-397 182l139 221z" />
    <glyph glyph-name="Eacute" unicode="&#xc9;" horiz-adv-x="1128" 
d="M68 1331h1007v-323h-657v-177h543v-323h-543v-186h665v-322h-1015v1331zM864 1634l-397 -182l-98 145l356 258z" />
    <glyph glyph-name="Ecircumflex" unicode="&#xca;" horiz-adv-x="1128" 
d="M68 0v1331h1007v-323h-657v-177h543v-323h-543v-186h665v-322h-1015zM352 1452l-98 139l309 260h21l309 -260l-98 -139l-222 129z" />
    <glyph glyph-name="Edieresis" unicode="&#xcb;" horiz-adv-x="1128" 
d="M1083 0h-1015v1331h1007v-323h-657v-177h543v-323h-543v-186h665v-322zM768 1776q66 0 111 -44.5t45 -111.5t-45 -112.5t-111 -45.5q-67 0 -111.5 45t-44.5 113t44 112t112 44zM379 1462q-67 0 -111.5 45t-44.5 113t44.5 112t111.5 44q66 0 111 -44.5t45 -111.5
t-45 -112.5t-111 -45.5z" />
    <glyph glyph-name="Igrave" unicode="&#xcc;" horiz-adv-x="485" 
d="M418 0h-350v1331h350v-1331zM350 1452l-397 182l139 221l357 -258z" />
    <glyph glyph-name="Iacute" unicode="&#xcd;" horiz-adv-x="485" 
d="M418 0h-350v1331h350v-1331zM135 1452l-98 145l356 258l139 -221z" />
    <glyph glyph-name="Icircumflex" unicode="&#xce;" horiz-adv-x="485" 
d="M418 0h-350v1331h350v-1331zM242 1581l-222 -129l-98 139l309 260h21l309 -260l-98 -139z" />
    <glyph glyph-name="Idieresis" unicode="&#xcf;" horiz-adv-x="485" 
d="M418 0h-350v1331h350v-1331zM47 1776q66 0 111 -44.5t45 -111.5t-45 -112.5t-111 -45.5q-67 0 -111.5 45t-44.5 113t44.5 112t111.5 44zM436 1776q66 0 111 -44.5t45 -111.5t-45 -112.5t-111 -45.5q-67 0 -111 45t-44 113t44 112t111 44z" />
    <glyph glyph-name="Eth" unicode="&#xd0;" horiz-adv-x="1421" 
d="M10 512v307h103v512h563q303 0 504 -192q202 -193 202 -473q0 -283 -202 -476q-202 -190 -504 -190h-563v512h-103zM506 969v-150h262v-307h-262v-152h170q125 0 211 89t86 217q0 126 -86 215q-85 88 -211 88h-170z" />
    <glyph glyph-name="Ntilde" unicode="&#xd1;" horiz-adv-x="1347" 
d="M68 0v1331h311l563 -731v731h338v-1331h-313l-564 727v-727h-335zM545 1495h-203q0 117 60.5 193.5t154.5 76.5q59 0 115 -39q56 -36 78 -36q23 0 37 19t14 46h203q0 -117 -61 -193.5t-155 -76.5q-58 0 -116 37q-56 39 -74 39q-23 0 -38 -18.5t-15 -47.5z" />
    <glyph glyph-name="Ograve" unicode="&#xd2;" horiz-adv-x="1505" 
d="M754 1352q299 0 499 -197q203 -197 203 -489q0 -293 -203 -490q-199 -196 -499 -196q-302 0 -504 196q-201 198 -201 490q0 291 201 489q203 197 504 197zM416 668q0 -148 96 -252q94 -101 242 -101q145 0 239 101q99 102 99 252q0 143 -99 245q-95 103 -239 103
q-148 0 -242 -101q-96 -104 -96 -247zM862 1452l-397 182l139 221l357 -258z" />
    <glyph glyph-name="Oacute" unicode="&#xd3;" horiz-adv-x="1505" 
d="M754 1352q299 0 499 -197q203 -197 203 -489q0 -293 -203 -490q-199 -196 -499 -196q-302 0 -504 196q-201 198 -201 490q0 291 201 489q203 197 504 197zM416 668q0 -148 96 -252q94 -101 242 -101q145 0 239 101q99 102 99 252q0 143 -99 245q-95 103 -239 103
q-148 0 -242 -101q-96 -104 -96 -247zM647 1452l-98 145l356 258l139 -221z" />
    <glyph glyph-name="Ocircumflex" unicode="&#xd4;" horiz-adv-x="1505" 
d="M754 1352q299 0 499 -197q203 -197 203 -489q0 -293 -203 -490q-199 -196 -499 -196q-302 0 -504 196q-201 198 -201 490q0 291 201 489q203 197 504 197zM416 668q0 -148 96 -252q94 -101 242 -101q145 0 239 101q99 102 99 252q0 143 -99 245q-95 103 -239 103
q-148 0 -242 -101q-96 -104 -96 -247zM754 1581l-222 -129l-98 139l309 260h21l309 -260l-98 -139z" />
    <glyph glyph-name="Otilde" unicode="&#xd5;" horiz-adv-x="1505" 
d="M754 1352q299 0 499 -197q203 -197 203 -489q0 -293 -203 -490q-199 -196 -499 -196q-302 0 -504 196q-201 198 -201 490q0 291 201 489q203 197 504 197zM416 668q0 -148 96 -252q94 -101 242 -101q145 0 239 101q99 102 99 252q0 143 -99 245q-95 103 -239 103
q-148 0 -242 -101q-96 -104 -96 -247zM625 1495h-203q0 117 60.5 193.5t154.5 76.5q59 0 115 -39q56 -36 77 -36q23 0 37.5 19t14.5 46h202q0 -117 -60.5 -193.5t-154.5 -76.5q-58 0 -116 37q-56 39 -74 39q-23 0 -38 -18.5t-15 -47.5z" />
    <glyph glyph-name="Odieresis" unicode="&#xd6;" horiz-adv-x="1505" 
d="M754 1352q299 0 499 -197q203 -197 203 -489q0 -293 -203 -490q-199 -196 -499 -196q-302 0 -504 196q-201 198 -201 490q0 291 201 489q203 197 504 197zM416 668q0 -148 96 -252q94 -101 242 -101q145 0 239 101q99 102 99 252q0 143 -99 245q-95 103 -239 103
q-148 0 -242 -101q-96 -104 -96 -247zM559 1776q66 0 111 -44.5t45 -111.5t-45 -112.5t-111 -45.5q-67 0 -111.5 45t-44.5 113t44.5 112t111.5 44zM948 1776q66 0 111 -44.5t45 -111.5t-45 -112.5t-111 -45.5q-67 0 -111 45t-44 113t44 112t111 44z" />
    <glyph glyph-name="multiply" unicode="&#xd7;" horiz-adv-x="1228" 
d="M412 666l-293 292l203 203l292 -293l293 293l203 -203l-293 -292l293 -293l-203 -203l-293 293l-292 -293l-203 203z" />
    <glyph glyph-name="Oslash" unicode="&#xd8;" horiz-adv-x="1505" 
d="M250 43l59 84q-124 94 -192 234t-68 305q0 291 201 489q203 197 504 197q193 0 350 -86l61 86l90 -64l-59 -84q124 -94 192 -233.5t68 -304.5q0 -293 -203 -490q-199 -196 -499 -196q-193 0 -353 86l-61 -86zM993 915l-393 -565q72 -35 154 -35q145 0 239 101
q99 102 99 252q0 145 -99 247zM510 416l395 565q-72 35 -151 35q-146 0 -244 -101q-96 -104 -96 -247q0 -148 96 -252z" />
    <glyph glyph-name="Ugrave" unicode="&#xd9;" horiz-adv-x="1320" 
d="M909 547v784h351v-788q0 -238 -173 -402q-170 -161 -428 -161q-256 0 -426 161q-172 163 -172 402v788h351v-784q0 -104 71.5 -175t175.5 -71q106 0 178 71t72 175zM770 1452l-397 182l139 221l356 -258z" />
    <glyph glyph-name="Uacute" unicode="&#xda;" horiz-adv-x="1320" 
d="M909 547v784h351v-788q0 -238 -173 -402q-170 -161 -428 -161q-256 0 -426 161q-172 163 -172 402v788h351v-784q0 -104 71.5 -175t175.5 -71q106 0 178 71t72 175zM555 1452l-98 145l356 258l139 -221z" />
    <glyph glyph-name="Ucircumflex" unicode="&#xdb;" horiz-adv-x="1320" 
d="M909 547v784h351v-788q0 -238 -173 -402q-170 -161 -428 -161q-256 0 -426 161q-172 163 -172 402v788h351v-784q0 -104 71.5 -175t175.5 -71q106 0 178 71t72 175zM662 1581l-222 -129l-98 139l309 260h21l309 -260l-98 -139z" />
    <glyph glyph-name="Udieresis" unicode="&#xdc;" horiz-adv-x="1320" 
d="M909 547v784h351v-788q0 -238 -173 -402q-170 -161 -428 -161q-256 0 -426 161q-172 163 -172 402v788h351v-784q0 -104 71.5 -175t175.5 -71q106 0 178 71t72 175zM467 1776q66 0 111 -44.5t45 -111.5t-45 -112.5t-111 -45.5q-67 0 -111.5 45t-44.5 113t44.5 112
t111.5 44zM856 1776q66 0 111 -44.5t45 -111.5t-45 -112.5t-111 -45.5q-67 0 -111.5 45t-44.5 113t44 112t112 44z" />
    <glyph glyph-name="Yacute" unicode="&#xdd;" horiz-adv-x="1351" 
d="M496 0v553l-490 778h402l262 -450l276 450h400l-500 -770v-561h-350zM967 1634l-398 -182l-98 145l356 258z" />
    <glyph glyph-name="Thorn" unicode="&#xde;" horiz-adv-x="1214" 
d="M68 0v1331h350v-201h262q211 0 356 -133q146 -134 146 -331t-146 -334q-145 -133 -356 -133h-262v-199h-350zM680 809h-262v-289h262q60 0 98.5 41.5t38.5 104.5q0 62 -38.5 102.5t-98.5 40.5z" />
    <glyph glyph-name="germandbls" unicode="&#xdf;" horiz-adv-x="997" 
d="M436 1163q-43 0 -74.5 -37.5t-31.5 -85.5v-1040h-299v1036q0 178 114 295q116 119 299 119q169 0 281 -100q115 -103 115 -250q0 -54 -16.5 -103.5t-37 -78.5t-37 -59.5t-16.5 -51.5q0 -31 25.5 -61.5t62 -62.5t73 -74t62 -112.5t25.5 -160.5q0 -183 -130 -266.5
t-409 -83.5v288q228 0 228 66q0 49 -125 158q-50 47 -86.5 122.5t-36.5 159.5q0 57 16.5 111.5t36.5 86.5t36.5 61.5t16.5 43.5q0 32 -28 56t-64 24z" />
    <glyph glyph-name="agrave" unicode="&#xe0;" 
d="M362 -14q-145 0 -247 114q-101 116 -101 291q0 174 101 287q102 117 247 117q96 0 175 -52v35h299v-778h-299v37q-77 -51 -175 -51zM653 1085l-98 -145l-397 182l139 221zM330 393q0 -49 29 -81.5t71 -32.5q43 0 72.5 32.5t29.5 81.5q0 44 -30.5 77.5t-71.5 33.5
t-70.5 -33t-29.5 -78z" />
    <glyph glyph-name="aacute" unicode="&#xe1;" 
d="M362 -14q-145 0 -247 114q-101 116 -101 291q0 174 101 287q102 117 247 117q96 0 175 -52v35h299v-778h-299v37q-77 -51 -175 -51zM737 1122l-397 -182l-98 145l356 258zM330 393q0 -49 29 -81.5t71 -32.5q43 0 72.5 32.5t29.5 81.5q0 44 -30.5 77.5t-71.5 33.5
t-70.5 -33t-29.5 -78z" />
    <glyph glyph-name="acircumflex" unicode="&#xe2;" 
d="M362 -14q-145 0 -247 114q-101 116 -101 291q0 174 101 287q102 117 247 117q96 0 175 -52v35h299v-778h-299v37q-77 -51 -175 -51zM225 940l-98 139l309 260h21l309 -260l-98 -139l-222 129zM330 393q0 -49 29 -81.5t71 -32.5q43 0 72.5 32.5t29.5 81.5q0 44 -30.5 77.5
t-71.5 33.5t-70.5 -33t-29.5 -78z" />
    <glyph glyph-name="atilde" unicode="&#xe3;" 
d="M14 391q0 174 101 287q102 117 247 117q96 0 175 -52v35h299v-778h-299v37q-77 -51 -175 -51q-145 0 -247 114q-101 116 -101 291zM317 983h-202q0 117 60.5 193.5t154.5 76.5q58 0 114 -39q56 -36 78 -36q23 0 37 19t14 46h203q0 -117 -60.5 -193.5t-154.5 -76.5
q-59 0 -117 37q-56 39 -73 39q-23 0 -38.5 -18.5t-15.5 -47.5zM330 393q0 -49 29 -81.5t71 -32.5q43 0 72.5 32.5t29.5 81.5q0 44 -30.5 77.5t-71.5 33.5t-70.5 -33t-29.5 -78z" />
    <glyph glyph-name="adieresis" unicode="&#xe4;" 
d="M362 -14q-145 0 -247 114q-101 116 -101 291q0 174 101 287q102 117 247 117q96 0 175 -52v35h299v-778h-299v37q-77 -51 -175 -51zM252 950q-67 0 -111.5 45t-44.5 113t44 112t112 44q66 0 111 -44.5t45 -111.5t-45 -112.5t-111 -45.5zM641 1264q66 0 111 -44.5
t45 -111.5t-45 -112.5t-111 -45.5q-67 0 -111.5 45t-44.5 113t44.5 112t111.5 44zM330 393q0 -49 29 -81.5t71 -32.5q43 0 72.5 32.5t29.5 81.5q0 44 -30.5 77.5t-71.5 33.5t-70.5 -33t-29.5 -78z" />
    <glyph glyph-name="aring" unicode="&#xe5;" 
d="M362 -14q-145 0 -247 114q-101 116 -101 291q0 174 101 287q102 117 247 117q96 0 175 -52v35h299v-778h-299v37q-77 -51 -175 -51zM283 1028q-66 66 -66 164t66 164q64 67 163 67q100 0 164 -67q66 -66 66 -164t-66 -164q-65 -65 -164 -65q-98 0 -163 65zM330 393
q0 -49 29 -81.5t71 -32.5q43 0 72.5 32.5t29.5 81.5q0 44 -30.5 77.5t-71.5 33.5t-70.5 -33t-29.5 -78zM393 1192q0 -33 26.5 -46.5t53.5 0t27 46.5q0 34 -27 48t-53.5 0t-26.5 -48z" />
    <glyph glyph-name="ae" unicode="&#xe6;" horiz-adv-x="1394" 
d="M362 -14q-145 0 -247 114q-101 116 -101 291q0 174 101 287q102 117 247 117q96 0 175 -52v35h299v-26q82 43 172 43q156 0 264 -117t108 -287q0 -51 -14 -106h-504q35 -68 115 -68q59 0 98 45l287 -45q-43 -106 -135 -168.5t-209 -62.5q-102 0 -182 45v-31h-299v37
q-77 -51 -175 -51zM330 393q0 -49 29 -81.5t71 -32.5q43 0 72.5 32.5t29.5 81.5q0 44 -30.5 77.5t-71.5 33.5t-70.5 -33t-29.5 -78zM862 496h213q-30 67 -106 67q-73 0 -107 -67z" />
    <glyph glyph-name="ccedilla" unicode="&#xe7;" horiz-adv-x="851" 
d="M305 -141l35 137q-147 31 -236.5 139.5t-89.5 255.5q0 172 121 287q123 117 305 117q146 0 257.5 -79.5t154.5 -211.5l-303 -88q-11 39 -41 63.5t-68 24.5q-44 0 -77 -33t-33 -76q0 -51 31 -83.5t79 -32.5q39 0 70.5 24t38.5 62l303 -89q-36 -105 -116 -178.5t-189 -99.5
l-15 -51q5 -1 14 -4t31.5 -16t39.5 -30.5t31 -50t14 -71.5q0 -90 -69 -146.5t-173 -56.5q-62 0 -122 21t-89 47l-27 24l41 125q51 -57 142 -57q47 0 79.5 17t32.5 42q0 24 -40.5 42.5t-88.5 23.5z" />
    <glyph glyph-name="egrave" unicode="&#xe8;" horiz-adv-x="872" 
d="M844 285h-504q35 -68 115 -68q59 0 98 45l287 -45q-50 -106 -154 -168.5t-237 -62.5q-190 0 -312 116q-123 117 -123 289q0 169 121 287q123 117 301 117q179 0 299 -117q123 -117 123 -287q0 -51 -14 -106zM340 496h213q-30 67 -107 67q-72 0 -106 -67zM551 940
l-397 182l139 221l356 -258z" />
    <glyph glyph-name="eacute" unicode="&#xe9;" horiz-adv-x="872" 
d="M844 285h-504q35 -68 115 -68q59 0 98 45l287 -45q-50 -106 -154 -168.5t-237 -62.5q-190 0 -312 116q-123 117 -123 289q0 169 121 287q123 117 301 117q179 0 299 -117q123 -117 123 -287q0 -51 -14 -106zM340 496h213q-30 67 -107 67q-72 0 -106 -67zM336 940l-98 145
l356 258l139 -221z" />
    <glyph glyph-name="ecircumflex" unicode="&#xea;" horiz-adv-x="872" 
d="M844 285h-504q35 -68 115 -68q59 0 98 45l287 -45q-50 -106 -154 -168.5t-237 -62.5q-190 0 -312 116q-123 117 -123 289q0 169 121 287q123 117 301 117q179 0 299 -117q123 -117 123 -287q0 -51 -14 -106zM340 496h213q-30 67 -107 67q-72 0 -106 -67zM442 1069
l-221 -129l-98 139l309 260h21l309 -260l-98 -139z" />
    <glyph glyph-name="edieresis" unicode="&#xeb;" horiz-adv-x="872" 
d="M844 285h-504q35 -68 115 -68q59 0 98 45l287 -45q-50 -106 -154 -168.5t-237 -62.5q-190 0 -312 116q-123 117 -123 289q0 169 121 287q123 117 301 117q179 0 299 -117q123 -117 123 -287q0 -51 -14 -106zM340 496h213q-30 67 -107 67q-72 0 -106 -67zM248 1264
q66 0 110.5 -44.5t44.5 -111.5t-44.5 -112.5t-110.5 -45.5q-67 0 -111.5 45t-44.5 113t44 112t112 44zM637 1264q66 0 111 -44.5t45 -111.5t-45 -112.5t-111 -45.5q-67 0 -111.5 45t-44.5 113t44.5 112t111.5 44z" />
    <glyph glyph-name="igrave" unicode="&#xec;" horiz-adv-x="360" 
d="M330 0h-299v778h299v-778zM-78 1122l139 221l357 -258l-99 -145z" />
    <glyph glyph-name="iacute" unicode="&#xed;" horiz-adv-x="360" 
d="M330 0h-299v778h299v-778zM-55 1085l356 258l139 -221l-397 -182z" />
    <glyph glyph-name="icircumflex" unicode="&#xee;" horiz-adv-x="380" 
d="M340 0h-299v778h299v-778zM25 950l-113 129l268 260h21l268 -260l-113 -129l-166 119z" />
    <glyph glyph-name="idieresis" unicode="&#xef;" horiz-adv-x="403" 
d="M350 0h-299v778h299v-778zM-82 1108q0 61 39 103t96 42t96 -42t39 -103q0 -63 -39 -105t-96 -42t-96 42t-39 105zM213 1108q0 61 40 103t97 42t96 -42t39 -103q0 -63 -39 -105t-96 -42q-60 0 -98.5 42t-38.5 105z" />
    <glyph glyph-name="eth" unicode="&#xf0;" horiz-adv-x="880" 
d="M14 391q0 169 121 287q123 117 305 117q64 0 117 -15q-34 161 -119 234l-92 -146l-121 76l84 133q-81 19 -182 19v235q187 0 317 -47l84 133l121 -76l-76 -118q151 -99 221 -301.5t70 -530.5q0 -171 -121 -289q-119 -116 -303 -116q-183 0 -305 116q-121 118 -121 289z
M330 391q0 -47 32.5 -79.5t77.5 -32.5t78 32.5t33 79.5q0 44 -33.5 78.5t-77.5 34.5t-77 -34t-33 -79z" />
    <glyph glyph-name="ntilde" unicode="&#xf1;" horiz-adv-x="813" 
d="M330 434v-434h-299v778h299v-49q72 66 174 66q112 0 196 -84q82 -82 82 -205v-506h-301v434q0 38 -21 64t-52 26q-32 0 -55 -26t-23 -64zM268 983h-202q0 117 60.5 193.5t154.5 76.5q58 0 114 -39q56 -36 78 -36q23 0 37 19t14 46h203q0 -117 -60.5 -193.5t-154.5 -76.5
q-59 0 -117 37q-56 39 -73 39q-23 0 -38.5 -18.5t-15.5 -47.5z" />
    <glyph glyph-name="ograve" unicode="&#xf2;" horiz-adv-x="880" 
d="M14 391q0 169 121 287q123 117 305 117q183 0 303 -117q121 -118 121 -287q0 -171 -121 -289q-119 -116 -303 -116q-183 0 -305 116q-121 118 -121 289zM330 391q0 -47 32.5 -79.5t77.5 -32.5t78 32.5t33 79.5q0 44 -33.5 78.5t-77.5 34.5t-77 -34t-33 -79zM549 940
l-397 182l139 221l356 -258z" />
    <glyph glyph-name="oacute" unicode="&#xf3;" horiz-adv-x="880" 
d="M14 391q0 169 121 287q123 117 305 117q183 0 303 -117q121 -118 121 -287q0 -171 -121 -289q-119 -116 -303 -116q-183 0 -305 116q-121 118 -121 289zM330 391q0 -47 32.5 -79.5t77.5 -32.5t78 32.5t33 79.5q0 44 -33.5 78.5t-77.5 34.5t-77 -34t-33 -79zM334 940
l-98 145l356 258l139 -221z" />
    <glyph glyph-name="ocircumflex" unicode="&#xf4;" horiz-adv-x="880" 
d="M14 391q0 169 121 287q123 117 305 117q183 0 303 -117q121 -118 121 -287q0 -171 -121 -289q-119 -116 -303 -116q-183 0 -305 116q-121 118 -121 289zM330 391q0 -47 32.5 -79.5t77.5 -32.5t78 32.5t33 79.5q0 44 -33.5 78.5t-77.5 34.5t-77 -34t-33 -79zM440 1069
l-221 -129l-98 139l309 260h21l309 -260l-98 -139z" />
    <glyph glyph-name="otilde" unicode="&#xf5;" horiz-adv-x="880" 
d="M14 391q0 169 121 287q123 117 305 117q183 0 303 -117q121 -118 121 -287q0 -171 -121 -289q-119 -116 -303 -116q-183 0 -305 116q-121 118 -121 289zM330 391q0 -47 32.5 -79.5t77.5 -32.5t78 32.5t33 79.5q0 44 -33.5 78.5t-77.5 34.5t-77 -34t-33 -79zM311 983h-202
q0 117 60.5 193.5t154.5 76.5q58 0 114 -39q56 -36 78 -36q23 0 37 19t14 46h203q0 -117 -60.5 -193.5t-154.5 -76.5q-59 0 -117 37q-56 39 -73 39q-23 0 -38.5 -18.5t-15.5 -47.5z" />
    <glyph glyph-name="odieresis" unicode="&#xf6;" horiz-adv-x="880" 
d="M14 391q0 169 121 287q123 117 305 117q183 0 303 -117q121 -118 121 -287q0 -171 -121 -289q-119 -116 -303 -116q-183 0 -305 116q-121 118 -121 289zM330 391q0 -47 32.5 -79.5t77.5 -32.5t78 32.5t33 79.5q0 44 -33.5 78.5t-77.5 34.5t-77 -34t-33 -79zM246 1264
q66 0 110.5 -44.5t44.5 -111.5t-44.5 -112.5t-110.5 -45.5q-67 0 -111.5 45t-44.5 113t44 112t112 44zM635 1264q66 0 111 -44.5t45 -111.5t-45 -112.5t-111 -45.5q-67 0 -111.5 45t-44.5 113t44.5 112t111.5 44z" />
    <glyph glyph-name="divide" unicode="&#xf7;" horiz-adv-x="1228" 
d="M115 522v287h999v-287h-999zM465 287q0 74 49 124t121 50q73 0 122.5 -50t49.5 -124q0 -73 -49.5 -122.5t-122.5 -49.5q-72 0 -121 50t-49 122zM465 1042q0 74 49 124.5t121 50.5q73 0 122.5 -50.5t49.5 -124.5t-49.5 -123t-122.5 -49q-72 0 -121 50t-49 122z" />
    <glyph glyph-name="oslash" unicode="&#xf8;" horiz-adv-x="880" 
d="M440 795q112 0 207 -50l35 50l53 -37l-33 -47q162 -113 162 -320q0 -171 -121 -289q-119 -116 -303 -116q-111 0 -209 49l-34 -49l-54 37l33 47q-162 119 -162 321q0 169 121 287q123 117 305 117zM526 459l-120 -174q15 -6 34 -6q45 0 78 32.5t33 79.5q0 40 -25 68z
M352 324l123 174q-15 6 -35 6q-44 0 -77 -34t-33 -79q0 -39 22 -67z" />
    <glyph glyph-name="ugrave" unicode="&#xf9;" horiz-adv-x="813" 
d="M309 -14q-112 0 -196 84q-82 82 -82 204v504h299v-432q-4 -55 36 -78t79.5 0t35.5 78v432h301v-778h-301v51q-71 -65 -172 -65zM614 1085l-98 -145l-397 182l139 221z" />
    <glyph glyph-name="uacute" unicode="&#xfa;" horiz-adv-x="813" 
d="M309 -14q-112 0 -196 84q-82 82 -82 204v504h299v-432q-4 -55 36 -78t79.5 0t35.5 78v432h301v-778h-301v51q-71 -65 -172 -65zM698 1122l-397 -182l-98 145l356 258z" />
    <glyph glyph-name="ucircumflex" unicode="&#xfb;" horiz-adv-x="813" 
d="M31 274v504h299v-432q-4 -55 36 -78t79.5 0t35.5 78v432h301v-778h-301v51q-71 -65 -172 -65q-112 0 -196 84q-82 82 -82 204zM186 940l-98 139l309 260h21l309 -260l-98 -139l-221 129z" />
    <glyph glyph-name="udieresis" unicode="&#xfc;" horiz-adv-x="813" 
d="M31 274v504h299v-432q-4 -55 36 -78t79.5 0t35.5 78v432h301v-778h-301v51q-71 -65 -172 -65q-112 0 -196 84q-82 82 -82 204zM602 950q-67 0 -111.5 45t-44.5 113t44 112t112 44q66 0 111 -44.5t45 -111.5t-45 -112.5t-111 -45.5zM213 1264q66 0 111 -44.5t45 -111.5
t-45 -112.5t-111 -45.5q-67 0 -111.5 45t-44.5 113t44.5 112t111.5 44z" />
    <glyph glyph-name="yacute" unicode="&#xfd;" horiz-adv-x="849" 
d="M287 -20l-287 798h309l113 -370l119 370h309l-330 -925q-114 -314 -430 -314h-20v287h22q146 0 187 127zM717 1122l-398 -182l-98 145l357 258z" />
    <glyph glyph-name="thorn" unicode="&#xfe;" 
d="M330 -461h-299v1792h299v-588q79 52 174 52q146 0 248 -117q100 -112 100 -287q0 -176 -100 -291q-102 -114 -248 -114q-97 0 -174 51v-498zM334 387q0 -44 30.5 -76t71.5 -32t71 32t30 76q0 49 -29.5 83t-71.5 34t-72 -34t-30 -83z" />
    <glyph glyph-name="ydieresis" unicode="&#xff;" horiz-adv-x="849" 
d="M287 -20l-287 798h309l113 -370l119 370h309l-330 -925q-114 -314 -430 -314h-20v287h22q146 0 187 127zM621 1264q66 0 110.5 -44.5t44.5 -111.5t-44.5 -112.5t-110.5 -45.5q-67 0 -111.5 45t-44.5 113t44.5 112t111.5 44zM231 1264q66 0 111 -44.5t45 -111.5
t-45 -112.5t-111 -45.5q-67 0 -111 45t-44 113t44 112t111 44z" />
    <glyph glyph-name="Amacron" unicode="&#x100;" horiz-adv-x="1404" 
d="M371 0h-365l551 1331h291l551 -1331h-367l-78 197h-505zM954 1516h-505v225h505v-225zM702 831l-131 -327h263z" />
    <glyph glyph-name="amacron" unicode="&#x101;" 
d="M14 391q0 174 101 287q102 117 247 117q96 0 175 -52v35h299v-778h-299v37q-77 -51 -175 -51q-145 0 -247 114q-101 116 -101 291zM698 1229v-225h-505v225h505zM330 393q0 -49 29 -81.5t71 -32.5q43 0 72.5 32.5t29.5 81.5q0 44 -30.5 77.5t-71.5 33.5t-70.5 -33
t-29.5 -78z" />
    <glyph glyph-name="Abreve" unicode="&#x102;" horiz-adv-x="1404" 
d="M449 197l-78 -197h-365l551 1331h291l551 -1331h-367l-78 197h-505zM401 1753h203q0 -39 28.5 -66.5t69.5 -27.5t70 28t29 66h203q0 -126 -89 -209q-85 -82 -213 -82q-127 0 -215 82q-86 83 -86 209zM702 831l-131 -327h263z" />
    <glyph glyph-name="abreve" unicode="&#x103;" 
d="M362 -14q-145 0 -247 114q-101 116 -101 291q0 174 101 287q102 117 247 117q96 0 175 -52v35h299v-778h-299v37q-77 -51 -175 -51zM145 1241h203q0 -39 28.5 -66.5t69.5 -27.5t70 28t29 66h203q0 -126 -89 -209q-85 -82 -213 -82q-127 0 -215 82q-86 83 -86 209z
M330 393q0 -49 29 -81.5t71 -32.5q43 0 72.5 32.5t29.5 81.5q0 44 -30.5 77.5t-71.5 33.5t-70.5 -33t-29.5 -78z" />
    <glyph glyph-name="Aogonek" unicode="&#x104;" horiz-adv-x="1404" 
d="M449 197l-78 -197h-365l551 1331h291l551 -1331h-78q-102 -102 -102 -197q0 -69 59 -69q22 0 42 9.5t28 20.5l10 11l74 -99q0 -1 -29 -34q-21 -24 -78 -58q-59 -35 -119 -35q-80 0 -134 55.5t-54 139.5q0 56 26.5 118.5t59.5 102.5l29 35h-101l-78 197h-505zM702 831
l-131 -327h263z" />
    <glyph glyph-name="aogonek" unicode="&#x105;" 
d="M362 -14q-145 0 -247 114q-101 116 -101 291q0 174 101 287q102 117 247 117q96 0 175 -52v35h299v-778h-52q-102 -102 -102 -197q0 -63 49 -69q55 0 90 41l74 -99q0 -1 -29 -34q-21 -24 -78 -58q-59 -35 -118 -35q-80 0 -134.5 55.5t-54.5 139.5q0 56 26.5 118.5
t59.5 102.5l29 35h-59v37q-77 -51 -175 -51zM330 393q0 -49 29 -81.5t71 -32.5q43 0 72.5 32.5t29.5 81.5q0 44 -30.5 77.5t-71.5 33.5t-70.5 -33t-29.5 -78z" />
    <glyph glyph-name="Cacute" unicode="&#x106;" horiz-adv-x="1429" 
d="M754 1352q216 0 387 -107q174 -107 256 -284l-342 -125q-43 85 -122 132.5t-179 47.5q-148 0 -242 -101q-96 -104 -96 -247q0 -148 96 -252q94 -101 242 -101q99 0 178.5 48t122.5 133l342 -125q-82 -180 -254.5 -285.5t-388.5 -105.5q-302 0 -504 196q-201 198 -201 490
q0 291 201 489q203 197 504 197zM641 1452l-98 145l356 258l139 -221z" />
    <glyph glyph-name="cacute" unicode="&#x107;" horiz-adv-x="851" 
d="M852 504l-303 -88q-11 39 -41 63.5t-68 24.5q-44 0 -77 -33t-33 -76q0 -51 31 -83.5t79 -32.5q39 0 70.5 24t38.5 62l303 -89q-43 -132 -154 -211t-258 -79q-182 0 -305 114q-121 118 -121 291q0 172 121 287q123 117 305 117q146 0 257.5 -79.5t154.5 -211.5zM342 940
l-98 145l356 258l139 -221z" />
    <glyph glyph-name="Ccircumflex" unicode="&#x108;" horiz-adv-x="1429" 
d="M754 1352q216 0 387 -107q174 -107 256 -284l-342 -125q-43 85 -122 132.5t-179 47.5q-148 0 -242 -101q-96 -104 -96 -247q0 -148 96 -252q94 -101 242 -101q99 0 178.5 48t122.5 133l342 -125q-82 -180 -254.5 -285.5t-388.5 -105.5q-302 0 -504 196q-201 198 -201 490
q0 291 201 489q203 197 504 197zM748 1581l-222 -129l-98 139l309 260h21l309 -260l-98 -139z" />
    <glyph glyph-name="ccircumflex" unicode="&#x109;" horiz-adv-x="851" 
d="M852 504l-303 -88q-11 39 -41 63.5t-68 24.5q-44 0 -77 -33t-33 -76q0 -51 31 -83.5t79 -32.5q39 0 70.5 24t38.5 62l303 -89q-43 -132 -154 -211t-258 -79q-182 0 -305 114q-121 118 -121 291q0 172 121 287q123 117 305 117q146 0 257.5 -79.5t154.5 -211.5zM449 1069
l-222 -129l-98 139l309 260h21l309 -260l-98 -139z" />
    <glyph glyph-name="Cdotaccent" unicode="&#x10a;" horiz-adv-x="1429" 
d="M754 1352q216 0 387 -107q174 -107 256 -284l-342 -125q-43 85 -122 132.5t-179 47.5q-148 0 -242 -101q-96 -104 -96 -247q0 -148 96 -252q94 -101 242 -101q99 0 178.5 48t122.5 133l342 -125q-82 -180 -254.5 -285.5t-388.5 -105.5q-302 0 -504 196q-201 198 -201 490
q0 291 201 489q203 197 504 197zM575 1640q0 75 49.5 123.5t123.5 48.5t123 -49t49 -123q0 -72 -50 -121t-122 -49q-73 0 -123 49t-50 121z" />
    <glyph glyph-name="cdotaccent" unicode="&#x10b;" horiz-adv-x="851" 
d="M852 504l-303 -88q-11 39 -41 63.5t-68 24.5q-44 0 -77 -33t-33 -76q0 -51 31 -83.5t79 -32.5q39 0 70.5 24t38.5 62l303 -89q-43 -132 -154 -211t-258 -79q-182 0 -305 114q-121 118 -121 291q0 172 121 287q123 117 305 117q146 0 257.5 -79.5t154.5 -211.5zM276 1128
q0 75 49.5 123.5t123.5 48.5q73 0 122.5 -49t49.5 -123q0 -72 -50 -121t-122 -49q-73 0 -123 49t-50 121z" />
    <glyph glyph-name="Ccaron" unicode="&#x10c;" horiz-adv-x="1429" 
d="M754 1352q216 0 387 -107q174 -107 256 -284l-342 -125q-43 85 -122 132.5t-179 47.5q-148 0 -242 -101q-96 -104 -96 -247q0 -148 96 -252q94 -101 242 -101q99 0 178.5 48t122.5 133l342 -125q-82 -180 -254.5 -285.5t-388.5 -105.5q-302 0 -504 196q-201 198 -201 490
q0 291 201 489q203 197 504 197zM748 1714l221 137l98 -139l-309 -260h-21l-309 260l98 139z" />
    <glyph glyph-name="ccaron" unicode="&#x10d;" horiz-adv-x="851" 
d="M852 504l-303 -88q-11 39 -41 63.5t-68 24.5q-44 0 -77 -33t-33 -76q0 -51 31 -83.5t79 -32.5q39 0 70.5 24t38.5 62l303 -89q-43 -132 -154 -211t-258 -79q-182 0 -305 114q-121 118 -121 291q0 172 121 287q123 117 305 117q146 0 257.5 -79.5t154.5 -211.5zM449 1202
l221 137l98 -139l-309 -260h-21l-309 260l98 139z" />
    <glyph glyph-name="Dcaron" unicode="&#x10e;" horiz-adv-x="1374" 
d="M623 0h-555v1331h555q301 0 499 -192q203 -194 203 -473q0 -281 -201 -476q-199 -190 -501 -190zM623 1008h-205v-686h205q145 0 239 98q99 102 99 246q0 142 -99 241q-94 101 -239 101zM471 1452h-20l-310 260l99 139l221 -137l221 137l98 -139z" />
    <glyph glyph-name="dcaron" unicode="&#x10f;" horiz-adv-x="1206" 
d="M14 391q0 174 101 287q102 117 247 117q96 0 175 -52v691h299v-1434h-299v37q-77 -51 -175 -51q-145 0 -247 114q-101 116 -101 291zM899 1319q0 57 37.5 94t97.5 37q65 0 108.5 -48t43.5 -118q0 -73 -51 -141q-64 -87 -142 -131l-73 75q83 65 86 97q-45 8 -76 46.5
t-31 88.5zM330 393q0 -49 29.5 -81.5t72.5 -32.5t74 32.5t31 81.5q0 44 -31 77.5t-74 33.5q-42 0 -72 -33t-30 -78z" />
    <glyph glyph-name="Dcroat" unicode="&#x110;" horiz-adv-x="1431" 
d="M12 528v275h113v528h555q302 0 500 -192q202 -193 202 -473q0 -282 -200 -476q-199 -190 -502 -190h-555v528h-113zM475 1008v-205h287v-275h-287v-206h205q146 0 240 98q98 101 98 246q0 143 -98 241q-94 101 -240 101h-205z" />
    <glyph glyph-name="dslash" unicode="&#x111;" horiz-adv-x="901" 
d="M14 391q0 174 101 287q102 117 247 117q96 0 175 -52v234h-226v225h226v232h299v-232h61v-225h-61v-977h-299v37q-77 -51 -175 -51q-145 0 -247 114q-101 116 -101 291zM330 393q0 -49 29.5 -81.5t72.5 -32.5q42 0 71 32.5t29 81.5q0 45 -29.5 78t-70.5 33q-42 0 -72 -33
t-30 -78z" />
    <glyph glyph-name="Emacron" unicode="&#x112;" horiz-adv-x="1128" 
d="M68 1331h1007v-323h-657v-177h543v-323h-543v-186h665v-322h-1015v1331zM319 1516v225h506v-225h-506z" />
    <glyph glyph-name="emacron" unicode="&#x113;" horiz-adv-x="872" 
d="M844 285h-504q35 -68 115 -68q59 0 98 45l287 -45q-50 -106 -154 -168.5t-237 -62.5q-190 0 -312 116q-123 117 -123 289q0 169 121 287q123 117 301 117q179 0 299 -117q123 -117 123 -287q0 -51 -14 -106zM340 496h213q-30 67 -107 67q-72 0 -106 -67zM694 1004h-506
v225h506v-225z" />
    <glyph glyph-name="Ebreve" unicode="&#x114;" horiz-adv-x="1128" 
d="M1083 0h-1015v1331h1007v-323h-657v-177h543v-323h-543v-186h665v-322zM272 1753h203q0 -39 28.5 -66.5t69.5 -27.5t70 28t29 66h202q0 -127 -88 -209q-85 -82 -213 -82q-127 0 -215 82q-86 83 -86 209z" />
    <glyph glyph-name="ebreve" unicode="&#x115;" horiz-adv-x="872" 
d="M844 285h-504q35 -68 115 -68q59 0 98 45l287 -45q-50 -106 -154 -168.5t-237 -62.5q-190 0 -312 116q-123 117 -123 289q0 169 121 287q123 117 301 117q179 0 299 -117q123 -117 123 -287q0 -51 -14 -106zM340 496h213q-30 67 -107 67q-72 0 -106 -67zM141 1241h203
q0 -39 28.5 -66.5t69.5 -27.5t70 28t29 66h202q0 -127 -88 -209q-85 -82 -213 -82q-127 0 -215 82q-86 83 -86 209z" />
    <glyph glyph-name="Edotaccent" unicode="&#x116;" horiz-adv-x="1128" 
d="M68 1331h1007v-323h-657v-177h543v-323h-543v-186h665v-322h-1015v1331zM573 1470q-73 0 -122.5 49t-49.5 121q0 75 49 123.5t123 48.5q73 0 122.5 -49t49.5 -123q0 -72 -50 -121t-122 -49z" />
    <glyph glyph-name="edotaccent" unicode="&#x117;" horiz-adv-x="872" 
d="M844 285h-504q35 -68 115 -68q59 0 98 45l287 -45q-50 -106 -154 -168.5t-237 -62.5q-190 0 -312 116q-123 117 -123 289q0 169 121 287q123 117 301 117q179 0 299 -117q123 -117 123 -287q0 -51 -14 -106zM340 496h213q-30 67 -107 67q-72 0 -106 -67zM270 1128
q0 75 49 123.5t123 48.5t123 -49t49 -123q0 -72 -50 -121t-122 -49q-73 0 -122.5 49t-49.5 121z" />
    <glyph glyph-name="Eogonek" unicode="&#x118;" horiz-adv-x="1128" 
d="M854 0h-786v1331h1007v-323h-657v-177h543v-323h-543v-186h665v-322h-41q-102 -102 -102 -197q0 -69 59 -69q22 0 42 9.5t28 20.5l10 11l74 -99q0 -1 -29 -34q-22 -25 -77 -58q-59 -35 -119 -35q-80 0 -134.5 55.5t-54.5 139.5q0 56 26.5 118.5t59.5 102.5z" />
    <glyph glyph-name="eogonek" unicode="&#x119;" horiz-adv-x="872" 
d="M14 391q0 169 121 287q123 117 301 117q179 0 299 -117q123 -117 123 -287q0 -51 -14 -106h-504q35 -68 115 -68q59 0 98 45l287 -45q-79 -175 -281 -219q-100 -112 -100 -195q0 -69 59 -69q42 0 72 30l8 11l74 -99q0 -1 -29 -34q-21 -24 -78 -58q-59 -35 -119 -35
q-80 0 -134 55.5t-54 139.5q0 121 109 248q-156 27 -254 137q-99 111 -99 262zM340 496h213q-30 67 -107 67q-72 0 -106 -67z" />
    <glyph glyph-name="Ecaron" unicode="&#x11a;" horiz-adv-x="1128" 
d="M68 0v1331h1007v-323h-657v-177h543v-323h-543v-186h665v-322h-1015zM584 1452h-21l-309 260l98 139l221 -137l222 137l98 -139z" />
    <glyph glyph-name="ecaron" unicode="&#x11b;" horiz-adv-x="872" 
d="M844 285h-504q35 -68 115 -68q59 0 98 45l287 -45q-50 -106 -154 -168.5t-237 -62.5q-190 0 -312 116q-123 117 -123 289q0 169 121 287q123 117 301 117q179 0 299 -117q123 -117 123 -287q0 -51 -14 -106zM340 496h213q-30 67 -107 67q-72 0 -106 -67zM442 1202
l222 137l98 -139l-309 -260h-21l-309 260l98 139z" />
    <glyph glyph-name="Gcircumflex" unicode="&#x11c;" horiz-adv-x="1497" 
d="M762 1352q209 0 385 -105q177 -103 262 -286l-342 -125q-42 84 -124 132t-181 48q-148 0 -248 -103q-98 -101 -98 -245q0 -151 94 -252t242 -101q92 0 170.5 46.5t119.5 125.5h-346v277h746q6 -74 6 -76q-3 -307 -201 -508q-197 -200 -497 -200q-292 0 -498 194
q-203 197 -203 492q0 296 205 489q206 197 508 197zM748 1581l-222 -129l-98 139l309 260h21l309 -260l-98 -139z" />
    <glyph glyph-name="gcircumflex" unicode="&#x11d;" 
d="M362 -14q-145 0 -247 114q-101 116 -101 291q0 174 101 287q102 117 247 117q96 0 175 -52v35h299v-893q0 -156 -117 -258q-114 -102 -291 -102q-142 0 -251.5 73t-141.5 189l291 51q29 -45 98 -45q47 0 80 24.5t33 59.5v160q-77 -51 -175 -51zM426 1069l-221 -129
l-99 139l310 260h20l309 -260l-98 -139zM330 387q0 -44 29.5 -76t70.5 -32t71.5 32t30.5 76q0 49 -30 83t-72 34q-41 0 -70.5 -34t-29.5 -83z" />
    <glyph glyph-name="Gbreve" unicode="&#x11e;" horiz-adv-x="1497" 
d="M762 1352q209 0 385 -105q177 -103 262 -286l-342 -125q-42 84 -124 132t-181 48q-148 0 -248 -103q-98 -101 -98 -245q0 -151 94 -252t242 -101q92 0 170.5 46.5t119.5 125.5h-346v277h746q6 -74 6 -76q-3 -307 -201 -508q-197 -200 -497 -200q-292 0 -498 194
q-203 197 -203 492q0 296 205 489q206 197 508 197zM446 1753h203q0 -38 29 -66t70 -28t69.5 27.5t28.5 66.5h203q0 -127 -88 -209q-85 -82 -213 -82t-216 82q-86 83 -86 209z" />
    <glyph glyph-name="gbreve" unicode="&#x11f;" 
d="M362 -14q-145 0 -247 114q-101 116 -101 291q0 174 101 287q102 117 247 117q96 0 175 -52v35h299v-893q0 -156 -117 -258q-114 -102 -291 -102q-142 0 -251.5 73t-141.5 189l291 51q29 -45 98 -45q47 0 80 24.5t33 59.5v160q-77 -51 -175 -51zM125 1241h203
q0 -39 28.5 -66.5t69.5 -27.5t69.5 27.5t28.5 66.5h203q0 -127 -88 -209q-85 -82 -213 -82q-127 0 -215 82q-86 83 -86 209zM330 387q0 -44 29.5 -76t70.5 -32t71.5 32t30.5 76q0 49 -30 83t-72 34q-41 0 -70.5 -34t-29.5 -83z" />
    <glyph glyph-name="Gdotaccent" unicode="&#x120;" horiz-adv-x="1497" 
d="M762 1352q209 0 385 -105q177 -103 262 -286l-342 -125q-42 84 -124 132t-181 48q-148 0 -248 -103q-98 -101 -98 -245q0 -151 94 -252t242 -101q92 0 170.5 46.5t119.5 125.5h-346v277h746q6 -74 6 -76q-3 -307 -201 -508q-197 -200 -497 -200q-292 0 -498 194
q-203 197 -203 492q0 296 205 489q206 197 508 197zM575 1640q0 75 49.5 123.5t123.5 48.5t123 -49t49 -123q0 -72 -50 -121t-122 -49q-73 0 -123 49t-50 121z" />
    <glyph glyph-name="gdotaccent" unicode="&#x121;" 
d="M362 -14q-145 0 -247 114q-101 116 -101 291q0 174 101 287q102 117 247 117q96 0 175 -52v35h299v-893q0 -156 -117 -258q-114 -102 -291 -102q-142 0 -251.5 73t-141.5 189l291 51q29 -45 98 -45q47 0 80 24.5t33 59.5v160q-77 -51 -175 -51zM254 1128q0 75 49 123.5
t123 48.5t123 -49t49 -123q0 -72 -50 -121t-122 -49q-73 0 -122.5 49t-49.5 121zM330 387q0 -44 29.5 -76t70.5 -32t71.5 32t30.5 76q0 49 -30 83t-72 34q-41 0 -70.5 -34t-29.5 -83z" />
    <glyph glyph-name="uni0122" unicode="&#x122;" horiz-adv-x="1497" 
d="M762 1352q209 0 385 -105q177 -103 262 -286l-342 -125q-42 84 -124 132t-181 48q-148 0 -248 -103q-98 -101 -98 -245q0 -151 94 -252t242 -101q92 0 170.5 46.5t119.5 125.5h-346v277h746q6 -74 6 -76q-3 -307 -201 -508q-197 -200 -497 -200q-292 0 -498 194
q-203 197 -203 492q0 296 205 489q206 197 508 197zM926 -231q0 -73 -52 -140q-65 -90 -141 -133l-74 76q83 65 86 96q-45 8 -75.5 46t-30.5 89q0 57 37.5 94t97.5 37q65 0 108.5 -47.5t43.5 -117.5z" />
    <glyph glyph-name="uni0123" unicode="&#x123;" 
d="M362 -14q-145 0 -247 114q-101 116 -101 291q0 174 101 287q102 117 247 117q96 0 175 -52v35h299v-893q0 -156 -117 -258q-114 -102 -291 -102q-142 0 -251.5 73t-141.5 189l291 51q29 -45 98 -45q47 0 80 24.5t33 59.5v160q-77 -51 -175 -51zM266 1120q0 73 49 140
q66 89 144 133l73 -76q-83 -65 -86 -96q45 -8 76 -47t31 -89q0 -57 -37.5 -94t-97.5 -37q-65 0 -108.5 48t-43.5 118zM330 387q0 -44 29.5 -76t70.5 -32t71.5 32t30.5 76q0 49 -30 83t-72 34q-41 0 -70.5 -34t-29.5 -83z" />
    <glyph glyph-name="Hcircumflex" unicode="&#x124;" horiz-adv-x="1331" 
d="M418 510v-510h-350v1331h350v-497h495v497h351v-1331h-351v510h-495zM444 1452l-98 139l309 260h21l309 -260l-98 -139l-221 129z" />
    <glyph glyph-name="hcircumflex" unicode="&#x125;" horiz-adv-x="813" 
d="M330 434v-434h-299v1434h299v-705q72 66 174 66q112 0 196 -84q82 -82 82 -205v-506h-301v434q0 38 -21 64t-52 26q-32 0 -55 -26t-23 -64zM190 1622l-221 -129l-98 139l309 260h21l309 -260l-98 -139z" />
    <glyph glyph-name="Hbar" unicode="&#x126;" horiz-adv-x="1445" 
d="M1321 1331v-153h113v-228h-113v-950h-350v510h-496v-510h-350v950h-113v228h113v153h350v-153h496v153h350zM971 834v116h-496v-116h496z" />
    <glyph glyph-name="hbar" unicode="&#x127;" horiz-adv-x="847" 
d="M66 977h-62v225h62v232h299v-232h225v-225h-225v-248q72 66 174 66q112 0 196 -84q82 -82 82 -205v-506h-301v434q0 38 -21.5 64t-52.5 26q-32 0 -54.5 -26t-22.5 -64v-434h-299v977z" />
    <glyph glyph-name="Itilde" unicode="&#x128;" horiz-adv-x="485" 
d="M418 0h-350v1331h350v-1331zM113 1495h-203q0 117 60.5 193.5t154.5 76.5q59 0 115 -39q56 -36 77 -36q23 0 37.5 19t14.5 46h202q0 -117 -60.5 -193.5t-154.5 -76.5q-58 0 -116 37q-56 39 -74 39q-23 0 -38 -18.5t-15 -47.5z" />
    <glyph glyph-name="itilde" unicode="&#x129;" horiz-adv-x="399" 
d="M350 0h-299v778h299v-778zM113 983h-203q0 117 50 193.5t128 76.5q49 0 94 -39q45 -36 62 -36q19 0 31 18t12 47h202q0 -117 -50 -193.5t-128 -76.5q-48 0 -94 37q-45 39 -59 39q-20 0 -32.5 -18.5t-12.5 -47.5z" />
    <glyph glyph-name="Imacron" unicode="&#x12a;" horiz-adv-x="485" 
d="M418 0h-350v1331h350v-1331zM494 1516h-506v225h506v-225z" />
    <glyph glyph-name="imacron" unicode="&#x12b;" horiz-adv-x="382" 
d="M342 0h-299v778h299v-778zM-41 1004v225h465v-225h-465z" />
    <glyph glyph-name="Ibreve" unicode="&#x12c;" horiz-adv-x="485" 
d="M418 0h-350v1331h350v-1331zM-59 1753h202q0 -38 29 -66t70 -28t69.5 27.5t28.5 66.5h203q0 -127 -88 -209q-85 -82 -213 -82q-127 0 -215 82q-86 83 -86 209z" />
    <glyph glyph-name="ibreve" unicode="&#x12d;" horiz-adv-x="378" 
d="M340 0h-299v778h299v-778zM-80 1241h203q0 -39 19 -66.5t48 -27.5t47.5 27.5t18.5 66.5h203q0 -125 -78 -209q-76 -82 -191 -82q-116 0 -192 82q-78 84 -78 209z" />
    <glyph glyph-name="Iogonek" unicode="&#x12e;" horiz-adv-x="485" 
d="M57 -256q0 56 26.5 118.5t59.5 102.5l29 35h-104v1331h350v-1331h-58q-75 -75 -96 -158q-6 -18 -6 -39q0 -69 59 -69q42 0 72 30l8 11l74 -99q0 -1 -29 -34q-22 -25 -77 -58q-59 -35 -119 -35q-80 0 -134.5 55.5t-54.5 139.5z" />
    <glyph glyph-name="iogonek" unicode="&#x12f;" horiz-adv-x="360" 
d="M164 -451q-80 0 -134.5 55.5t-54.5 139.5q0 56 26.5 118.5t59.5 102.5l29 35h-59v778h299v-778h-51q-103 -103 -103 -197q0 -69 60 -69q41 0 71 30l8 11l74 -99q0 -1 -29 -34q-22 -25 -77 -58q-59 -35 -119 -35zM180 930q-75 0 -126.5 50.5t-51.5 125.5t51.5 126.5
t126.5 51.5q78 0 128 -50t50 -128q0 -69 -43 -118t-110 -56q-6 -2 -25 -2z" />
    <glyph glyph-name="Idot" unicode="&#x130;" horiz-adv-x="485" 
d="M418 0h-350v1331h350v-1331zM70 1640q0 75 49 123.5t123 48.5t123 -49t49 -123q0 -72 -50 -121t-122 -49q-73 0 -122.5 49t-49.5 121z" />
    <glyph glyph-name="dotlessi" unicode="&#x131;" horiz-adv-x="360" 
d="M330 0h-299v778h299v-778z" />
    <glyph glyph-name="IJ" unicode="&#x132;" horiz-adv-x="1589" 
d="M418 0h-350v1331h350v-1331zM1528 1331v-825q0 -226 -160 -377q-158 -149 -401 -149q-151 0 -275.5 64t-197.5 175l290 191q59 -109 189 -109q92 0 154.5 59.5t62.5 147.5v823h338z" />
    <glyph glyph-name="ij" unicode="&#x133;" horiz-adv-x="727" 
d="M330 0h-299v778h299v-778zM180 1284q78 0 128 -50t50 -128q4 -56 -28.5 -100t-81 -62.5t-103.5 -10.5t-92 46q-40 37 -48 92t11 103.5t63.5 81t100.5 28.5zM397 778h301v-956q0 -122 -98 -201q-98 -82 -242 -82h-79v287h53q29 0 47 11t18 28v913zM420 979q-51 51 -51 127
t51 127q54 51 129.5 51t124.5 -51q51 -51 51 -127t-51 -127q-50 -49 -125 -49t-129 49z" />
    <glyph glyph-name="Jcircumflex" unicode="&#x134;" horiz-adv-x="1103" 
d="M1042 1331v-825q0 -227 -159 -377q-158 -149 -400 -149q-151 0 -276 64t-199 175l291 191q62 -109 188 -109q93 0 155.5 59.5t62.5 147.5v823h337zM872 1581l-221 -129l-98 139l309 260h21l309 -260l-98 -139z" />
    <glyph glyph-name="jcircumflex" unicode="&#x135;" horiz-adv-x="368" 
d="M37 778h301v-956q0 -122 -98 -201q-98 -82 -242 -82h-80v287h53q29 0 47.5 11t18.5 28v913zM190 1069l-221 -129l-98 139l309 260h21l309 -260l-98 -139z" />
    <glyph glyph-name="uni0136" unicode="&#x136;" horiz-adv-x="1277" 
d="M68 0v1331h350v-479l373 479h442l-506 -649l545 -682h-443l-411 516v-516h-350zM594 -332q-45 8 -76 46.5t-31 88.5q0 57 38 94t98 37q65 0 108 -47.5t43 -117.5q0 -74 -51 -140q-65 -90 -141 -133l-74 76q83 65 86 96z" />
    <glyph glyph-name="uni0137" unicode="&#x137;" horiz-adv-x="835" 
d="M330 0h-299v1434h299v-883l139 227h348l-229 -375l248 -403h-353l-153 254v-254zM262 -197q0 57 37.5 94t97.5 37q65 0 108.5 -47.5t43.5 -117.5q0 -74 -51 -140q-64 -89 -142 -133l-73 76q83 65 86 96q-45 8 -76 46.5t-31 88.5z" />
    <glyph glyph-name="Lacute" unicode="&#x139;" horiz-adv-x="1067" 
d="M1032 0h-964v1331h350v-1009h614v-322zM53 1597l357 258l139 -221l-397 -182z" />
    <glyph glyph-name="lacute" unicode="&#x13a;" horiz-adv-x="360" 
d="M330 0h-299v1434h299v-1434zM74 1493l-99 145l357 258l139 -221z" />
    <glyph glyph-name="uni013B" unicode="&#x13b;" horiz-adv-x="1067" 
d="M68 0v1331h350v-1009h614v-322h-964zM459 -197q0 57 37.5 94t97.5 37q65 0 108 -47.5t43 -117.5q0 -74 -51 -140q-65 -90 -141 -133l-74 76q83 65 86 96q-45 8 -75.5 46t-30.5 89z" />
    <glyph glyph-name="uni013C" unicode="&#x13c;" horiz-adv-x="360" 
d="M330 0h-299v1434h299v-1434zM324 -231q0 -73 -52 -140q-65 -90 -141 -133l-74 76q83 65 86 96q-45 8 -75.5 46t-30.5 89q0 57 37.5 94t97.5 37q65 0 108.5 -47.5t43.5 -117.5z" />
    <glyph glyph-name="Lcaron" unicode="&#x13d;" horiz-adv-x="1067" 
d="M68 0v1331h350v-1009h614v-322h-964zM659 1221q0 57 38 94t98 37q65 0 108 -48t43 -118q0 -74 -51 -142q-65 -88 -141 -131l-74 76q83 65 86 96q-45 8 -76 47t-31 89z" />
    <glyph glyph-name="lcaron" unicode="&#x13e;" horiz-adv-x="698" 
d="M330 0h-299v1434h299v-1434zM391 1319q0 57 37.5 94t97.5 37q65 0 108.5 -48t43.5 -118q0 -73 -51 -141q-64 -87 -142 -131l-73 75q83 65 86 97q-45 8 -76 46.5t-31 88.5z" />
    <glyph glyph-name="Ldot" unicode="&#x13f;" horiz-adv-x="1067" 
d="M68 0v1331h350v-1009h614v-322h-964zM770 506q-66 0 -112 46.5t-46 113.5q0 69 46 115t112 46q69 0 114.5 -46t45.5 -115q0 -68 -45.5 -114t-114.5 -46z" />
    <glyph glyph-name="ldot" unicode="&#x140;" horiz-adv-x="763" 
d="M330 0h-299v1434h299v-1434zM391 666q0 74 49 124t121 50q73 0 122.5 -50t49.5 -124t-49.5 -123t-122.5 -49q-72 0 -121 50t-49 122z" />
    <glyph glyph-name="Lslash" unicode="&#x141;" horiz-adv-x="1204" 
d="M205 379l-64 -37l-129 223l193 111v655h350v-452l162 94l131 -223l-293 -168v-260h614v-322h-964v379z" />
    <glyph glyph-name="lslash" unicode="&#x142;" horiz-adv-x="483" 
d="M391 1434v-631l92 51v-260l-92 -51v-543h-299v373l-92 -51v260l92 51v801h299z" />
    <glyph glyph-name="Nacute" unicode="&#x143;" horiz-adv-x="1347" 
d="M68 0v1331h311l563 -731v731h338v-1331h-313l-564 727v-727h-335zM965 1634l-398 -182l-98 145l356 258z" />
    <glyph glyph-name="nacute" unicode="&#x144;" horiz-adv-x="813" 
d="M330 434v-434h-299v778h299v-49q72 66 174 66q112 0 196 -84q82 -82 82 -205v-506h-301v434q0 38 -21 64t-52 26q-32 0 -55 -26t-23 -64zM291 940l-98 145l356 258l139 -221z" />
    <glyph glyph-name="uni0145" unicode="&#x145;" horiz-adv-x="1347" 
d="M403 0h-335v1331h311l563 -731v731h338v-1331h-313l-564 727v-727zM649 -332q-45 8 -75.5 46t-30.5 89q0 57 37.5 94t97.5 37q65 0 108 -47.5t43 -117.5q0 -74 -51 -140q-65 -90 -141 -133l-74 76q83 65 86 96z" />
    <glyph glyph-name="uni0146" unicode="&#x146;" horiz-adv-x="813" 
d="M330 434v-434h-299v778h299v-49q72 66 174 66q112 0 196 -84q82 -82 82 -205v-506h-301v434q0 38 -21 64t-52 26q-32 0 -55 -26t-23 -64zM383 -332q-45 8 -76 46.5t-31 88.5q0 57 38 94t98 37q65 0 108 -47.5t43 -117.5q0 -74 -51 -140q-65 -90 -141 -133l-74 76
q83 65 86 96z" />
    <glyph glyph-name="Ncaron" unicode="&#x147;" horiz-adv-x="1347" 
d="M68 0v1331h311l563 -731v731h338v-1331h-313l-564 727v-727h-335zM684 1452h-20l-310 260l99 139l221 -137l221 137l98 -139z" />
    <glyph glyph-name="ncaron" unicode="&#x148;" horiz-adv-x="813" 
d="M330 434v-434h-299v778h299v-49q72 66 174 66q112 0 196 -84q82 -82 82 -205v-506h-301v434q0 38 -21 64t-52 26q-32 0 -55 -26t-23 -64zM408 940h-21l-309 260l98 139l221 -137l221 137l99 -139z" />
    <glyph glyph-name="Eng" unicode="&#x14a;" horiz-adv-x="1347" 
d="M942 1331h338v-1286q0 -224 -160 -375t-401 -151l6 321q88 0 149.5 54.5t67.5 138.5l-539 696v-729h-335v1331h311l563 -733v733z" />
    <glyph glyph-name="eng" unicode="&#x14b;" horiz-adv-x="813" 
d="M31 0v778h299v-49q72 66 174 66q112 0 196 -84q82 -82 82 -205v-684q0 -122 -98 -201q-98 -82 -242 -82h-80v287h54q29 0 47 11t18 28v569q0 38 -21 64t-52 26q-32 0 -55 -26t-23 -64v-434h-299z" />
    <glyph glyph-name="Omacron" unicode="&#x14c;" horiz-adv-x="1505" 
d="M754 1352q299 0 499 -197q203 -197 203 -489q0 -293 -203 -490q-199 -196 -499 -196q-302 0 -504 196q-201 198 -201 490q0 291 201 489q203 197 504 197zM416 668q0 -148 96 -252q94 -101 242 -101q145 0 239 101q99 102 99 252q0 143 -99 245q-95 103 -239 103
q-148 0 -242 -101q-96 -104 -96 -247zM1006 1516h-506v225h506v-225z" />
    <glyph glyph-name="omacron" unicode="&#x14d;" horiz-adv-x="880" 
d="M14 391q0 169 121 287q123 117 305 117q183 0 303 -117q121 -118 121 -287q0 -171 -121 -289q-119 -116 -303 -116q-183 0 -305 116q-121 118 -121 289zM330 391q0 -47 32.5 -79.5t77.5 -32.5t78 32.5t33 79.5q0 44 -33.5 78.5t-77.5 34.5t-77 -34t-33 -79zM692 1004
h-506v225h506v-225z" />
    <glyph glyph-name="Obreve" unicode="&#x14e;" horiz-adv-x="1505" 
d="M754 1352q299 0 499 -197q203 -197 203 -489q0 -293 -203 -490q-199 -196 -499 -196q-302 0 -504 196q-201 198 -201 490q0 291 201 489q203 197 504 197zM416 668q0 -148 96 -252q94 -101 242 -101q145 0 239 101q99 102 99 252q0 143 -99 245q-95 103 -239 103
q-148 0 -242 -101q-96 -104 -96 -247zM453 1753h202q0 -38 29 -66t70 -28t69.5 27.5t28.5 66.5h203q0 -127 -88 -209q-85 -82 -213 -82q-127 0 -215 82q-86 83 -86 209z" />
    <glyph glyph-name="obreve" unicode="&#x14f;" horiz-adv-x="880" 
d="M14 391q0 169 121 287q123 117 305 117q183 0 303 -117q121 -118 121 -287q0 -171 -121 -289q-119 -116 -303 -116q-183 0 -305 116q-121 118 -121 289zM330 391q0 -47 32.5 -79.5t77.5 -32.5t78 32.5t33 79.5q0 44 -33.5 78.5t-77.5 34.5t-77 -34t-33 -79zM139 1241h203
q0 -39 28.5 -66.5t69.5 -27.5t70 28t29 66h202q0 -127 -88 -209q-85 -82 -213 -82q-127 0 -215 82q-86 83 -86 209z" />
    <glyph glyph-name="Ohungarumlaut" unicode="&#x150;" horiz-adv-x="1505" 
d="M754 1352q299 0 499 -197q203 -197 203 -489q0 -293 -203 -490q-199 -196 -499 -196q-302 0 -504 196q-201 198 -201 490q0 291 201 489q203 197 504 197zM416 668q0 -148 96 -252q94 -101 242 -101q145 0 239 101q99 102 99 252q0 143 -99 245q-95 103 -239 103
q-148 0 -242 -101q-96 -104 -96 -247zM539 1462l-140 107l240 342l201 -164zM913 1462l-137 107l238 342l203 -164z" />
    <glyph glyph-name="ohungarumlaut" unicode="&#x151;" horiz-adv-x="880" 
d="M14 391q0 169 121 287q123 117 305 117q183 0 303 -117q121 -118 121 -287q0 -171 -121 -289q-119 -116 -303 -116q-183 0 -305 116q-121 118 -121 289zM330 391q0 -47 32.5 -79.5t77.5 -32.5t78 32.5t33 79.5q0 44 -33.5 78.5t-77.5 34.5t-77 -34t-33 -79zM225 950
l-139 107l240 342l200 -164zM600 950l-137 107l237 342l203 -164z" />
    <glyph glyph-name="OE" unicode="&#x152;" horiz-adv-x="2152" 
d="M754 -20q-302 0 -504 196q-201 198 -201 490q0 291 201 489q203 197 504 197q192 0 358 -90v69h987v-323h-637v-177h523v-323h-523v-186h645v-322h-995v70q-166 -90 -358 -90zM416 668q0 -148 96 -252q94 -101 242 -101q145 0 239 101q99 102 99 252q0 143 -99 245
q-95 103 -239 103q-148 0 -242 -101q-96 -104 -96 -247z" />
    <glyph glyph-name="oe" unicode="&#x153;" horiz-adv-x="1409" 
d="M440 795q155 0 271 -88q113 88 266 88q177 0 297 -117q121 -118 121 -287q0 -47 -15 -106h-503q35 -68 114 -68q60 0 99 45l286 -45q-48 -106 -151 -168.5t-236 -62.5q-159 0 -278 90q-116 -90 -271 -90q-183 0 -305 116q-121 118 -121 289q0 169 121 287
q123 117 305 117zM551 391q0 44 -33.5 78.5t-77.5 34.5t-77 -34t-33 -79q0 -47 32.5 -79.5t77.5 -32.5t78 32.5t33 79.5zM877 496h213q-30 67 -107 67q-72 0 -106 -67z" />
    <glyph glyph-name="Racute" unicode="&#x154;" horiz-adv-x="1271" 
d="M418 0h-350v1331h630q214 0 359 -133q143 -131 143 -332q0 -124 -59 -227.5t-164 -165.5l268 -473h-389l-229 399h-209v-399zM698 1008h-280v-287h280q60 0 100 41t40 104q0 60 -40 101t-100 41zM823 1634l-397 -182l-98 145l356 258z" />
    <glyph glyph-name="racute" unicode="&#x155;" horiz-adv-x="538" 
d="M330 778v-49q66 66 200 66v-303q-32 32 -86 32q-49 0 -81.5 -35t-32.5 -86v-403h-299v778h299zM156 940l-99 145l357 258l139 -221z" />
    <glyph glyph-name="uni0156" unicode="&#x156;" horiz-adv-x="1271" 
d="M68 1331h630q214 0 359 -133q143 -131 143 -332q0 -124 -59 -227.5t-164 -165.5l268 -473h-389l-229 399h-209v-399h-350v1331zM698 1008h-280v-287h280q60 0 100 41t40 104q0 60 -40 101t-100 41zM610 -332q-45 8 -75.5 46t-30.5 89q0 57 37.5 94t97.5 37
q65 0 108.5 -47.5t43.5 -117.5q0 -73 -52 -140q-65 -90 -141 -133l-74 76q83 65 86 96z" />
    <glyph glyph-name="uni0157" unicode="&#x157;" horiz-adv-x="538" 
d="M330 778v-49q66 66 200 66v-303q-32 32 -86 32q-49 0 -81.5 -35t-32.5 -86v-403h-299v778h299zM334 -231q0 -74 -51 -140q-64 -89 -142 -133l-73 76q83 65 86 96q-45 8 -76 46.5t-31 88.5q0 57 37.5 94t97.5 37q65 0 108.5 -47.5t43.5 -117.5z" />
    <glyph glyph-name="Rcaron" unicode="&#x158;" horiz-adv-x="1271" 
d="M418 0h-350v1331h630q214 0 359 -133q143 -131 143 -332q0 -124 -59 -227.5t-164 -165.5l268 -473h-389l-229 399h-209v-399zM522 1452l-309 260l98 139l221 -137l222 137l98 -139l-309 -260h-21zM698 1008h-280v-287h280q60 0 100 41t40 104q0 60 -40 101t-100 41z" />
    <glyph glyph-name="rcaron" unicode="&#x159;" horiz-adv-x="538" 
d="M330 778v-49q66 66 200 66v-303q-32 32 -86 32q-49 0 -81.5 -35t-32.5 -86v-403h-299v778h299zM262 1202l221 137l99 -139l-310 -260h-20l-309 260l98 139z" />
    <glyph glyph-name="Sacute" unicode="&#x15a;" horiz-adv-x="1128" 
d="M1026 1022l-348 -64q-11 36 -48.5 59t-86.5 23q-52 0 -84.5 -21t-32.5 -56q0 -22 14.5 -37.5t44.5 -32.5q39 -17 93 -33l122 -37q156 -49 254 -125q131 -98 131 -288q0 -196 -139 -314q-137 -116 -362 -116q-210 0 -357 100q-153 104 -192 262l356 68q12 -50 67 -83.5
t128 -33.5q63 0 106 24.5t43 61.5q0 20 -15 36.5t-50.5 32.5t-61.5 25t-81 26q-23 7 -35 11q-147 49 -228 98q-90 53 -136 130t-52 196q0 186 127 301q129 117 332 117q183 0 319 -92q137 -91 172 -238zM444 1452l-98 145l356 258l140 -221z" />
    <glyph glyph-name="sacute" unicode="&#x15b;" horiz-adv-x="733" 
d="M707 575l-269 -43q-12 43 -76 43q-47 0 -47 -16q0 -20 45 -29l99 -26q142 -41 201 -99t59 -155q0 -128 -89 -196t-259 -68q-323 0 -357 241l271 37q15 -49 90 -49q57 0 57 18q0 21 -61 33l-107 23q-129 26 -185 83t-56 158q0 265 342 265q315 0 342 -220zM260 940
l-98 145l356 258l139 -221z" />
    <glyph glyph-name="Scircumflex" unicode="&#x15c;" horiz-adv-x="1128" 
d="M1026 1022l-348 -64q-11 36 -48.5 59t-86.5 23q-52 0 -84.5 -21t-32.5 -56q0 -22 14.5 -37.5t44.5 -32.5q39 -17 93 -33l122 -37q156 -49 254 -125q131 -98 131 -288q0 -196 -139 -314q-137 -116 -362 -116q-210 0 -357 100q-153 104 -192 262l356 68q12 -50 67 -83.5
t128 -33.5q63 0 106 24.5t43 61.5q0 20 -15 36.5t-50.5 32.5t-61.5 25t-81 26q-23 7 -35 11q-147 49 -228 98q-90 53 -136 130t-52 196q0 186 127 301q129 117 332 117q183 0 319 -92q137 -91 172 -238zM551 1581l-221 -129l-99 139l310 260h20l309 -260l-98 -139z" />
    <glyph glyph-name="scircumflex" unicode="&#x15d;" horiz-adv-x="733" 
d="M707 575l-269 -43q-12 43 -76 43q-47 0 -47 -16q0 -20 45 -29l99 -26q142 -41 201 -99t59 -155q0 -128 -89 -196t-259 -68q-323 0 -357 241l271 37q15 -49 90 -49q57 0 57 18q0 21 -61 33l-107 23q-129 26 -185 83t-56 158q0 265 342 265q315 0 342 -220zM367 1069
l-222 -129l-98 139l309 260h21l309 -260l-98 -139z" />
    <glyph glyph-name="Scedilla" unicode="&#x15e;" horiz-adv-x="1128" 
d="M35 342l356 68q12 -50 67 -83.5t128 -33.5q63 0 106 24.5t43 61.5q0 20 -15 36.5t-50.5 32.5t-61.5 25t-81 26q-23 7 -35 11q-147 49 -228 98q-90 53 -136 130t-52 196q0 186 127 301q129 117 332 117q183 0 319 -92q137 -91 172 -238l-348 -64q-11 36 -48.5 59t-86.5 23
q-52 0 -84.5 -21t-32.5 -56q0 -22 14.5 -37.5t44.5 -32.5q39 -17 93 -33l122 -37q156 -49 254 -125q131 -98 131 -288q0 -163 -98.5 -274t-267.5 -144l-12 -43q5 -1 14 -4t31 -16t39 -30.5t31 -50t14 -71.5q0 -90 -69 -146.5t-173 -56.5q-62 0 -122 21.5t-89 48.5l-27 22
l41 125q51 -57 142 -57q47 0 79.5 17t32.5 42t-41.5 43.5t-87.5 20.5l-43 4l31 123q-174 15 -307 112q-127 98 -168 246z" />
    <glyph glyph-name="scedilla" unicode="&#x15f;" horiz-adv-x="733" 
d="M14 227l271 37q15 -49 90 -49q57 0 57 18q0 21 -61 33l-107 23q-129 26 -185 83t-56 158q0 265 342 265q315 0 342 -220l-269 -43q-12 43 -76 43q-47 0 -47 -16q0 -20 45 -29l99 -26q142 -41 201 -99t59 -155q0 -205 -221 -252l-15 -49q5 -1 14 -4t31 -16t39 -30.5
t31 -50t14 -71.5q0 -90 -68.5 -146.5t-172.5 -56.5q-62 0 -122 21.5t-89 48.5l-27 22l41 125q51 -57 141 -57q47 0 80 17t33 42t-41.5 43.5t-87.5 20.5l-43 4l33 129q-245 30 -275 237z" />
    <glyph glyph-name="Scaron" unicode="&#x160;" horiz-adv-x="1128" 
d="M1026 1022l-348 -64q-11 36 -48.5 59t-86.5 23q-52 0 -84.5 -21t-32.5 -56q0 -22 14.5 -37.5t44.5 -32.5q39 -17 93 -33l122 -37q156 -49 254 -125q131 -98 131 -288q0 -196 -139 -314q-137 -116 -362 -116q-210 0 -357 100q-153 104 -192 262l356 68q12 -50 67 -83.5
t128 -33.5q63 0 106 24.5t43 61.5q0 20 -15 36.5t-50.5 32.5t-61.5 25t-81 26q-23 7 -35 11q-147 49 -228 98q-90 53 -136 130t-52 196q0 186 127 301q129 117 332 117q183 0 319 -92q137 -91 172 -238zM551 1714l221 137l98 -139l-309 -260h-20l-310 260l99 139z" />
    <glyph glyph-name="scaron" unicode="&#x161;" horiz-adv-x="733" 
d="M707 575l-269 -43q-12 43 -76 43q-47 0 -47 -16q0 -20 45 -29l99 -26q142 -41 201 -99t59 -155q0 -128 -89 -196t-259 -68q-323 0 -357 241l271 37q15 -49 90 -49q57 0 57 18q0 21 -61 33l-107 23q-129 26 -185 83t-56 158q0 265 342 265q315 0 342 -220zM367 1202
l221 137l98 -139l-309 -260h-21l-309 260l98 139z" />
    <glyph glyph-name="uni0162" unicode="&#x162;" horiz-adv-x="1169" 
d="M410 0v1008h-377v323h1104v-323h-377v-1008h-350zM557 -332q-45 8 -75.5 46t-30.5 89q0 57 37.5 94t97.5 37q65 0 108 -47.5t43 -117.5q0 -74 -51 -140q-65 -90 -141 -133l-74 76q83 65 86 96z" />
    <glyph glyph-name="uni0163" unicode="&#x163;" horiz-adv-x="571" 
d="M8 520v258h96v150h302v-150h143v-258h-143v-180q0 -23 18 -38t45 -15h80v-287h-156q-121 0 -205 72q-84 75 -84 180v268h-96zM496 -231q0 -73 -52 -140q-65 -90 -141 -133l-74 76q83 65 86 96q-45 8 -75.5 46t-30.5 89q0 57 37.5 94t97.5 37q65 0 108.5 -47.5
t43.5 -117.5z" />
    <glyph glyph-name="Tcaron" unicode="&#x164;" horiz-adv-x="1169" 
d="M33 1331h1104v-323h-377v-1008h-350v1008h-377v323zM596 1452h-21l-309 260l99 139l221 -137l221 137l98 -139z" />
    <glyph glyph-name="tcaron" unicode="&#x165;" horiz-adv-x="749" 
d="M8 520v258h96v150h302v-150h143v-258h-143v-180q0 -23 18 -38t45 -15h80v-287h-156q-121 0 -205 72q-84 75 -84 180v268h-96zM729 1139q0 -74 -51 -142q-65 -88 -141 -131l-74 76q83 65 86 96q-45 8 -76 47t-31 89q0 57 38 94t98 37q65 0 108 -48t43 -118z" />
    <glyph glyph-name="Tbar" unicode="&#x166;" horiz-adv-x="1169" 
d="M973 449h-213v-449h-350v449h-215v290h215v269h-377v323h1104v-323h-377v-269h213v-290z" />
    <glyph glyph-name="tbar" unicode="&#x167;" horiz-adv-x="571" 
d="M104 520h-96v258h96v150h302v-150h143v-258h-143v-41h102v-143h-102q3 -49 63 -49h80v-287h-156q-121 0 -205 72q-84 75 -84 180v84h-61v143h61v41z" />
    <glyph glyph-name="Utilde" unicode="&#x168;" horiz-adv-x="1320" 
d="M909 547v784h351v-788q0 -238 -173 -402q-170 -161 -428 -161q-256 0 -426 161q-172 163 -172 402v788h351v-784q0 -104 71.5 -175t175.5 -71q106 0 178 71t72 175zM532 1495h-202q0 117 60.5 193.5t154.5 76.5q58 0 114 -39q56 -36 78 -36q23 0 37 19t14 46h203
q0 -117 -60.5 -193.5t-154.5 -76.5q-59 0 -117 37q-56 39 -73 39q-23 0 -38.5 -18.5t-15.5 -47.5z" />
    <glyph glyph-name="utilde" unicode="&#x169;" horiz-adv-x="813" 
d="M31 274v504h299v-432q-4 -55 36 -78t79.5 0t35.5 78v432h301v-778h-301v51q-71 -65 -172 -65q-112 0 -196 84q-82 82 -82 204zM279 983h-203q0 117 60.5 193.5t154.5 76.5q59 0 115 -39q56 -36 77 -36q23 0 37.5 19t14.5 46h202q0 -117 -60.5 -193.5t-154.5 -76.5
q-58 0 -116 37q-56 39 -74 39q-23 0 -38 -18.5t-15 -47.5z" />
    <glyph glyph-name="Umacron" unicode="&#x16a;" horiz-adv-x="1320" 
d="M909 547v784h351v-788q0 -238 -173 -402q-170 -161 -428 -161q-256 0 -426 161q-172 163 -172 402v788h351v-784q0 -104 71.5 -175t175.5 -71q106 0 178 71t72 175zM913 1516h-505v225h505v-225z" />
    <glyph glyph-name="umacron" unicode="&#x16b;" horiz-adv-x="813" 
d="M309 -14q-112 0 -196 84q-82 82 -82 204v504h299v-432q-4 -55 36 -78t79.5 0t35.5 78v432h301v-778h-301v51q-71 -65 -172 -65zM659 1229v-225h-505v225h505z" />
    <glyph glyph-name="Ubreve" unicode="&#x16c;" horiz-adv-x="1320" 
d="M909 547v784h351v-788q0 -238 -173 -402q-170 -161 -428 -161q-256 0 -426 161q-172 163 -172 402v788h351v-784q0 -104 71.5 -175t175.5 -71q106 0 178 71t72 175zM360 1753h203q0 -38 29 -66t70 -28t69.5 27.5t28.5 66.5h203q0 -126 -89 -209q-85 -82 -212 -82
q-128 0 -216 82q-86 83 -86 209z" />
    <glyph glyph-name="ubreve" unicode="&#x16d;" horiz-adv-x="813" 
d="M31 274v504h299v-432q-4 -55 36 -78t79.5 0t35.5 78v432h301v-778h-301v51q-71 -65 -172 -65q-112 0 -196 84q-82 82 -82 204zM106 1241h203q0 -38 29 -66t70 -28t69.5 27.5t28.5 66.5h203q0 -127 -88 -209q-85 -82 -213 -82q-127 0 -215 82q-87 84 -87 209z" />
    <glyph glyph-name="Uring" unicode="&#x16e;" horiz-adv-x="1320" 
d="M909 547v784h351v-788q0 -238 -173 -402q-170 -161 -428 -161q-256 0 -426 161q-172 163 -172 402v788h351v-784q0 -104 71.5 -175t175.5 -71q106 0 178 71t72 175zM498 1540q-66 66 -66 164t66 164q64 67 164 67q99 0 163 -67q66 -66 66 -164t-66 -164q-65 -65 -163 -65
q-99 0 -164 65zM608 1704q0 -33 27 -46.5t53.5 0t26.5 46.5q0 34 -26.5 48t-53.5 0t-27 -48z" />
    <glyph glyph-name="uring" unicode="&#x16f;" horiz-adv-x="813" 
d="M309 -14q-112 0 -196 84q-82 82 -82 204v504h299v-432q-4 -55 36 -78t79.5 0t35.5 78v432h301v-778h-301v51q-71 -65 -172 -65zM571 1028q-65 -65 -163 -65q-99 0 -164 65q-66 66 -66 164t66 164q64 67 164 67q99 0 163 -67q66 -66 66 -164t-66 -164zM354 1192
q0 -33 27 -46.5t53.5 0t26.5 46.5q0 34 -26.5 48t-53.5 0t-27 -48z" />
    <glyph glyph-name="Uhungarumlaut" unicode="&#x170;" horiz-adv-x="1320" 
d="M909 547v784h351v-788q0 -238 -173 -402q-170 -161 -428 -161q-256 0 -426 161q-172 163 -172 402v788h351v-784q0 -104 71.5 -175t175.5 -71q106 0 178 71t72 175zM446 1462l-139 107l240 342l201 -164zM821 1462l-137 107l238 342l202 -164z" />
    <glyph glyph-name="uhungarumlaut" unicode="&#x171;" horiz-adv-x="813" 
d="M31 274v504h299v-432q-4 -55 36 -78t79.5 0t35.5 78v432h301v-778h-301v51q-71 -65 -172 -65q-112 0 -196 84q-82 82 -82 204zM870 1235l-303 -285l-137 107l238 342zM193 950l-140 107l240 342l201 -164z" />
    <glyph glyph-name="Uogonek" unicode="&#x172;" horiz-adv-x="1320" 
d="M61 543v788h351v-784q0 -104 71.5 -175t175.5 -71q106 0 178 71t72 175v784h351v-788q0 -202 -127 -353q-123 -147 -326 -194l-37 -41q-22 -29 -41.5 -73.5t-19.5 -78.5q0 -69 59 -69q42 0 72 30l8 11l74 -99q0 -1 -29 -34q-21 -24 -78 -58q-59 -35 -119 -35
q-80 0 -134 55.5t-54 139.5q0 113 98 238q-233 18 -391 176q-154 160 -154 385z" />
    <glyph glyph-name="uogonek" unicode="&#x173;" horiz-adv-x="813" 
d="M31 274v504h299v-432q-4 -55 36 -78t79.5 0t35.5 78v432h301v-778h-55q-102 -102 -102 -197q0 -69 59 -69q50 0 80 41l74 -99q0 -1 -29 -34q-21 -24 -78 -58q-59 -35 -119 -35q-80 0 -134 55.5t-54 139.5q0 56 26.5 118.5t59.5 102.5l29 35h-58v51q-71 -65 -172 -65
q-112 0 -196 84q-82 82 -82 204z" />
    <glyph glyph-name="Wcircumflex" unicode="&#x174;" horiz-adv-x="1898" 
d="M737 0h-291l-440 1331h359l223 -756l217 756h291l219 -756l221 756h356l-440 -1331h-291l-211 713zM950 1581l-221 -129l-98 139l309 260h21l309 -260l-99 -139z" />
    <glyph glyph-name="wcircumflex" unicode="&#x175;" horiz-adv-x="1161" 
d="M791 487l67 291h303l-231 -778h-279l-69 276l-74 -276h-277l-231 778h301l68 -295l71 295h281zM582 1069l-222 -129l-98 139l309 260h21l309 -260l-98 -139z" />
    <glyph glyph-name="Ycircumflex" unicode="&#x176;" horiz-adv-x="1351" 
d="M496 553l-490 778h402l262 -450l276 450h400l-500 -770v-561h-350v553zM455 1452l-99 139l310 260h20l309 -260l-98 -139l-221 129z" />
    <glyph glyph-name="ycircumflex" unicode="&#x177;" horiz-adv-x="849" 
d="M287 -20l-287 798h309l113 -370l119 370h309l-330 -925q-114 -314 -430 -314h-20v287h22q146 0 187 127zM426 1069l-221 -129l-99 139l310 260h20l309 -260l-98 -139z" />
    <glyph glyph-name="Ydieresis" unicode="&#x178;" horiz-adv-x="1351" 
d="M496 553l-490 778h402l262 -450l276 450h400l-500 -770v-561h-350v553zM870 1776q66 0 111 -44.5t45 -111.5t-45 -112.5t-111 -45.5q-67 0 -111 45t-44 113t44 112t111 44zM481 1776q66 0 111 -44.5t45 -111.5t-45 -112.5t-111 -45.5q-67 0 -111 45t-44 113t44 112
t111 44z" />
    <glyph glyph-name="Zacute" unicode="&#x179;" horiz-adv-x="1183" 
d="M1128 322v-322h-1073v270l580 738h-574v323h1063v-270l-581 -739h585zM485 1452l-98 145l356 258l140 -221z" />
    <glyph glyph-name="zacute" unicode="&#x17a;" horiz-adv-x="716" 
d="M686 272v-272h-655v188l233 320h-225v270h641v-186l-229 -320h235zM252 940l-98 145l356 258l139 -221z" />
    <glyph glyph-name="Zdotaccent" unicode="&#x17b;" horiz-adv-x="1183" 
d="M1128 0h-1073v270l580 738h-574v323h1063v-270l-581 -739h585v-322zM420 1640q0 75 49 123.5t123 48.5t123 -49t49 -123q0 -72 -50 -121t-122 -49q-73 0 -122.5 49t-49.5 121z" />
    <glyph glyph-name="zdotaccent" unicode="&#x17c;" horiz-adv-x="716" 
d="M686 272v-272h-655v188l233 320h-225v270h641v-186l-229 -320h235zM358 958q-73 0 -122.5 49t-49.5 121q0 75 49 123.5t123 48.5t123 -49t49 -123q0 -72 -50 -121t-122 -49z" />
    <glyph glyph-name="Zcaron" unicode="&#x17d;" horiz-adv-x="1183" 
d="M1128 0h-1073v270l580 738h-574v323h1063v-270l-581 -739h585v-322zM602 1452h-20l-310 260l99 139l221 -137l221 137l98 -139z" />
    <glyph glyph-name="zcaron" unicode="&#x17e;" horiz-adv-x="716" 
d="M686 0h-655v188l233 320h-225v270h641v-186l-229 -320h235v-272zM369 940h-21l-309 260l98 139l221 -137l222 137l98 -139z" />
    <glyph glyph-name="uni018F" unicode="&#x18f;" horiz-adv-x="1505" 
d="M754 1352q299 0 499 -197q203 -197 203 -489q0 -293 -203 -490q-199 -196 -499 -196q-303 0 -502 196q-201 201 -201 494q0 75 10 143h1016q-48 93 -134 148t-189 55q-144 0 -238 -82l-350 133q94 134 249 209.5t339 75.5zM754 315q202 0 315 174h-633q113 -174 318 -174
z" />
    <glyph glyph-name="florin" unicode="&#x192;" horiz-adv-x="718" 
d="M-16 -461h-109l51 287h78q26 0 47 13.5t25 33.5l117 659h-99l43 246h99l65 377q21 118 131 199q109 80 250 80h109l-52 -287h-77q-26 0 -47 -13.5t-25 -33.5l-55 -322h153l-43 -246h-153l-127 -714q-20 -117 -132 -199q-109 -80 -249 -80z" />
    <glyph glyph-name="uni01DD" unicode="&#x1dd;" horiz-adv-x="872" 
d="M29 496h503q-34 67 -114 67q-60 0 -99 -45l-286 45q50 106 154 169t237 63q188 0 311 -117t123 -289q0 -170 -123 -287q-119 -116 -299 -116q-179 0 -301 116q-121 118 -121 287q0 49 15 107zM532 285h-213q30 -68 107 -68q71 0 106 68z" />
    <glyph glyph-name="Aringacute" unicode="&#x1fa;" horiz-adv-x="1404" 
d="M449 197l-78 -197h-365l541 1307q-74 68 -74 172q0 98 65.5 164.5t163.5 66.5q90 0 156 -57l281 202l139 -221l-346 -159q0 -100 -74 -168l541 -1307h-367l-78 197h-505zM702 831l-131 -327h263zM756 1479q0 34 -27 48t-53.5 0t-26.5 -48q0 -33 26.5 -46.5t53.5 0
t27 46.5z" />
    <glyph glyph-name="aringacute" unicode="&#x1fb;" 
d="M362 -14q-145 0 -247 114q-101 116 -101 291q0 174 101 287q102 117 247 117q96 0 175 -52v35h299v-778h-299v37q-77 -51 -175 -51zM446 1423q58 0 97 -20l284 207l142 -221l-299 -138q6 -27 6 -59q0 -98 -66 -164q-65 -65 -164 -65q-98 0 -163 65q-66 66 -66 164
t65.5 164.5t163.5 66.5zM330 393q0 -49 29 -81.5t71 -32.5q43 0 72.5 32.5t29.5 81.5q0 44 -30.5 77.5t-71.5 33.5t-70.5 -33t-29.5 -78zM393 1192q0 -33 26.5 -46.5t53.5 0t27 46.5q0 34 -27 48t-53.5 0t-26.5 -48z" />
    <glyph glyph-name="AEacute" unicode="&#x1fc;" horiz-adv-x="2033" 
d="M395 0h-389l774 1331h1200v-323h-637v-177h523v-323h-523v-186h646v-322h-996v197h-487zM1452 1634l-397 -182l-99 145l357 258zM680 504h313v553z" />
    <glyph glyph-name="aeacute" unicode="&#x1fd;" horiz-adv-x="1394" 
d="M362 -14q-145 0 -247 114q-101 116 -101 291q0 174 101 287q102 117 247 117q96 0 175 -52v35h299v-26q82 43 172 43q156 0 264 -117t108 -287q0 -51 -14 -106h-504q35 -68 115 -68q59 0 98 45l287 -45q-43 -106 -135 -168.5t-209 -62.5q-102 0 -182 45v-31h-299v37
q-77 -51 -175 -51zM967 1122l-398 -182l-98 145l356 258zM330 393q0 -49 29 -81.5t71 -32.5q43 0 72.5 32.5t29.5 81.5q0 44 -30.5 77.5t-71.5 33.5t-70.5 -33t-29.5 -78zM862 496h213q-30 67 -106 67q-73 0 -107 -67z" />
    <glyph glyph-name="Oslashacute" unicode="&#x1fe;" horiz-adv-x="1505" 
d="M250 43l59 84q-124 94 -192 234t-68 305q0 291 201 489q203 197 504 197q193 0 350 -86l61 86l90 -64l-59 -84q124 -94 192 -233.5t68 -304.5q0 -293 -203 -490q-199 -196 -499 -196q-193 0 -353 86l-61 -86zM993 915l-393 -565q72 -35 154 -35q145 0 239 101
q99 102 99 252q0 145 -99 247zM510 416l395 565q-72 35 -151 35q-146 0 -244 -101q-96 -104 -96 -247q0 -148 96 -252zM647 1452l-98 145l356 258l139 -221z" />
    <glyph glyph-name="oslashacute" unicode="&#x1ff;" horiz-adv-x="880" 
d="M440 795q112 0 207 -50l35 50l53 -37l-33 -47q162 -113 162 -320q0 -171 -121 -289q-119 -116 -303 -116q-111 0 -209 49l-34 -49l-54 37l33 47q-162 119 -162 321q0 169 121 287q123 117 305 117zM526 459l-120 -174q15 -6 34 -6q45 0 78 32.5t33 79.5q0 40 -25 68z
M352 324l123 174q-15 6 -35 6q-44 0 -77 -34t-33 -79q0 -39 22 -67zM334 940l-98 145l356 258l139 -221z" />
    <glyph glyph-name="uni0218" unicode="&#x218;" horiz-adv-x="1128" 
d="M1026 1022l-348 -64q-11 36 -48.5 59t-86.5 23q-52 0 -84.5 -21t-32.5 -56q0 -22 14.5 -37.5t44.5 -32.5q39 -17 93 -33l122 -37q156 -49 254 -125q131 -98 131 -288q0 -196 -139 -314q-137 -116 -362 -116q-210 0 -357 100q-153 104 -192 262l356 68q12 -50 67 -83.5
t128 -33.5q63 0 106 24.5t43 61.5q0 20 -15 36.5t-50.5 32.5t-61.5 25t-81 26q-23 7 -35 11q-147 49 -228 98q-90 53 -136 130t-52 196q0 186 127 301q129 117 332 117q183 0 319 -92q137 -91 172 -238zM756 -231q0 -74 -51 -140q-64 -89 -142 -133l-74 76q83 65 86 96
q-45 8 -75.5 46t-30.5 89q0 57 37.5 94t97.5 37q65 0 108.5 -47.5t43.5 -117.5z" />
    <glyph glyph-name="uni0219" unicode="&#x219;" horiz-adv-x="733" 
d="M707 575l-269 -43q-12 43 -76 43q-47 0 -47 -16q0 -20 45 -29l99 -26q142 -41 201 -99t59 -155q0 -128 -89 -196t-259 -68q-323 0 -357 241l271 37q15 -49 90 -49q57 0 57 18q0 21 -61 33l-107 23q-129 26 -185 83t-56 158q0 265 342 265q315 0 342 -220zM532 -231
q0 -74 -51 -140q-65 -90 -141 -133l-74 76q83 65 86 96q-45 8 -75.5 46t-30.5 89q0 57 37.5 94t97.5 37q65 0 108 -47.5t43 -117.5z" />
    <glyph glyph-name="uni021A" unicode="&#x21a;" horiz-adv-x="1169" 
d="M410 0v1008h-377v323h1104v-323h-377v-1008h-350zM557 -332q-45 8 -75.5 46t-30.5 89q0 57 37.5 94t97.5 37q65 0 108 -47.5t43 -117.5q0 -74 -51 -140q-65 -90 -141 -133l-74 76q83 65 86 96z" />
    <glyph glyph-name="uni021B" unicode="&#x21b;" horiz-adv-x="571" 
d="M8 520v258h96v150h302v-150h143v-258h-143v-180q0 -23 18 -38t45 -15h80v-287h-156q-121 0 -205 72q-84 75 -84 180v268h-96zM496 -231q0 -73 -52 -140q-65 -90 -141 -133l-74 76q83 65 86 96q-45 8 -75.5 46t-30.5 89q0 57 37.5 94t97.5 37q65 0 108.5 -47.5
t43.5 -117.5z" />
    <glyph glyph-name="uni0237" unicode="&#x237;" horiz-adv-x="368" 
d="M37 778h301v-956q0 -122 -98 -201q-98 -82 -242 -82h-80v287h53q29 0 47.5 11t18.5 28v913z" />
    <glyph glyph-name="uni0259" unicode="&#x259;" horiz-adv-x="872" 
d="M29 496h503q-34 67 -114 67q-60 0 -99 -45l-286 45q50 106 154 169t237 63q188 0 311 -117t123 -289q0 -170 -123 -287q-119 -116 -299 -116q-179 0 -301 116q-121 118 -121 287q0 49 15 107zM532 285h-213q30 -68 107 -68q71 0 106 68z" />
    <glyph glyph-name="circumflex" unicode="&#x2c6;" horiz-adv-x="761" 
d="M381 1438l-221 -129l-99 139l310 260h20l309 -260l-98 -139z" />
    <glyph glyph-name="caron" unicode="&#x2c7;" horiz-adv-x="761" 
d="M381 1571l221 137l98 -139l-309 -260h-20l-310 260l99 139z" />
    <glyph glyph-name="breve" unicode="&#x2d8;" horiz-adv-x="722" 
d="M61 1610h203q0 -39 28.5 -66.5t69.5 -27.5q42 0 69.5 26.5t27.5 67.5h203q0 -125 -87 -209q-85 -82 -213 -82q-130 0 -215 82q-86 83 -86 209z" />
    <glyph glyph-name="dotaccent" unicode="&#x2d9;" horiz-adv-x="464" 
d="M61 1497q0 75 48.5 123.5t123.5 48.5q74 0 122 -48.5t48 -123.5q0 -72 -49 -121t-121 -49q-73 0 -122.5 49t-49.5 121z" />
    <glyph glyph-name="ring" unicode="&#x2da;" horiz-adv-x="583" 
d="M127 1397q-66 66 -66 164q0 97 66 163q65 68 164 68t164 -68q67 -64 67 -163q0 -100 -67 -164q-66 -66 -164 -66t-164 66zM238 1561q0 -23 15 -38.5t38 -15.5q25 0 40 15.5t15 38.5q0 25 -15 40t-40 15q-23 0 -38 -15t-15 -40z" />
    <glyph glyph-name="ogonek" unicode="&#x2db;" horiz-adv-x="536" 
d="M147 -35l29 35h189q-103 -103 -103 -197q0 -69 60 -69q41 0 71 30l8 11l74 -99q0 -1 -29 -34q-22 -25 -77 -58q-59 -35 -119 -35q-80 0 -134.5 55.5t-54.5 139.5q0 56 26.5 118.5t59.5 102.5z" />
    <glyph glyph-name="tilde" unicode="&#x2dc;" horiz-adv-x="784" 
d="M264 1352h-203q0 117 60.5 193.5t154.5 76.5q59 0 115 -39q58 -37 78 -37q23 0 37 19.5t14 46.5h203q0 -117 -60.5 -194t-154.5 -77q-59 0 -117 37q-56 39 -74 39q-23 0 -38 -18t-15 -47z" />
    <glyph glyph-name="hungarumlaut" unicode="&#x2dd;" horiz-adv-x="940" 
d="M201 1319l-140 106l240 342l201 -163zM575 1319l-137 106l238 342l203 -163z" />
    <glyph glyph-name="uni0394" unicode="&#x394;" horiz-adv-x="1404" 
d="M1399 0h-1393l551 1331h291zM911 307l-209 524l-208 -524h417z" />
    <glyph glyph-name="uni03A9" unicode="&#x3a9;" horiz-adv-x="1525" 
d="M631 324v-324h-582v324h133q-133 171 -133 385q0 272 201 458q203 185 504 185q299 0 499 -185q203 -185 203 -458q0 -214 -133 -385h154v-324h-600v324q98 37 156.5 127.5t58.5 207.5q0 152 -99 254q-95 103 -239 103t-244 -103q-96 -104 -96 -254q0 -118 59 -208
t158 -127z" />
    <glyph glyph-name="uni0400" unicode="&#x400;" horiz-adv-x="1128" 
d="M68 1331h1007v-323h-657v-177h543v-323h-543v-186h665v-322h-1015v1331zM780 1597l-98 -145l-397 182l139 221z" />
    <glyph glyph-name="uni0401" unicode="&#x401;" horiz-adv-x="1128" 
d="M1083 0h-1015v1331h1007v-323h-657v-177h543v-323h-543v-186h665v-322zM768 1776q66 0 111 -44.5t45 -111.5t-45 -112.5t-111 -45.5q-67 0 -111.5 45t-44.5 113t44 112t112 44zM379 1462q-67 0 -111.5 45t-44.5 113t44.5 112t111.5 44q66 0 111 -44.5t45 -111.5
t-45 -112.5t-111 -45.5z" />
    <glyph glyph-name="uni0402" unicode="&#x402;" horiz-adv-x="1579" 
d="M410 0v1008h-377v323h1102v-323h-375v-154q112 23 215 23q256 0 402.5 -121.5t146.5 -339.5q0 -212 -143.5 -324t-395.5 -112l4 321q97 0 141 27t44 94q0 72 -47.5 102.5t-145.5 30.5q-96 0 -221 -25v-530h-350z" />
    <glyph glyph-name="uni0403" unicode="&#x403;" horiz-adv-x="1005" 
d="M418 1008v-1008h-350v1331h905v-323h-555zM801 1634l-398 -182l-98 145l357 258z" />
    <glyph glyph-name="uni0404" unicode="&#x404;" horiz-adv-x="1431" 
d="M754 1352q216 0 387 -107q174 -107 256 -284l-342 -125q-41 85 -121 132.5t-180 47.5q-104 0 -186.5 -53t-123.5 -146h463v-291h-469q38 -97 123 -154t193 -57q100 0 180 48t121 133l342 -125q-82 -178 -256 -285q-169 -106 -387 -106q-303 0 -502 196q-201 198 -201 490
q0 291 201 489q200 197 502 197z" />
    <glyph glyph-name="uni0405" unicode="&#x405;" horiz-adv-x="1128" 
d="M1026 1022l-348 -64q-11 36 -48.5 59t-86.5 23q-52 0 -84.5 -21t-32.5 -56q0 -22 14.5 -37.5t44.5 -32.5q39 -17 93 -33l122 -37q156 -49 254 -125q131 -98 131 -288q0 -196 -139 -314q-137 -116 -362 -116q-210 0 -357 100q-153 104 -192 262l356 68q12 -50 67 -83.5
t128 -33.5q63 0 106 24.5t43 61.5q0 20 -15 36.5t-50.5 32.5t-61.5 25t-81 26q-23 7 -35 11q-147 49 -228 98q-90 53 -136 130t-52 196q0 186 127 301q129 117 332 117q183 0 319 -92q137 -91 172 -238z" />
    <glyph glyph-name="uni0406" unicode="&#x406;" horiz-adv-x="485" 
d="M418 0h-350v1331h350v-1331z" />
    <glyph glyph-name="uni0407" unicode="&#x407;" horiz-adv-x="485" 
d="M418 0h-350v1331h350v-1331zM47 1776q66 0 111 -44.5t45 -111.5t-45 -112.5t-111 -45.5q-67 0 -111.5 45t-44.5 113t44.5 112t111.5 44zM436 1776q66 0 111 -44.5t45 -111.5t-45 -112.5t-111 -45.5q-67 0 -111 45t-44 113t44 112t111 44z" />
    <glyph glyph-name="uni0408" unicode="&#x408;" horiz-adv-x="1103" 
d="M1042 1331v-825q0 -227 -159 -377q-158 -149 -400 -149q-151 0 -276 64t-199 175l291 191q62 -109 188 -109q93 0 155.5 59.5t62.5 147.5v823h337z" />
    <glyph glyph-name="uni0409" unicode="&#x409;" horiz-adv-x="2056" 
d="M70 0h-64v322h64q38 0 64 14t48 52t32.5 112t10.5 186v645h1022v-420h266q213 0 353 -131q141 -132 141 -325q0 -194 -141 -326q-141 -129 -353 -129h-616v1008h-322v-322q0 -341 -133.5 -513.5t-371.5 -172.5zM1247 590v-268h266q55 0 92 38.5t37 94.5q0 57 -37 96
t-92 39h-266z" />
    <glyph glyph-name="uni040A" unicode="&#x40a;" horiz-adv-x="2072" 
d="M68 0v1331h350v-450h495v450h351v-450h268q208 0 350 -127q141 -126 141 -314q0 -187 -141 -313q-142 -127 -350 -127h-619v559h-495v-559h-350zM1532 559h-268v-237h268q54 0 91.5 34.5t37.5 83.5q0 51 -37.5 85t-91.5 34z" />
    <glyph glyph-name="uni040B" unicode="&#x40b;" horiz-adv-x="1558" 
d="M410 0v1008h-377v323h1102v-323h-375v-148q94 17 184 17q261 0 410 -120.5t149 -336.5v-420h-350v420q0 135 -223 135q-61 0 -170 -16v-539h-350z" />
    <glyph glyph-name="uni040C" unicode="&#x40c;" horiz-adv-x="1277" 
d="M418 0h-350v1331h350v-479l373 479h442l-506 -649l545 -682h-443l-411 516v-516zM899 1634l-397 -182l-99 145l357 258z" />
    <glyph glyph-name="uni040D" unicode="&#x40d;" horiz-adv-x="1347" 
d="M395 0h-327v1331h350v-747l534 747h328v-1331h-350v741zM782 1432l-397 182l139 221l357 -258z" />
    <glyph glyph-name="uni040E" unicode="&#x40e;" horiz-adv-x="1368" 
d="M512 399l-506 932h385l314 -594l280 594h377l-410 -856q-118 -252 -261.5 -363.5t-346.5 -111.5h-117v322h88q120 0 197 77zM324 1792h225q0 -71 38.5 -112.5t100.5 -41.5q61 0 98 41.5t37 112.5h226q0 -164 -105 -272q-101 -107 -256 -107q-158 0 -262 107
q-102 108 -102 272z" />
    <glyph glyph-name="uni040F" unicode="&#x40f;" horiz-adv-x="1331" 
d="M68 0v1331h350v-1009h495v1009h351v-1331h-424v-324h-351v324h-421z" />
    <glyph glyph-name="uni0410" unicode="&#x410;" horiz-adv-x="1404" 
d="M371 0h-365l551 1331h291l551 -1331h-367l-78 197h-505zM702 831l-131 -327h263z" />
    <glyph glyph-name="uni0411" unicode="&#x411;" horiz-adv-x="1228" 
d="M68 1331h991v-323h-641v-142h266q212 0 352 -125q142 -127 142 -307q0 -182 -142 -309q-140 -125 -352 -125h-616v1331zM418 543v-221h266q55 0 92 32.5t37 79.5t-36.5 78t-92.5 31h-266z" />
    <glyph glyph-name="uni0412" unicode="&#x412;" horiz-adv-x="1275" 
d="M764 0h-696v1331h659q194 0 320 -108q127 -109 127 -273q0 -151 -113 -258q160 -115 160 -303q0 -165 -131 -278q-132 -111 -326 -111zM758 528h-340v-206h340q41 0 68.5 30t27.5 74q0 43 -27.5 72.5t-68.5 29.5zM719 1008h-301v-187h301q33 0 57.5 20.5t28.5 55.5
q2 4 2 18q0 41 -25 67t-63 26z" />
    <glyph glyph-name="uni0413" unicode="&#x413;" horiz-adv-x="1005" 
d="M418 1008v-1008h-350v1331h905v-323h-555z" />
    <glyph glyph-name="uni0414" unicode="&#x414;" horiz-adv-x="1540" 
d="M1317 322h194v-646h-350v324h-782v-324h-350v646h153q99 44 99 356v653h1036v-1009zM573 322h394v686h-336v-318q0 -216 -58 -368z" />
    <glyph glyph-name="uni0415" unicode="&#x415;" horiz-adv-x="1128" 
d="M68 1331h1007v-323h-657v-177h543v-323h-543v-186h665v-322h-1015v1331z" />
    <glyph glyph-name="uni0416" unicode="&#x416;" horiz-adv-x="1978" 
d="M436 0h-430l498 682l-459 649h430l340 -479v479h352v-475l336 475h432l-460 -649l497 -682h-430l-375 514v-514h-352v516z" />
    <glyph glyph-name="uni0417" unicode="&#x417;" horiz-adv-x="1243" 
d="M631 -20q-208 0 -359.5 88.5t-224.5 244.5l342 125q58 -125 238 -125q87 0 139.5 32.5t52.5 84.5q0 43 -35 74t-82 31h-243v276h237q43 0 73 28t30 66q0 50 -46.5 79.5t-125.5 29.5q-167 0 -226 -121l-338 125q68 156 217 245t351 89q232 0 381 -113q149 -110 149 -281
q0 -170 -143 -280q166 -117 166 -299q0 -173 -156 -287q-153 -112 -397 -112z" />
    <glyph glyph-name="uni0418" unicode="&#x418;" horiz-adv-x="1347" 
d="M395 0h-327v1331h350v-747l534 747h328v-1331h-350v741z" />
    <glyph glyph-name="uni0419" unicode="&#x419;" horiz-adv-x="1347" 
d="M395 0h-327v1331h350v-747l534 747h328v-1331h-350v741zM324 1792h225q0 -71 38.5 -112.5t100.5 -41.5q61 0 98 41.5t37 112.5h226q0 -164 -105 -272q-101 -107 -256 -107q-158 0 -262 107q-102 108 -102 272z" />
    <glyph glyph-name="uni041A" unicode="&#x41a;" horiz-adv-x="1277" 
d="M68 0v1331h350v-479l373 479h442l-506 -649l545 -682h-443l-411 516v-516h-350z" />
    <glyph glyph-name="uni041B" unicode="&#x41b;" horiz-adv-x="1314" 
d="M70 0h-64v322h64q38 0 64 14t48 52t32.5 112t10.5 186v645h1022v-1331h-350v1008h-322v-322q0 -341 -133.5 -513.5t-371.5 -172.5z" />
    <glyph glyph-name="uni041C" unicode="&#x41c;" horiz-adv-x="1650" 
d="M412 0h-344v1331h344l413 -735l414 735h344v-1331h-344v682l-297 -549h-233l-297 549v-682z" />
    <glyph glyph-name="uni041D" unicode="&#x41d;" horiz-adv-x="1331" 
d="M418 0h-350v1331h350v-497h495v497h351v-1331h-351v510h-495v-510z" />
    <glyph glyph-name="uni041E" unicode="&#x41e;" horiz-adv-x="1505" 
d="M754 1352q299 0 499 -197q203 -197 203 -489q0 -293 -203 -490q-199 -196 -499 -196q-302 0 -504 196q-201 198 -201 490q0 291 201 489q203 197 504 197zM416 668q0 -148 96 -252q94 -101 242 -101q145 0 239 101q99 102 99 252q0 143 -99 245q-95 103 -239 103
q-148 0 -242 -101q-96 -104 -96 -247z" />
    <glyph glyph-name="uni041F" unicode="&#x41f;" horiz-adv-x="1331" 
d="M418 1008v-1008h-350v1331h1196v-1331h-351v1008h-495z" />
    <glyph glyph-name="uni0420" unicode="&#x420;" horiz-adv-x="1214" 
d="M418 399v-399h-350v1331h612q211 0 356 -133q146 -134 146 -332q0 -197 -146 -334q-145 -133 -356 -133h-262zM680 1008h-262v-287h262q60 0 98.5 41t38.5 104q0 61 -38.5 101.5t-98.5 40.5z" />
    <glyph glyph-name="uni0421" unicode="&#x421;" horiz-adv-x="1429" 
d="M754 1352q216 0 387 -107q174 -107 256 -284l-342 -125q-43 85 -122 132.5t-179 47.5q-148 0 -242 -101q-96 -104 -96 -247q0 -148 96 -252q94 -101 242 -101q99 0 178.5 48t122.5 133l342 -125q-82 -180 -254.5 -285.5t-388.5 -105.5q-302 0 -504 196q-201 198 -201 490
q0 291 201 489q203 197 504 197z" />
    <glyph glyph-name="uni0422" unicode="&#x422;" horiz-adv-x="1169" 
d="M410 1008h-377v323h1104v-323h-377v-1008h-350v1008z" />
    <glyph glyph-name="uni0423" unicode="&#x423;" horiz-adv-x="1368" 
d="M512 399l-506 932h385l314 -594l280 594h377l-410 -856q-118 -252 -261.5 -363.5t-346.5 -111.5h-117v322h88q120 0 197 77z" />
    <glyph glyph-name="uni0424" unicode="&#x424;" horiz-adv-x="1660" 
d="M51 666q0 233 176 397q173 161 430 164v125h349v-125q257 -3 430 -164q176 -164 176 -397q0 -234 -176 -398q-175 -163 -430 -166v-122h-349v122q-255 3 -430 166q-176 164 -176 398zM657 440v453q-99 0 -170 -68q-71 -65 -71 -159q0 -92 71 -160q72 -66 170 -66z
M1006 893v-453q96 0 168 66q73 67 73 160q0 91 -71 159t-170 68z" />
    <glyph glyph-name="uni0425" unicode="&#x425;" horiz-adv-x="1380" 
d="M481 680l-456 651h417l248 -354l248 354h418l-457 -651l475 -680h-416l-268 381l-268 -381h-416z" />
    <glyph glyph-name="uni0426" unicode="&#x426;" horiz-adv-x="1488" 
d="M68 0v1331h350v-1009h495v1009h351v-1009h196v-646h-350v324h-1042z" />
    <glyph glyph-name="uni0427" unicode="&#x427;" horiz-adv-x="1241" 
d="M598 455q-264 0 -413.5 120t-149.5 336v420h350v-420q0 -135 225 -135q102 0 213 27v528h351v-1331h-351v479q-99 -24 -225 -24z" />
    <glyph glyph-name="uni0428" unicode="&#x428;" horiz-adv-x="1912" 
d="M68 0v1331h350v-1009h348v1009h352v-1009h377v1009h350v-1331h-1777z" />
    <glyph glyph-name="uni0429" unicode="&#x429;" horiz-adv-x="2068" 
d="M68 1331h350v-1009h348v1009h352v-1009h377v1009h350v-1009h195v-646h-350v324h-1622v1331z" />
    <glyph glyph-name="uni042A" unicode="&#x42a;" horiz-adv-x="1558" 
d="M399 0v1008h-366v323h717v-420h266q212 0 352 -131q141 -132 141 -325q0 -194 -141 -326q-141 -129 -352 -129h-617zM750 590v-268h266q55 0 93 38.5t38 94.5q0 57 -38 96t-93 39h-266z" />
    <glyph glyph-name="uni042B" unicode="&#x42b;" horiz-adv-x="1673" 
d="M684 0h-616v1331h350v-420h266q212 0 352 -131q142 -133 142 -325q0 -193 -142 -326q-141 -129 -352 -129zM1606 0h-353v1331h353v-1331zM418 590v-268h266q55 0 92 38.5t37 94.5q0 54 -32 91.5t-83 43.5h-14h-266z" />
    <glyph glyph-name="uni042C" unicode="&#x42c;" horiz-adv-x="1224" 
d="M68 0v1331h350v-420h266q212 0 352 -131q142 -133 142 -325q0 -193 -142 -326q-141 -129 -352 -129h-616zM418 590v-268h266q51 0 87 33.5t42 84.5q0 66 -34 108t-95 42h-266z" />
    <glyph glyph-name="uni042D" unicode="&#x42d;" horiz-adv-x="1431" 
d="M35 371l340 125q41 -85 122 -133t181 -48q108 0 192.5 57t122.5 154h-424v291h418q-41 93 -123 146t-186 53q-100 0 -181 -48t-122 -132l-340 125q81 176 254 284q174 107 389 107q302 0 502 -197q202 -196 202 -489q0 -294 -202 -490q-199 -196 -502 -196
q-216 0 -388.5 105.5t-254.5 285.5z" />
    <glyph glyph-name="uni042E" unicode="&#x42e;" horiz-adv-x="1992" 
d="M68 0v1331h350v-497h139q52 228 242 374q188 144 442 144q300 0 500 -197q203 -197 203 -489q0 -293 -203 -490q-199 -196 -500 -196q-259 0 -446 147q-188 147 -240 383h-137v-510h-350zM901 666q0 -148 96 -252q99 -99 244 -99q147 0 242 99q96 104 96 252
q0 145 -96 249q-94 101 -242 101q-146 0 -244 -101q-96 -104 -96 -249z" />
    <glyph glyph-name="uni042F" unicode="&#x42f;" horiz-adv-x="1277" 
d="M690 424l-244 -424h-391l277 481q-112 61 -177 165t-65 231q0 193 139 323q140 131 351 131h630v-1331h-352v424h-168zM580 745h278v263h-278q-54 0 -89.5 -37t-35.5 -94t35.5 -94.5t89.5 -37.5z" />
    <glyph glyph-name="uni0430" unicode="&#x430;" 
d="M14 391q0 174 101 287q102 117 247 117q96 0 175 -52v35h299v-778h-299v37q-77 -51 -175 -51q-145 0 -247 114q-101 116 -101 291zM330 393q0 -49 29 -81.5t71 -32.5q43 0 72.5 32.5t29.5 81.5q0 44 -30.5 77.5t-71.5 33.5t-70.5 -33t-29.5 -78z" />
    <glyph glyph-name="uni0431" unicode="&#x431;" horiz-adv-x="935" 
d="M39 621q0 513 401 630q91 26 126 66t40 117h248q0 -173 -66 -287q-64 -110 -256 -178q-113 -40 -167 -99.5t-60 -162.5q88 88 227 88q150 0 263 -119q114 -120 114 -289q0 -175 -118 -287q-117 -114 -289 -114q-200 0 -332 159q-131 162 -131 476zM410 475
q-35 -32 -35 -83.5t35 -86.5t84 -35t81 35q35 35 35 86.5t-35 83.5q-32 35 -81 35t-84 -35z" />
    <glyph glyph-name="uni0432" unicode="&#x432;" horiz-adv-x="821" 
d="M37 778h448q122 0 203 -63q82 -64 82 -156q0 -86 -65 -151q102 -64 102 -164q0 -102 -84 -174q-82 -70 -209 -70h-477v778zM322 303v-59h159q33 0 33 30q0 29 -33 29h-159zM469 537h-147v-60h147q26 0 29 27q0 33 -29 33z" />
    <glyph glyph-name="uni0433" unicode="&#x433;" horiz-adv-x="565" 
d="M324 508v-508h-287v778h522v-270h-235z" />
    <glyph glyph-name="uni0434" unicode="&#x434;" horiz-adv-x="1017" 
d="M293 -225h-285v497h129q21 56 21 252v254h719v-506h133v-497h-285v225h-432v-225zM416 272h176v236h-150v-14q0 -124 -26 -222z" />
    <glyph glyph-name="uni0435" unicode="&#x435;" horiz-adv-x="872" 
d="M844 285h-504q35 -68 115 -68q59 0 98 45l287 -45q-50 -106 -154 -168.5t-237 -62.5q-190 0 -312 116q-123 117 -123 289q0 169 121 287q123 117 301 117q179 0 299 -117q123 -117 123 -287q0 -51 -14 -106zM340 496h213q-30 67 -107 67q-72 0 -106 -67z" />
    <glyph glyph-name="uni0436" unicode="&#x436;" horiz-adv-x="1269" 
d="M334 0h-330l262 401l-225 377h326l133 -225v225h274v-221l131 221h324l-225 -377l262 -401h-330l-162 256v-256h-274v260z" />
    <glyph glyph-name="uni0437" unicode="&#x437;" horiz-adv-x="792" 
d="M0 229l283 72q9 -51 110 -51q92 0 92 31q0 20 -32 20h-123v188h116q27 0 27 15q0 24 -78 24q-99 0 -108 -49l-283 68q26 110 137 179t260 69q155 0 258 -74q105 -71 105 -180q0 -77 -59 -142q71 -62 71 -153q0 -112 -108 -189q-107 -73 -271 -73q-153 0 -262 67.5
t-135 177.5z" />
    <glyph glyph-name="uni0438" unicode="&#x438;" horiz-adv-x="874" 
d="M539 303l-256 -303h-228v778h277v-313l258 313h229v-778h-280v303z" />
    <glyph glyph-name="uni0439" unicode="&#x439;" horiz-adv-x="874" 
d="M55 0v778h277v-313l258 313h229v-778h-280v303l-256 -303h-228zM137 1243h223q0 -38 23 -66t55 -28q33 0 54.5 26.5t21.5 67.5h223q0 -134 -86 -223q-85 -88 -213 -88q-127 0 -215 88q-86 89 -86 223z" />
    <glyph glyph-name="uni043A" unicode="&#x43a;" 
d="M332 274v-274h-277v778h277v-241l162 241h335l-251 -377l284 -401h-338z" />
    <glyph glyph-name="uni043B" unicode="&#x43b;" horiz-adv-x="901" 
d="M92 0h-76v266h58q24 0 37 12.5t22.5 68.5t9.5 165v266h705v-778h-279v514h-147v-65q0 -228 -86.5 -338.5t-243.5 -110.5z" />
    <glyph glyph-name="uni043C" unicode="&#x43c;" horiz-adv-x="1044" 
d="M332 268v-268h-277v778h277l190 -321l189 321h278v-778h-278v264l-103 -174h-172z" />
    <glyph glyph-name="uni043D" unicode="&#x43d;" horiz-adv-x="878" 
d="M332 262v-262h-277v778h277v-252h213v252h278v-778h-278v262h-213z" />
    <glyph glyph-name="uni043E" unicode="&#x43e;" horiz-adv-x="880" 
d="M14 391q0 169 121 287q123 117 305 117q183 0 303 -117q121 -118 121 -287q0 -171 -121 -289q-119 -116 -303 -116q-183 0 -305 116q-121 118 -121 289zM330 391q0 -47 32.5 -79.5t77.5 -32.5t78 32.5t33 79.5q0 44 -33.5 78.5t-77.5 34.5t-77 -34t-33 -79z" />
    <glyph glyph-name="uni043F" unicode="&#x43f;" horiz-adv-x="860" 
d="M332 514v-514h-277v778h750v-778h-281v514h-192z" />
    <glyph glyph-name="uni0440" unicode="&#x440;" 
d="M330 -461h-299v1241h299v-37q79 52 174 52q146 0 248 -117q100 -112 100 -287q0 -176 -100 -291q-102 -114 -248 -114q-97 0 -174 51v-498zM334 387q0 -44 30.5 -76t71.5 -32t71 32t30 76q0 49 -29.5 83t-71.5 34t-72 -34t-30 -83z" />
    <glyph glyph-name="uni0441" unicode="&#x441;" horiz-adv-x="851" 
d="M852 504l-303 -88q-11 39 -41 63.5t-68 24.5q-44 0 -77 -33t-33 -76q0 -51 31 -83.5t79 -32.5q39 0 70.5 24t38.5 62l303 -89q-43 -132 -154 -211t-258 -79q-182 0 -305 114q-121 118 -121 291q0 172 121 287q123 117 305 117q146 0 257.5 -79.5t154.5 -211.5z" />
    <glyph glyph-name="uni0442" unicode="&#x442;" horiz-adv-x="700" 
d="M213 0v514h-209v264h692v-264h-204v-514h-279z" />
    <glyph glyph-name="uni0443" unicode="&#x443;" horiz-adv-x="849" 
d="M279 -47l8 27l-287 798h309l113 -370l119 370h309l-330 -925q-114 -314 -430 -314h-20v287h22q146 0 187 127z" />
    <glyph glyph-name="uni0444" unicode="&#x444;" horiz-adv-x="1245" 
d="M1200 389q0 -191 -125 -307q-127 -115 -315 -115v-428h-277v428q-189 0 -315 117q-123 117 -123 305q0 186 123 303q122 119 309 119h6v623h277v-623q189 0 315 -117q125 -116 125 -305zM483 246v289q-64 0 -106.5 -40.5t-42.5 -105.5q0 -60 41.5 -101.5t101.5 -41.5h6z
M911 389q0 65 -42 105.5t-109 40.5v-289q64 0 107.5 40.5t43.5 102.5z" />
    <glyph glyph-name="uni0445" unicode="&#x445;" horiz-adv-x="899" 
d="M549 0l-100 176l-99 -176h-350l266 403l-248 375h351l80 -145l81 145h351l-248 -375l266 -403h-350z" />
    <glyph glyph-name="uni0446" unicode="&#x446;" horiz-adv-x="946" 
d="M55 0v778h277v-512h184v512h281v-512h133v-520h-281v254h-594z" />
    <glyph glyph-name="uni0447" unicode="&#x447;" horiz-adv-x="835" 
d="M39 522v256h289v-246q0 -21 18 -35t47 -14q1 0 111 13v282h276v-778h-276v244q-79 -6 -127 -6q-154 0 -246 79t-92 205z" />
    <glyph glyph-name="uni0448" unicode="&#x448;" horiz-adv-x="1243" 
d="M55 0v778h277v-514h151v514h279v-514h151v514h275v-778h-1133z" />
    <glyph glyph-name="uni0449" unicode="&#x449;" horiz-adv-x="1339" 
d="M55 778h277v-514h151v514h279v-514h151v514h275v-512h135v-561h-274v295h-994v778z" />
    <glyph glyph-name="uni044A" unicode="&#x44a;" horiz-adv-x="991" 
d="M233 0v514h-229v264h508v-182h154q131 0 217 -86q88 -85 88 -213t-88 -213q-87 -84 -217 -84h-433zM655 330h-143v-64h143q29 0 29 31q0 33 -29 33z" />
    <glyph glyph-name="uni044B" unicode="&#x44b;" horiz-adv-x="1146" 
d="M55 0v778h277v-182h160q129 0 215 -86q88 -85 88 -213t-88 -213q-87 -84 -215 -84h-437zM1092 0h-281v778h281v-778zM481 330h-149v-64h149q23 0 23 31q0 30 -23 33z" />
    <glyph glyph-name="uni044C" unicode="&#x44c;" horiz-adv-x="815" 
d="M492 0h-437v778h277v-182h160q129 0 215 -86q88 -85 88 -213t-88 -213q-87 -84 -215 -84zM332 330v-64h149q23 0 23 31q0 30 -23 33h-149z" />
    <glyph glyph-name="uni044D" unicode="&#x44d;" horiz-adv-x="905" 
d="M31 256l282 82q12 -32 46.5 -53t76.5 -21q53 0 94 35h-139v190h129q-38 27 -84 27q-42 0 -76.5 -21.5t-46.5 -56.5l-282 80q41 125 152 201t253 76q183 0 303 -117q121 -115 121 -287q0 -173 -121 -291q-120 -114 -303 -114q-142 0 -253 74t-152 196z" />
    <glyph glyph-name="uni044E" unicode="&#x44e;" horiz-adv-x="1271" 
d="M55 0v778h277v-252h88q41 122 147.5 195.5t245.5 73.5q175 0 295 -117q119 -113 119 -287q0 -175 -119 -291q-120 -114 -295 -114q-141 0 -249 75.5t-146 200.5h-86v-262h-277zM690 391q0 -54 36 -90.5t87 -36.5t86 36.5t35 90.5t-35 89.5t-86 35.5t-87 -37t-36 -88z" />
    <glyph glyph-name="uni044F" unicode="&#x44f;" horiz-adv-x="849" 
d="M330 0h-326l166 231q-131 82 -131 248q0 130 86 213q89 86 221 86h449v-778h-279v180h-57zM326 479q0 -33 30 -33h160v68h-160q-30 0 -30 -35z" />
    <glyph glyph-name="uni0450" unicode="&#x450;" horiz-adv-x="872" 
d="M844 285h-504q35 -68 115 -68q59 0 98 45l287 -45q-50 -106 -154 -168.5t-237 -62.5q-190 0 -312 116q-123 117 -123 289q0 169 121 287q123 117 301 117q179 0 299 -117q123 -117 123 -287q0 -51 -14 -106zM340 496h213q-30 67 -107 67q-72 0 -106 -67zM551 940
l-397 182l139 221l356 -258z" />
    <glyph glyph-name="uni0451" unicode="&#x451;" horiz-adv-x="872" 
d="M844 285h-504q35 -68 115 -68q59 0 98 45l287 -45q-50 -106 -154 -168.5t-237 -62.5q-190 0 -312 116q-123 117 -123 289q0 169 121 287q123 117 301 117q179 0 299 -117q123 -117 123 -287q0 -51 -14 -106zM340 496h213q-30 67 -107 67q-72 0 -106 -67zM248 1264
q66 0 110.5 -44.5t44.5 -111.5t-44.5 -112.5t-110.5 -45.5q-67 0 -111.5 45t-44.5 113t44 112t112 44zM637 1264q66 0 111 -44.5t45 -111.5t-45 -112.5t-111 -45.5q-67 0 -111.5 45t-44.5 113t44.5 112t111.5 44z" />
    <glyph glyph-name="uni0452" unicode="&#x452;" horiz-adv-x="847" 
d="M365 1434v-232h225v-225h-225v-248q72 66 174 66q112 0 196 -84q82 -82 82 -205v-684q0 -122 -98 -201q-98 -82 -242 -82h-80v287h54q29 0 47 11t18 28v569q0 38 -21.5 64t-52.5 26q-32 0 -54.5 -26t-22.5 -64v-434h-299v977h-62v225h62v232h299z" />
    <glyph glyph-name="uni0453" unicode="&#x453;" horiz-adv-x="565" 
d="M324 508v-508h-287v778h522v-270h-235zM590 1122l-397 -182l-99 145l357 258z" />
    <glyph glyph-name="uni0454" unicode="&#x454;" horiz-adv-x="905" 
d="M469 -14q-183 0 -303 114q-121 118 -121 291q0 172 121 287q120 117 303 117q142 0 253 -76t152 -201l-282 -80q-12 35 -46.5 56.5t-76.5 21.5q-48 0 -90 -31h147v-182h-155q39 -39 98 -39q42 0 76.5 21t46.5 53l282 -82q-41 -122 -152 -196t-253 -74z" />
    <glyph glyph-name="uni0455" unicode="&#x455;" horiz-adv-x="733" 
d="M707 575l-269 -43q-12 43 -76 43q-47 0 -47 -16q0 -20 45 -29l99 -26q142 -41 201 -99t59 -155q0 -128 -89 -196t-259 -68q-323 0 -357 241l271 37q15 -49 90 -49q57 0 57 18q0 21 -61 33l-107 23q-129 26 -185 83t-56 158q0 265 342 265q315 0 342 -220z" />
    <glyph glyph-name="uni0456" unicode="&#x456;" horiz-adv-x="360" 
d="M330 0h-299v778h299v-778zM180 1284q78 0 128 -50t50 -128q4 -56 -28.5 -100t-81 -62.5t-103.5 -10.5t-92 46q-40 37 -48 92t11 103.5t63.5 81t100.5 28.5z" />
    <glyph glyph-name="uni0457" unicode="&#x457;" horiz-adv-x="403" 
d="M350 0h-299v778h299v-778zM-82 1108q0 61 39 103t96 42t96 -42t39 -103q0 -63 -39 -105t-96 -42t-96 42t-39 105zM213 1108q0 61 40 103t97 42t96 -42t39 -103q0 -63 -39 -105t-96 -42q-60 0 -98.5 42t-38.5 105z" />
    <glyph glyph-name="uni0458" unicode="&#x458;" horiz-adv-x="366" 
d="M37 778h301v-956q0 -122 -98 -201q-98 -82 -242 -82h-80v287h53q29 0 47.5 11t18.5 28v913zM59 979q-51 51 -51 127t51 127q54 51 129.5 51t124.5 -51q51 -51 51 -127t-51 -127q-49 -49 -124.5 -49t-129.5 49z" />
    <glyph glyph-name="uni0459" unicode="&#x459;" horiz-adv-x="1331" 
d="M92 0h-76v266h58q24 0 37 12.5t22.5 68.5t9.5 165v266h705v-182h160q129 0 215 -86q88 -85 88 -213t-88 -213q-87 -84 -215 -84h-437v514h-149v-65q0 -228 -86.5 -338.5t-243.5 -110.5zM997 330h-149v-64h149q23 0 23 31q0 33 -23 33z" />
    <glyph glyph-name="uni045A" unicode="&#x45a;" horiz-adv-x="1304" 
d="M55 0v778h277v-252h213v252h276v-182h160q129 0 215 -86q88 -85 88 -213t-88 -213q-87 -84 -215 -84h-436v262h-213v-262h-277zM821 330v-64h150q22 0 22 31q0 33 -22 33h-150z" />
    <glyph glyph-name="uni045B" unicode="&#x45b;" horiz-adv-x="847" 
d="M66 977h-62v225h62v232h299v-232h225v-225h-225v-248q72 66 174 66q112 0 196 -84q82 -82 82 -205v-506h-301v434q0 38 -21.5 64t-52.5 26q-32 0 -54.5 -26t-22.5 -64v-434h-299v977z" />
    <glyph glyph-name="uni045C" unicode="&#x45c;" 
d="M332 274v-274h-277v778h277v-241l162 241h335l-251 -377l284 -401h-338zM668 1122l-398 -182l-98 145l356 258z" />
    <glyph glyph-name="uni045D" unicode="&#x45d;" horiz-adv-x="874" 
d="M539 303l-256 -303h-228v778h277v-313l258 313h229v-778h-280v303zM645 1085l-98 -145l-397 182l139 221z" />
    <glyph glyph-name="uni045E" unicode="&#x45e;" horiz-adv-x="849" 
d="M287 -20l-287 798h309l113 -370l119 370h309l-330 -925q-114 -314 -430 -314h-20v287h22q146 0 187 127zM125 1243h223q0 -38 23 -66t55 -28q33 0 54.5 26.5t21.5 67.5h223q0 -134 -86 -223q-85 -88 -213 -88q-127 0 -215 88q-86 89 -86 223z" />
    <glyph glyph-name="uni045F" unicode="&#x45f;" horiz-adv-x="851" 
d="M55 0v778h277v-512h184v512h281v-778h-232v-254h-280v254h-230z" />
    <glyph glyph-name="uni0490" unicode="&#x490;" horiz-adv-x="968" 
d="M418 1008v-1008h-350v1331h518v268h350v-591h-518z" />
    <glyph glyph-name="uni0491" unicode="&#x491;" horiz-adv-x="608" 
d="M332 514v-514h-277v778h271v193h278v-457h-272z" />
    <glyph glyph-name="uni04D8" unicode="&#x4d8;" horiz-adv-x="1505" 
d="M754 1352q299 0 499 -197q203 -197 203 -489q0 -293 -203 -490q-199 -196 -499 -196q-303 0 -502 196q-201 201 -201 494q0 75 10 143h1016q-48 93 -134 148t-189 55q-144 0 -238 -82l-350 133q94 134 249 209.5t339 75.5zM754 315q202 0 315 174h-633q113 -174 318 -174
z" />
    <glyph glyph-name="uni04D9" unicode="&#x4d9;" horiz-adv-x="872" 
d="M29 496h503q-34 67 -114 67q-60 0 -99 -45l-286 45q50 106 154 169t237 63q188 0 311 -117t123 -289q0 -170 -123 -287q-119 -116 -299 -116q-179 0 -301 116q-121 118 -121 287q0 49 15 107zM532 285h-213q30 -68 107 -68q71 0 106 68z" />
    <glyph glyph-name="Wgrave" unicode="&#x1e80;" horiz-adv-x="1898" 
d="M737 0h-291l-440 1331h359l223 -756l217 756h291l219 -756l221 756h356l-440 -1331h-291l-211 713zM801 1855l356 -258l-98 -145l-397 182z" />
    <glyph glyph-name="wgrave" unicode="&#x1e81;" horiz-adv-x="1161" 
d="M791 487l67 291h303l-231 -778h-279l-69 276l-74 -276h-277l-231 778h301l68 -295l71 295h281zM690 940l-397 182l139 221l356 -258z" />
    <glyph glyph-name="Wacute" unicode="&#x1e82;" horiz-adv-x="1898" 
d="M737 0h-291l-440 1331h359l223 -756l217 756h291l219 -756l221 756h356l-440 -1331h-291l-211 713zM1241 1634l-397 -182l-99 145l357 258z" />
    <glyph glyph-name="wacute" unicode="&#x1e83;" horiz-adv-x="1161" 
d="M791 487l67 291h303l-231 -778h-279l-69 276l-74 -276h-277l-231 778h301l68 -295l71 295h281zM475 940l-98 145l356 258l139 -221z" />
    <glyph glyph-name="Wdieresis" unicode="&#x1e84;" horiz-adv-x="1898" 
d="M737 0h-291l-440 1331h359l223 -756l217 756h291l219 -756l221 756h356l-440 -1331h-291l-211 713zM756 1776q66 0 110.5 -44.5t44.5 -111.5t-44.5 -112.5t-110.5 -45.5q-67 0 -111.5 45t-44.5 113t44 112t112 44zM989 1634q8 63 50.5 102.5t105.5 39.5q66 0 110.5 -44.5
t44.5 -111.5t-44.5 -112.5t-110.5 -45.5q-72 0 -114 48t-42 124z" />
    <glyph glyph-name="wdieresis" unicode="&#x1e85;" horiz-adv-x="1161" 
d="M791 487l67 291h303l-231 -778h-279l-69 276l-74 -276h-277l-231 778h301l68 -295l71 295h281zM387 1264q66 0 111 -44.5t45 -111.5t-45 -112.5t-111 -45.5q-67 0 -111.5 45t-44.5 113t44.5 112t111.5 44zM776 1264q66 0 111 -44.5t45 -111.5t-45 -112.5t-111 -45.5
q-67 0 -111 45t-44 113t44 112t111 44z" />
    <glyph glyph-name="Germandbls" unicode="&#x1e9e;" horiz-adv-x="1234" 
d="M418 836v-836h-350v844q0 210 153 348q157 139 391 139h545v-235l-162 -295q81 -26 150 -131q69 -100 69 -219q0 -196 -190 -334q-188 -135 -449 -135l-2 352q106 0 193 37q88 37 88 92q0 54 -98 94q-96 41 -215 41l225 399h-100q-106 0 -177 -46t-71 -115z" />
    <glyph glyph-name="Ygrave" unicode="&#x1ef2;" horiz-adv-x="1351" 
d="M496 553l-490 778h402l262 -450l276 450h400l-500 -770v-561h-350v553zM883 1597l-99 -145l-397 182l139 221z" />
    <glyph glyph-name="ygrave" unicode="&#x1ef3;" horiz-adv-x="849" 
d="M287 -20l-287 798h309l113 -370l119 370h309l-330 -925q-114 -314 -430 -314h-20v287h22q146 0 187 127zM535 940l-398 182l139 221l357 -258z" />
    <glyph glyph-name="figuredash" unicode="&#x2012;" horiz-adv-x="1228" 
d="M115 522v287h999v-287h-999z" />
    <glyph glyph-name="endash" unicode="&#x2013;" horiz-adv-x="1228" 
d="M94 266v246h1041v-246h-1041z" />
    <glyph glyph-name="emdash" unicode="&#x2014;" horiz-adv-x="2048" 
d="M94 266v246h1860v-246h-1860z" />
    <glyph glyph-name="quoteleft" unicode="&#x2018;" horiz-adv-x="430" 
d="M41 1110q0 52 24 108t56 95q27 34 74 71q56 48 88 66l90 -96q-104 -76 -107 -119q57 -11 95 -59t38 -111q0 -69 -48 -116.5t-120 -47.5q-83 0 -136.5 60.5t-53.5 148.5z" />
    <glyph glyph-name="quoteright" unicode="&#x2019;" horiz-adv-x="430" 
d="M389 1241q0 -52 -24 -108.5t-58 -96.5q-24 -30 -71 -71q-54 -45 -89 -64l-90 96q104 76 107 119q-57 11 -95 59t-38 111q0 69 48 116.5t120 47.5q83 0 136.5 -60.5t53.5 -148.5z" />
    <glyph glyph-name="quotesinglbase" unicode="&#x201a;" horiz-adv-x="430" 
d="M389 82q0 -52 -24 -108.5t-58 -94.5q-26 -37 -71 -72q-51 -44 -89 -65l-90 96q104 76 107 119q-57 11 -95 59t-38 111q0 69 48 116.5t120 47.5q83 0 136.5 -60.5t53.5 -148.5z" />
    <glyph glyph-name="quotereversed" unicode="&#x201b;" horiz-adv-x="430" 
d="M41 1241q0 88 53.5 148.5t136.5 60.5q72 0 120 -47.5t48 -116.5q0 -63 -38 -111t-95 -59q0 -17 25 -46t55 -52l27 -21l-90 -96q-32 18 -88 64q-49 42 -74 71q-33 41 -56.5 97t-23.5 108z" />
    <glyph glyph-name="quotedblleft" unicode="&#x201c;" horiz-adv-x="808" 
d="M420 1110q0 52 24 108t56 95q29 36 73 71q54 47 89 66l90 -96q-104 -76 -107 -119q57 -11 95 -59t38 -111q0 -69 -48 -116.5t-120 -47.5q-83 0 -136.5 60.5t-53.5 148.5zM41 1110q0 52 24 108t56 95q27 34 74 71q56 48 88 66l90 -96q-104 -76 -107 -119q57 -11 95 -59
t38 -111q0 -69 -48 -116.5t-120 -47.5q-83 0 -136.5 60.5t-53.5 148.5z" />
    <glyph glyph-name="quotedblright" unicode="&#x201d;" horiz-adv-x="808" 
d="M389 1241q0 -52 -24 -108.5t-58 -96.5q-24 -30 -71 -71q-54 -45 -89 -64l-90 96q104 76 107 119q-57 11 -95 59t-38 111q0 69 48 116.5t120 47.5q83 0 136.5 -60.5t53.5 -148.5zM768 1241q0 -52 -24 -108.5t-58 -96.5q-21 -27 -72 -71q-56 -46 -88 -64l-90 96
q104 76 107 119q-57 11 -95 59t-38 111q0 69 48 116.5t120 47.5q83 0 136.5 -60.5t53.5 -148.5z" />
    <glyph glyph-name="quotedblbase" unicode="&#x201e;" horiz-adv-x="808" 
d="M389 82q0 -52 -24 -108.5t-58 -94.5q-26 -37 -71 -72q-51 -44 -89 -65l-90 96q104 76 107 119q-57 11 -95 59t-38 111q0 69 48 116.5t120 47.5q83 0 136.5 -60.5t53.5 -148.5zM768 82q0 -52 -24 -108.5t-58 -94.5q-25 -35 -72 -72q-53 -46 -88 -65l-90 96q104 76 107 119
q-57 11 -95 59t-38 111q0 69 48 116.5t120 47.5q83 0 136.5 -60.5t53.5 -148.5z" />
    <glyph glyph-name="uni201F" unicode="&#x201f;" horiz-adv-x="808" 
d="M420 1241q0 88 53.5 148.5t136.5 60.5q72 0 120 -47.5t48 -116.5q0 -63 -38 -111t-95 -59q0 -17 25 -46t55 -52l27 -21l-90 -96q-35 19 -89 64q-45 39 -73 71q-33 41 -56.5 97t-23.5 108zM41 1241q0 88 53.5 148.5t136.5 60.5q72 0 120 -47.5t48 -116.5q0 -63 -38 -111
t-95 -59q0 -17 25 -46t55 -52l27 -21l-90 -96q-32 18 -88 64q-49 42 -74 71q-33 41 -56.5 97t-23.5 108z" />
    <glyph glyph-name="dagger" unicode="&#x2020;" horiz-adv-x="778" 
d="M20 770v213h267v348h205v-348h266v-213h-266v-975h-205v975h-267z" />
    <glyph glyph-name="daggerdbl" unicode="&#x2021;" horiz-adv-x="778" 
d="M287 143h-267v213h267v414h-267v213h267v348h205v-348h266v-213h-266v-414h266v-213h-266v-348h-205v348z" />
    <glyph glyph-name="bullet" unicode="&#x2022;" horiz-adv-x="616" 
d="M31 389q0 119 80 199q79 82 196 82q121 0 200 -79.5t79 -201.5q0 -119 -80 -199q-76 -79 -199 -79q-114 0 -196 79q-80 83 -80 199z" />
    <glyph glyph-name="ellipsis" unicode="&#x2026;" horiz-adv-x="1210" 
d="M31 158q0 74 49 124t121 50q73 0 122.5 -50t49.5 -124t-49.5 -123t-122.5 -49q-72 0 -121 50t-49 122zM434 158q0 74 49 124t121 50q73 0 122.5 -50t49.5 -124t-49 -123t-123 -49q-72 0 -121 50t-49 122zM838 158q0 74 49 124t121 50q73 0 122.5 -50t49.5 -124t-49 -123
t-123 -49q-72 0 -121 50t-49 122z" />
    <glyph glyph-name="perthousand" unicode="&#x2030;" horiz-adv-x="2619" 
d="M471 0l-158 131l1008 1200l158 -131zM150 678q-109 115 -109 280q0 166 109 281q110 113 274 113q165 0 272 -113q111 -114 111 -281q0 -166 -111 -280q-108 -111 -272 -111q-163 0 -274 111zM340 1040q-32 -32 -32 -81.5t32 -84.5q35 -32 84.5 -32t81.5 32
q35 35 35 84.5t-35 81.5q-32 35 -81.5 35t-84.5 -35zM1104 92q-109 115 -109 281t109 278q110 113 274 113q166 0 273 -113q110 -110 110 -278t-110 -281q-106 -112 -273 -112q-165 0 -274 112zM1294 455q-32 -32 -32 -81.5t32 -84.5q35 -32 84.5 -32t81.5 32q35 35 35 84.5
t-35 81.5q-32 35 -81.5 35t-84.5 -35zM1921 92q-109 115 -109 281t109 278q110 113 274 113q166 0 273 -113q110 -110 110 -278t-110 -281q-106 -112 -273 -112q-165 0 -274 112zM2111 455q-32 -32 -32 -81.5t32 -84.5q35 -32 84.5 -32t81.5 32q35 35 35 84.5t-35 81.5
q-32 35 -81.5 35t-84.5 -35z" />
    <glyph glyph-name="guilsinglleft" unicode="&#x2039;" horiz-adv-x="602" 
d="M389 20l-369 369l369 367l172 -174l-192 -193l192 -194z" />
    <glyph glyph-name="guilsinglright" unicode="&#x203a;" horiz-adv-x="602" 
d="M215 756l367 -367l-367 -369l-174 175l195 194l-195 193z" />
    <glyph glyph-name="fraction" unicode="&#x2044;" horiz-adv-x="1181" 
d="M250 0h-250l932 1331h250z" />
    <glyph glyph-name="Euro" unicode="&#x20ac;" horiz-adv-x="1521" 
d="M143 709h-118v198h157q75 203 252 322q178 123 410 123q218 0 389 -107q176 -110 256 -284l-342 -125q-43 85 -123 132.5t-180 47.5q-148 0 -248 -109h307v-198h-395q-2 -10 -2 -41q0 -35 2 -45h395v-199h-307q95 -109 248 -109q99 0 179.5 48t123.5 131l342 -123
q-81 -176 -256 -285q-169 -106 -389 -106q-232 0 -410 120q-178 122 -252 324h-157v199h118q-1 14 -1 43.5t1 42.5z" />
    <glyph glyph-name="uni20B4" unicode="&#x20b4;" horiz-adv-x="1218" 
d="M442 717h-391v198h678q53 47 27.5 86t-103.5 39q-53 0 -90.5 -23t-48.5 -59l-348 64q34 142 168 235q136 95 313 95q196 0 332 -109q137 -107 137 -244q0 -41 -14 -84h65v-198h-266q-61 -50 -98 -72h364v-199h-643q-67 -43 -67 -77q0 -31 44 -53.5t105 -22.5
q73 0 128 32.5t67 82.5l356 -66q-40 -160 -190 -262q-147 -100 -349 -100q-220 0 -364 112q-148 115 -148 260q0 45 19 94h-74v199h285q89 62 106 72z" />
    <glyph glyph-name="uni2113" unicode="&#x2113;" horiz-adv-x="960" 
d="M190 307l-129 -61v293q62 30 127 73v449q0 171 88 278q88 111 230 111q144 0 235 -113q95 -115 95 -274q0 -305 -369 -584v-139q0 -78 63 -78q35 0 77 33t65 70l22 34l185 -182q-13 -23 -72 -82q-140 -144 -303 -149q-121 0 -211 90q-91 94 -103 231zM467 1100v-248
q90 116 90 223q0 96 -49 96q-41 0 -41 -71z" />
    <glyph glyph-name="uni2116" unicode="&#x2116;" horiz-adv-x="2168" 
d="M403 727v-727h-335v1331h311l563 -731v731h338v-1331h-313zM2017 680q-107 -113 -272 -113t-275 113q-108 114 -108 281t108 278q110 113 275 113t272 -113q111 -111 111 -278t-111 -281zM2087 209h-684v266h684v-266zM1661 1042q-32 -32 -32 -81t32 -84q35 -32 84.5 -32
t81.5 32q35 35 35 84t-35 81q-32 35 -81.5 35t-84.5 -35z" />
    <glyph glyph-name="uni2117" unicode="&#x2117;" horiz-adv-x="1470" 
d="M250 180q-201 201 -201 486q0 284 201 485t485 201q285 0 486 -201q200 -200 200 -485q0 -286 -200 -486t-486 -200q-285 0 -485 200zM324 254q170 -170 411 -170q242 0 412 170t170 412q0 241 -170 411q-169 172 -412 172q-242 0 -411 -172q-170 -170 -170 -411
q0 -242 170 -412zM676 285h-199v764h350q121 0 205 -78t84 -191q0 -114 -84 -192q-82 -76 -205 -76h-151v-227zM827 864h-151v-166h151q49 -4 69.5 39t0 86.5t-69.5 40.5z" />
    <glyph glyph-name="trademark" unicode="&#x2122;" horiz-adv-x="1409" 
d="M782 666h-172v665h172l207 -368l207 368h172v-665h-172v342l-149 -277h-117l-148 275v-340zM209 666v503h-189v162h551v-162h-188v-503h-174z" />
    <glyph glyph-name="estimated" unicode="&#x212e;" horiz-adv-x="1458" 
d="M1409 666h-1055v-473q164 -132 375 -132q167 0 311 87.5t224 236.5h84q-84 -185 -250 -291q-170 -108 -369 -108q-283 0 -481 198q-199 199 -199 482q0 280 199 479q201 201 481 201t479 -199q201 -201 201 -481zM354 1139v-398h750v398q-162 131 -375 131t-375 -131z
" />
    <glyph glyph-name="uni2150" unicode="&#x2150;" horiz-adv-x="1708" 
d="M492 0h-250l932 1331h249zM1149 733h547v-190l-262 -543h-215l266 553h-336v180zM217 1108l-108 -47l-70 164l233 106h142v-733h-197v510z" />
    <glyph glyph-name="uni2151" unicode="&#x2151;" horiz-adv-x="1697" 
d="M1098 141l174 82q27 -47 98 -47q49 0 80 20t31 50v37q-40 -29 -109 -29q-110 0 -186 70q-78 72 -78 176t80.5 172.5t202.5 68.5q124 0 202 -69q82 -70 82 -172v-250q0 -110 -86 -187q-85 -73 -215 -73q-93 0 -166.5 40.5t-109.5 110.5zM492 0h-250l932 1331h249z
M217 1108l-108 -47l-70 164l233 106h142v-733h-197v510zM1313 500q0 -37 40 -51.5t80 0t40 49.5q3 35 -39.5 50t-84 1t-36.5 -49z" />
    <glyph glyph-name="uni2152" unicode="&#x2152;" horiz-adv-x="2254" 
d="M1647 256v219q0 115 82 191q81 75 208 75q130 0 211 -75q84 -78 84 -191v-219q0 -113 -86 -190q-82 -76 -209 -76q-126 0 -208 76t-82 190zM1423 1331l-931 -1331h-250l932 1331h249zM1223 463l-70 164l233 106h142v-733h-197v510zM217 1108l-108 -47l-70 164l233 106
h142v-733h-197v510zM1843 477v-223q0 -32 28 -55t66 -23q41 0 70 23t29 55v223q3 47 -47.5 66.5t-100.5 0t-45 -66.5z" />
    <glyph glyph-name="onethird" unicode="&#x2153;" horiz-adv-x="1710" 
d="M1423 1331l-931 -1331h-250l932 1331h249zM1397 -10q-106 0 -185 53t-104 139l182 64q0 -30 31.5 -50t68.5 -19t66 18q42 31 18.5 68.5t-83.5 37.5h-56v145h35q37 0 63.5 16t26.5 40q0 23 -22.5 38t-59.5 15q-75 0 -90 -45l-174 59q36 78 110 125t169 47
q117 0 194.5 -66.5t77.5 -168.5q0 -78 -63 -123q84 -53 84 -150q0 -106 -82 -174.5t-207 -68.5zM109 1061l-70 164l233 106h142v-733h-197v510z" />
    <glyph glyph-name="twothirds" unicode="&#x2154;" horiz-adv-x="1804" 
d="M365 1102q0 21 -19.5 36t-48.5 15q-66 0 -104 -84l-183 88q41 85 117.5 133.5t169.5 48.5q116 0 192 -67q80 -68 80 -162q0 -120 -161 -262l-72 -64h237v-186h-536v143l254 238q74 68 74 123zM586 0h-250l932 1331h250zM1554 502q0 23 -22.5 38t-58.5 15q-76 0 -91 -45
l-174 59q36 78 110 125t169 47q117 0 194.5 -66.5t77.5 -168.5q0 -78 -63 -123q84 -53 84 -150q0 -106 -82 -174.5t-207 -68.5q-106 0 -185 53t-104 139l182 64q0 -30 31.5 -50t68.5 -19t66 18q42 31 18.5 68.5t-83.5 37.5h-55v145h34q37 0 63.5 16t26.5 40z" />
    <glyph glyph-name="uni2155" unicode="&#x2155;" horiz-adv-x="1724" 
d="M1423 1331l-931 -1331h-250l932 1331h249zM1112 207l197 53q27 -84 100 -84q37 0 61.5 20.5t24.5 49.5q0 32 -32 54t-79 22h-215l43 411h418v-180h-258l-6 -51h68q111 0 188 -74q76 -70 76 -180q0 -112 -81.5 -185t-205.5 -73q-108 0 -189 59t-110 158zM109 1061l-70 164
l233 106h142v-733h-197v510z" />
    <glyph glyph-name="uni2156" unicode="&#x2156;" horiz-adv-x="1818" 
d="M365 1102q0 21 -19.5 36t-48.5 15q-66 0 -104 -84l-183 88q41 85 117.5 133.5t169.5 48.5q116 0 192 -67q80 -68 80 -162q0 -120 -161 -262l-72 -64h237v-186h-536v143l254 238q74 68 74 123zM586 0h-250l932 1331h250zM1792 248q0 -112 -81.5 -185t-205.5 -73
q-108 0 -189 59t-110 158l197 53q27 -84 100 -84q37 0 61.5 20.5t24.5 49.5q0 32 -31.5 54t-78.5 22h-215l43 411h417v-180h-258l-6 -51h68q111 0 188 -74q76 -70 76 -180z" />
    <glyph glyph-name="uni2157" unicode="&#x2157;" horiz-adv-x="1851" 
d="M367 1100q0 23 -22.5 38t-59.5 15q-75 0 -90 -45l-175 59q36 78 110 125t169 47q117 0 194.5 -66.5t77.5 -168.5q0 -78 -63 -123q84 -53 84 -150q0 -106 -82 -174.5t-207 -68.5q-106 0 -185 53t-104 139l183 64q0 -30 31.5 -50t68 -19t65.5 18q42 31 18.5 68.5
t-83.5 37.5h-55v145h34q38 0 64.5 16t26.5 40zM618 0h-249l931 1331h250zM1825 248q0 -112 -81.5 -185t-205.5 -73q-108 0 -189 59t-110 158l197 53q27 -84 100 -84q37 0 61.5 20.5t24.5 49.5q0 32 -32 54t-79 22h-215l43 411h418v-180h-258l-6 -51h68q111 0 188 -74
q76 -70 76 -180z" />
    <glyph glyph-name="uni2158" unicode="&#x2158;" horiz-adv-x="1871" 
d="M639 0h-250l932 1331h250zM1260 207l196 53q27 -84 100 -84q37 0 61.5 20.5t24.5 49.5q0 32 -31.5 54t-78.5 22h-215l43 411h418v-180h-258l-7 -51h68q111 0 188 -74q76 -70 76 -180q0 -112 -81.5 -185t-204.5 -73q-108 0 -189 59t-110 158zM20 723v188l355 420h186v-422
h76v-186h-76v-125h-196v125h-345zM365 1042l-111 -133h111v133z" />
    <glyph glyph-name="uni2159" unicode="&#x2159;" horiz-adv-x="1738" 
d="M1137 231v250q0 112 82.5 186t207.5 74q94 0 167 -41.5t108 -115.5l-178 -82q-27 53 -94 53q-41 0 -69 -20.5t-28 -49.5v-41q39 33 111 33q109 0 186 -71q80 -71 80 -175q0 -102 -82 -172q-81 -69 -205 -69q-123 0 -204 69q-82 70 -82 172zM492 0h-250l932 1331h249z
M109 1061l-70 164l233 106h142v-733h-197v510zM1481 274q-23 17 -57.5 17t-59.5 -17q-23 -17 -23 -40.5t23 -40.5q25 -17 59.5 -17t57.5 17q25 17 25 40.5t-25 40.5z" />
    <glyph glyph-name="uni215A" unicode="&#x215a;" horiz-adv-x="1818" 
d="M1217 231v250q0 112 82.5 186t207.5 74q94 0 167 -41.5t108 -115.5l-178 -82q-27 53 -95 53q-41 0 -68.5 -20.5t-27.5 -49.5v-41q39 33 111 33q109 0 186 -71q80 -71 80 -175q0 -102 -82 -172q-81 -69 -205 -69t-205 69t-81 172zM1503 1331l-932 -1331h-249l931 1331h250
zM317 588q-108 0 -189 59t-110 158l197 53q27 -84 100 -84q37 0 61.5 20.5t24.5 49.5q0 32 -31.5 54t-78.5 22h-215l43 411h418v-180h-258l-7 -51h68q111 0 188 -74q76 -70 76 -180q0 -112 -81.5 -185t-205.5 -73zM1561 274q-23 17 -57.5 17t-59.5 -17q-23 -17 -23 -40.5
t23 -40.5q25 -17 59.5 -17t57.5 17q25 17 25 40.5t-25 40.5z" />
    <glyph glyph-name="oneeighth" unicode="&#x215b;" horiz-adv-x="1738" 
d="M1427 -10q-124 0 -206 64t-82 161q0 98 84 164q-72 60 -72 147q0 92 79 153.5t197 61.5q117 0 195 -62t78 -153q0 -89 -70 -147q84 -72 84 -166q0 -96 -82 -159.5t-205 -63.5zM492 0h-250l932 1331h249zM109 1061l-70 164l233 106h142v-733h-197v510zM1427 287
q-38 0 -62 -15.5t-24 -38.5q-4 -36 41 -50t89 0.5t38 47.5q0 25 -22.5 40.5t-59.5 15.5zM1356 512q0 -45 71 -45q30 0 49 12.5t19 32.5q0 19 -19.5 31t-48.5 12q-71 0 -71 -43z" />
    <glyph glyph-name="threeeighths" unicode="&#x215c;" horiz-adv-x="1906" 
d="M1266 215q0 98 84 164q-72 60 -72 147q0 92 79 153.5t197 61.5q117 0 195 -62t78 -153q0 -89 -70 -147q84 -72 84 -166q0 -96 -82 -159.5t-205 -63.5q-124 0 -206 64t-82 161zM1550 1331l-932 -1331h-249l931 1331h250zM303 588q-106 0 -185 53t-104 139l183 64
q0 -30 31.5 -50t68 -19t65.5 18q42 31 18.5 68.5t-83.5 37.5h-55v145h34q38 0 64.5 16t26.5 40q0 23 -22.5 38t-59.5 15q-75 0 -90 -45l-175 59q36 78 110 125t169 47q117 0 194.5 -66.5t77.5 -168.5q0 -78 -63 -123q84 -53 84 -150q0 -106 -82 -174.5t-207 -68.5zM1554 287
q-38 0 -62 -15.5t-24 -38.5q-4 -36 41 -50t89 0.5t38 47.5q0 25 -22.5 40.5t-59.5 15.5zM1483 512q0 -45 71 -45q30 0 49 12.5t19 32.5q0 19 -19.5 31t-48.5 12q-71 0 -71 -43z" />
    <glyph glyph-name="fiveeighths" unicode="&#x215d;" horiz-adv-x="1859" 
d="M1219 215q0 98 84 164q-72 60 -72 147q0 92 79 153.5t197 61.5q117 0 195 -62t78 -153q0 -89 -70 -147q84 -72 84 -166q0 -96 -82 -159.5t-205 -63.5q-124 0 -206 64t-82 161zM1503 1331l-932 -1331h-249l931 1331h250zM18 805l197 53q27 -84 100 -84q37 0 61.5 20.5
t24.5 49.5q0 32 -31.5 54t-78.5 22h-215l43 411h418v-180h-258l-7 -51h68q111 0 188 -74q76 -70 76 -180q0 -112 -81.5 -185t-205.5 -73q-108 0 -189 59t-110 158zM1507 287q-38 0 -62 -15.5t-24 -38.5q-4 -36 41 -50t89 0.5t38 47.5q0 25 -22.5 40.5t-59.5 15.5zM1507 555
q-71 0 -71 -43q0 -45 71 -45q30 0 49 12.5t19 32.5q0 19 -19.5 31t-48.5 12z" />
    <glyph glyph-name="seveneighths" unicode="&#x215e;" horiz-adv-x="1761" 
d="M1323 233q-4 -36 41 -50t89 0.5t38 47.5q0 25 -22.5 40.5t-59.5 15.5q-38 0 -62 -15.5t-24 -38.5zM1337 512q0 -45 72 -45q30 0 49 12.5t19 32.5q0 19 -19.5 31t-48.5 12q-72 0 -72 -43zM1133 526q0 92 79 153.5t197 61.5q116 0 194 -62t78 -153q0 -90 -69 -147
q84 -72 84 -166q0 -96 -82 -159.5t-205 -63.5q-124 0 -206.5 64t-82.5 161q0 98 84 164q-71 59 -71 147zM84 598l266 553h-336v180h547v-190l-262 -543h-215zM1405 1331l-932 -1331h-250l932 1331h250z" />
    <glyph glyph-name="uni215F" unicode="&#x215f;" horiz-adv-x="1423" 
d="M492 0h-250l932 1331h249zM109 1061l-70 164l233 106h142v-733h-197v510z" />
    <glyph glyph-name="arrowleft" unicode="&#x2190;" horiz-adv-x="1280" 
d="M586 178l-492 488l492 491l153 -151l-198 -218h645v-245h-643l196 -211z" />
    <glyph glyph-name="arrowup" unicode="&#x2191;" horiz-adv-x="1280" 
d="M152 723l487 491l491 -491l-153 -154l-215 199v-647h-246v645l-213 -197z" />
    <glyph glyph-name="arrowright" unicode="&#x2192;" horiz-adv-x="1280" 
d="M694 1157l492 -487l-492 -492l-153 154l198 215h-645v246h643l-196 213z" />
    <glyph glyph-name="arrowdown" unicode="&#x2193;" horiz-adv-x="1280" 
d="M1130 614l-491 -493l-487 493l151 154l213 -197v643h246v-645l215 199z" />
    <glyph glyph-name="uni2196" unicode="&#x2196;" horiz-adv-x="1280" 
d="M256 360l-4 693h696v-217l-293 -13l457 -456l-174 -174l-455 454l-10 -287h-217z" />
    <glyph glyph-name="uni2197" unicode="&#x2197;" horiz-adv-x="1280" 
d="M416 1053h696l-4 -693h-215l-12 287l-455 -454l-174 174l457 456l-293 13v217z" />
    <glyph glyph-name="uni2198" unicode="&#x2198;" horiz-adv-x="1280" 
d="M1108 887l4 -694h-696v217l293 12l-457 457l174 174l455 -455l12 289h215z" />
    <glyph glyph-name="uni2199" unicode="&#x2199;" horiz-adv-x="1280" 
d="M948 193h-696l4 694h217l10 -289l455 455l174 -174l-457 -457l293 -12v-217z" />
    <glyph glyph-name="emptyset" unicode="&#x2205;" horiz-adv-x="1470" 
d="M735 1352q178 0 324 -82l57 82h201l-123 -176q227 -205 227 -510q0 -286 -200 -486t-486 -200q-174 0 -323 79l-56 -79h-198l121 174q-109 94 -169.5 228.5t-60.5 283.5q0 284 201 485t485 201zM397 324l543 778q-91 45 -205 45q-199 0 -340 -141t-141 -340
q0 -205 143 -342zM735 184q198 0 340 142t142 340q0 201 -142 340l-545 -777q99 -45 205 -45z" />
    <glyph glyph-name="product" unicode="&#x220f;" horiz-adv-x="1208" 
d="M403 1016v-1374h-335v1689h1073v-1689h-336v1374h-402z" />
    <glyph glyph-name="summation" unicode="&#x2211;" horiz-adv-x="923" 
d="M862 -43v-315h-801v274l314 569l-314 572v274h801v-315h-418l291 -531l-293 -528h420z" />
    <glyph glyph-name="minus" unicode="&#x2212;" horiz-adv-x="1228" 
d="M115 522v287h999v-287h-999z" />
    <glyph glyph-name="integral" unicode="&#x222b;" horiz-adv-x="581" 
d="M20 -358v286h58q26 0 44.5 13.5t18.5 33.5v1180q0 119 95 199t237 80h88v-287h-57q-27 0 -45.5 -13.5t-18.5 -33.5v-1180q0 -118 -96 -199q-94 -79 -235 -79h-89z" />
    <glyph glyph-name="approxequal" unicode="&#x2248;" horiz-adv-x="1228" 
d="M758 678q-63 0 -128.5 26.5t-113 53t-67.5 26.5q-35 0 -58.5 -26.5t-23.5 -65.5h-250q0 160 100 266q101 107 254 107q63 0 128.5 -27.5t114 -54.5t68.5 -27q32 0 56 27.5t24 65.5h250q0 -157 -102 -265q-100 -106 -252 -106zM758 268q-63 0 -128.5 27t-113 53.5
t-67.5 26.5q-35 0 -58.5 -26.5t-23.5 -65.5h-250q0 160 100 266t254 106q63 0 128.5 -27t114 -54t68.5 -27q32 0 56 27t24 65h250q0 -156 -102 -264q-101 -107 -252 -107z" />
    <glyph glyph-name="notequal" unicode="&#x2260;" horiz-adv-x="1228" 
d="M772 727l-57 -123h399v-287h-532l-76 -163h-248l76 163h-219v287h352l57 123h-409v287h542l76 164h248l-76 -164h209v-287h-342z" />
    <glyph glyph-name="lessequal" unicode="&#x2264;" horiz-adv-x="1228" 
d="M1114 332l-999 387v223l999 389v-309l-496 -191l496 -190v-309zM115 0v287h999v-287h-999z" />
    <glyph glyph-name="greaterequal" unicode="&#x2265;" horiz-adv-x="1228" 
d="M1114 942v-223l-999 -387v309l495 190l-495 191v309zM115 287h999v-287h-999v287z" />
    <glyph glyph-name="uni23F4" unicode="&#x23f4;" horiz-adv-x="729" 
d="M586 221l-504 445l504 444v-889z" />
    <glyph glyph-name="uni23F5" unicode="&#x23f5;" horiz-adv-x="729" 
d="M143 1110l504 -444l-504 -445v889z" />
    <glyph glyph-name="uni23F6" unicode="&#x23f6;" horiz-adv-x="929" 
d="M20 414l445 504l444 -504h-889z" />
    <glyph glyph-name="uni23F7" unicode="&#x23f7;" horiz-adv-x="929" 
d="M909 918l-444 -504l-445 504h889z" />
    <glyph glyph-name="filledbox" unicode="&#x25a0;" horiz-adv-x="1466" 
d="M1399 0h-1331v1331h1331v-1331z" />
    <glyph glyph-name="H22073" unicode="&#x25a1;" horiz-adv-x="1466" 
d="M1399 0h-1331v1331h1331v-1331zM1194 205v921h-922v-921h922z" />
    <glyph glyph-name="uni25A2" unicode="&#x25a2;" horiz-adv-x="1466" 
d="M1399 0h-1331v1331h1331v-1331zM1194 205v921h-922v-921h922z" />
    <glyph glyph-name="triagup" unicode="&#x25b2;" horiz-adv-x="1708" 
d="M61 0l793 1372l793 -1372h-1586z" />
    <glyph glyph-name="uni25B3" unicode="&#x25b3;" horiz-adv-x="1708" 
d="M854 1372l793 -1372h-1586zM418 205h872l-436 756z" />
    <glyph glyph-name="triagdn" unicode="&#x25bc;" horiz-adv-x="1708" 
d="M1647 1331l-793 -1372l-793 1372h1586z" />
    <glyph glyph-name="uni25BD" unicode="&#x25bd;" horiz-adv-x="1708" 
d="M61 1331h1586l-793 -1372zM854 371l436 755h-872z" />
    <glyph glyph-name="uni25C6" unicode="&#x25c6;" horiz-adv-x="1536" 
d="M768 -41l-707 707l707 706l707 -706z" />
    <glyph glyph-name="uni25C7" unicode="&#x25c7;" horiz-adv-x="1536" 
d="M768 -41l-707 707l707 706l707 -706zM768 248l418 418l-418 417l-418 -417z" />
    <glyph glyph-name="lozenge" unicode="&#x25ca;" horiz-adv-x="1026" 
d="M61 666l385 665h134l385 -665l-385 -666h-134zM514 289l217 377l-217 376l-217 -376z" />
    <glyph glyph-name="circle" unicode="&#x25cb;" horiz-adv-x="1470" 
d="M250 180q-201 201 -201 486q0 284 201 485t485 201q285 0 486 -201q200 -200 200 -485q0 -286 -200 -486t-486 -200q-285 0 -485 200zM395 1006q-141 -141 -141 -340t141 -340q142 -142 340 -142t340 142t142 340t-142 340q-141 141 -340 141t-340 -141z" />
    <glyph glyph-name="H18533" unicode="&#x25cf;" horiz-adv-x="1470" 
d="M250 180q-201 201 -201 486q0 284 201 485t485 201q285 0 486 -201q200 -200 200 -485q0 -286 -200 -486t-486 -200q-285 0 -485 200z" />
    <glyph glyph-name="uni25D0" unicode="&#x25d0;" horiz-adv-x="1470" 
d="M250 180q-201 201 -201 486q0 284 201 485t485 201q285 0 486 -201q200 -200 200 -485q0 -286 -200 -486t-486 -200q-285 0 -485 200zM735 1147v-963q198 0 340 142t142 340t-142 340q-141 141 -340 141z" />
    <glyph glyph-name="uni25D1" unicode="&#x25d1;" horiz-adv-x="1470" 
d="M1221 1151q200 -200 200 -485q0 -286 -200 -486t-486 -200q-285 0 -485 200q-201 201 -201 486q0 284 201 485t485 201q285 0 486 -201zM735 184v963q-199 0 -340 -141t-141 -340t141 -340q142 -142 340 -142z" />
    <glyph glyph-name="uni25D2" unicode="&#x25d2;" horiz-adv-x="1470" 
d="M1221 180q-200 -200 -486 -200q-285 0 -485 200q-201 201 -201 486q0 284 201 485t485 201q285 0 486 -201q200 -200 200 -485q0 -286 -200 -486zM254 666h963q0 198 -142 340q-141 141 -340 141t-340 -141t-141 -340z" />
    <glyph glyph-name="uni25D3" unicode="&#x25d3;" horiz-adv-x="1470" 
d="M250 1151q201 201 485 201q285 0 486 -201q200 -200 200 -485q0 -286 -200 -486t-486 -200q-285 0 -485 200q-201 201 -201 486q0 284 201 485zM1217 666h-963q0 -199 141 -340q142 -142 340 -142t340 142t142 340z" />
    <glyph glyph-name="uni25D4" unicode="&#x25d4;" horiz-adv-x="1470" 
d="M250 180q-201 201 -201 486q0 284 201 485t485 201q285 0 486 -201q200 -200 200 -485q0 -286 -200 -486t-486 -200q-285 0 -485 200zM1217 666h-482v481q-199 0 -340 -141t-141 -340t141 -340q142 -142 340 -142t340 142t142 340z" />
    <glyph glyph-name="uni25D5" unicode="&#x25d5;" horiz-adv-x="1470" 
d="M250 180q-201 201 -201 486q0 284 201 485q204 201 487 201t484 -201q200 -200 200 -485q0 -286 -200 -486t-486 -200q-285 0 -485 200zM254 666h483v481q-201 0 -342 -141t-141 -340z" />
    <glyph glyph-name="uni25D6" unicode="&#x25d6;" horiz-adv-x="802" 
d="M735 1352v-1372q-285 0 -485 200q-201 201 -201 486q0 284 201 485t485 201z" />
    <glyph glyph-name="uni25D7" unicode="&#x25d7;" horiz-adv-x="802" 
d="M68 -20v1372q284 0 485 -201t201 -485q0 -285 -201 -486q-200 -200 -485 -200z" />
    <glyph glyph-name="uni25EF" unicode="&#x25ef;" horiz-adv-x="1470" 
d="M250 180q-201 201 -201 486q0 284 201 485t485 201q285 0 486 -201q200 -200 200 -485q0 -286 -200 -486t-486 -200q-285 0 -485 200zM395 1006q-141 -141 -141 -340t141 -340q142 -142 340 -142t340 142t142 340t-142 340q-141 141 -340 141t-340 -141z" />
    <glyph glyph-name="uni2639" unicode="&#x2639;" horiz-adv-x="1515" 
d="M383 918q0 54 36.5 90t90.5 36q55 0 92 -36t37 -90q0 -56 -37 -93t-92 -37q-54 0 -90.5 37.5t-36.5 92.5zM881 918q0 54 36.5 90t90.5 36q55 0 92 -36t37 -90q0 -56 -37 -93t-92 -37q-54 0 -90.5 37.5t-36.5 92.5zM424 293h-82q0 161 119 268q121 109 297 109
q174 0 295 -109t121 -268h-82q0 124 -97 209q-96 84 -237 84q-142 0 -238 -84t-96 -209zM281 186q-199 199 -199 480t199 477q198 198 477 198t477 -198q199 -196 199 -477t-199 -480q-199 -196 -477 -196t-477 196zM334 1087q-174 -174 -174 -421q0 -250 174 -424t424 -174
q248 0 422 174q176 176 176 424q0 245 -176 421q-177 177 -422 177q-247 0 -424 -177z" />
    <glyph glyph-name="smileface" unicode="&#x263a;" horiz-adv-x="1515" 
d="M383 918q0 54 36.5 90t90.5 36q55 0 92 -36t37 -90q0 -56 -37 -93t-92 -37q-54 0 -90.5 37.5t-36.5 92.5zM881 918q0 54 36.5 90t90.5 36q55 0 92 -36t37 -90q0 -56 -37 -93t-92 -37q-54 0 -90.5 37.5t-36.5 92.5zM342 608h82q0 -125 96 -209t238 -84q141 0 237 84
q97 85 97 209h82q0 -161 -121 -270q-119 -107 -295 -107q-178 0 -297 107t-119 270zM281 186q-199 199 -199 480t199 477q198 198 477 198t477 -198q199 -196 199 -477t-199 -480q-199 -196 -477 -196t-477 196zM334 1087q-174 -174 -174 -421q0 -250 174 -424t424 -174
q248 0 422 174q176 176 176 424q0 245 -176 421q-177 177 -422 177q-247 0 -424 -177z" />
    <glyph glyph-name="invsmileface" unicode="&#x263b;" horiz-adv-x="1515" 
d="M383 918q0 -55 36.5 -92.5t90.5 -37.5q55 0 92 37t37 93q0 54 -37 90t-92 36q-54 0 -90.5 -36t-36.5 -90zM881 918q0 -55 36.5 -92.5t90.5 -37.5q55 0 92 37t37 93q0 54 -37 90t-92 36q-54 0 -90.5 -36t-36.5 -90zM424 608h-82q0 -163 119 -270t297 -107q176 0 295 107
q121 109 121 270h-82q0 -124 -97 -209q-96 -84 -237 -84q-142 0 -238 84t-96 209zM281 186q-199 199 -199 480t199 477q198 198 477 198t477 -198q199 -196 199 -477t-199 -480q-199 -196 -477 -196t-477 196z" />
    <glyph glyph-name="commaaccent" horiz-adv-x="409" 
d="M348 -231q0 -74 -51 -140q-65 -90 -141 -133l-74 76q83 65 86 96q-45 8 -76 46.5t-31 88.5q0 57 38 94t98 37q65 0 108 -47.5t43 -117.5z" />
    <glyph glyph-name="zero.fitted" horiz-adv-x="1228" 
d="M84 465v401q0 206 152 346t378 140q225 0 377 -140t152 -346v-401q0 -206 -152 -346q-151 -139 -377 -139q-227 0 -378 139q-152 140 -152 346zM422 870v-411q0 -66 55.5 -112t136.5 -46t136 46t55 112v411q0 68 -55 114t-136 46q-82 0 -137 -46t-55 -114z" />
    <glyph glyph-name="one.fitted" horiz-adv-x="1228" 
d="M524 948l-231 -102l-125 282l448 203h244v-1012h307v-319h-950v319h307v629z" />
    <glyph glyph-name="two.fitted" horiz-adv-x="1228" 
d="M745 922q0 44 -42 76t-99 32q-133 0 -203 -162l-311 150q74 155 211 244.5t303 89.5q204 0 348 -123t144 -295q0 -215 -295 -473l-152 -139h453v-322h-969v248l467 436q145 133 145 238z" />
    <glyph glyph-name="three.fitted" horiz-adv-x="1228" 
d="M737 920q0 48 -46.5 79t-119.5 31q-63 0 -111 -25.5t-65 -66.5l-299 109q58 132 193 219q133 86 305 86q210 0 352 -121q141 -120 141 -305q0 -150 -122 -232q159 -99 159 -276q0 -189 -149 -314q-145 -124 -373 -124q-192 0 -332 94q-141 95 -188 245l315 111
q11 -57 64.5 -93t130.5 -36q78 0 130 35.5t52 89.5q0 55 -52 90t-128 35h-102v258h65q76 0 128 31t52 80z" />
    <glyph glyph-name="four.fitted" horiz-adv-x="1228" 
d="M694 0v233h-635v322l652 776h321v-778h144v-320h-144v-233h-338zM694 836l-235 -283h235v283z" />
    <glyph glyph-name="five.fitted" horiz-adv-x="1228" 
d="M1137 446q0 -201 -150 -333q-148 -133 -371 -133q-199 0 -340 106q-144 108 -196 281l338 88q53 -154 194 -154q73 0 123.5 41.5t50.5 101.5q0 66 -61.5 110t-153.5 44h-385l74 733h754v-307h-479l-13 -119h129q207 0 346 -133q140 -134 140 -326z" />
    <glyph glyph-name="six.fitted" horiz-adv-x="1228" 
d="M1110 1069l-305 -143q-52 104 -184 104q-82 0 -137.5 -42.5t-55.5 -104.5v-80q78 63 213 63q201 0 344 -131q143 -128 143 -315q0 -191 -149 -316q-145 -124 -369 -124q-223 0 -370 126q-148 127 -148 316v457q0 201 152 338q150 135 377 135q165 0 296 -76.5t193 -206.5
zM442 424q0 -54 48 -88.5t120 -34.5t120 35t48 86q0 54 -48 88.5t-120 34.5t-120 -35t-48 -86z" />
    <glyph glyph-name="seven.fitted" horiz-adv-x="1228" 
d="M748 1024h-625v307h983v-327l-477 -1004h-367z" />
    <glyph glyph-name="eight.fitted" horiz-adv-x="1228" 
d="M614 -20q-226 0 -372 116q-148 118 -148 293q0 183 160 301q-135 108 -135 273q0 162 141 276q140 113 354 113t351 -113q141 -114 141 -278q0 -163 -131 -273q160 -118 160 -303q0 -174 -150 -291q-147 -114 -371 -114zM444 420q0 -50 48.5 -84.5t121.5 -34.5
t120.5 32.5t47.5 82.5t-47.5 83t-120.5 33t-121.5 -32t-48.5 -80zM471 936q0 -41 40 -68.5t103 -27.5q61 0 101.5 27.5t40.5 68.5q0 39 -40.5 66.5t-101.5 27.5t-102 -27.5t-41 -66.5z" />
    <glyph glyph-name="nine.fitted" horiz-adv-x="1228" 
d="M94 254l299 139q56 -92 191 -92q93 0 154 43t61 105v73q-67 -61 -205 -61q-201 0 -342 129t-141 317q0 191 145 318q148 127 367 127t366 -129q148 -127 148 -316v-454q0 -203 -156 -338t-387 -135q-170 0 -305 74.5t-195 199.5zM506 817q47 -35 116.5 -35t116.5 35
t47 88t-47 88q-47 37 -116.5 37t-116.5 -35q-44 -35 -44 -88t44 -90z" />
    <glyph glyph-name="zero.sup" horiz-adv-x="630" 
d="M23 956v220q0 115 81 190q82 76 209 76q129 0 211 -76q84 -78 84 -190v-220q0 -113 -86 -190q-82 -76 -209 -76t-209 76q-81 75 -81 190zM219 1178v-224q0 -32 27.5 -54.5t66.5 -22.5q41 0 70 22.5t29 54.5v224q3 47 -47.5 66.5t-100.5 0t-45 -66.5z" />
    <glyph glyph-name="one.sup" horiz-adv-x="509" 
d="M217 1210l-108 -47l-70 164l233 107h142v-734h-197v510z" />
    <glyph glyph-name="two.sup" horiz-adv-x="604" 
d="M365 1204q0 21 -19.5 36t-48.5 15q-66 0 -104 -84l-183 89q41 85 117.5 133.5t169.5 48.5q115 0 192 -68q80 -68 80 -162q0 -120 -161 -262l-72 -63h237v-187h-536v144l254 237q74 68 74 123z" />
    <glyph glyph-name="three.sup" horiz-adv-x="616" 
d="M367 1202q0 23 -22.5 38t-59.5 15q-75 0 -90 -45l-175 60q36 78 110 125t169 47q117 0 194.5 -67t77.5 -169q0 -78 -63 -123q84 -53 84 -149q0 -106 -82 -175t-207 -69q-105 0 -184.5 53t-104.5 140l183 63q0 -30 31.5 -50t68 -19t65.5 18q42 31 18.5 68.5t-83.5 37.5
h-55v146h34q38 0 64.5 15.5t26.5 39.5z" />
    <glyph glyph-name="four.sup" horiz-adv-x="657" 
d="M365 700v125h-345v189l355 420h186v-422h76v-187h-76v-125h-196zM365 1145l-111 -133h111v133z" />
    <glyph glyph-name="five.sup" horiz-adv-x="630" 
d="M604 948q0 -112 -81.5 -185t-205.5 -73q-108 0 -189 59t-110 158l197 54q27 -84 100 -84q37 0 61.5 20t24.5 49q0 32 -31.5 54t-78.5 22h-215l43 412h418v-181h-258l-7 -51h68q111 0 188 -74q76 -70 76 -180z" />
    <glyph glyph-name="six.sup" horiz-adv-x="624" 
d="M588 1284l-178 -82q-27 53 -95 53q-41 0 -68.5 -20t-27.5 -49v-41q39 33 111 33q108 0 186 -72q80 -71 80 -174q0 -102 -82 -172t-205 -70t-205 70q-81 69 -81 172v250q0 112 82.5 186t207.5 74q93 0 166.5 -42t108.5 -116zM367 975q-23 17 -57.5 17t-59.5 -17
q-23 -17 -23 -41t23 -41q25 -17 59.5 -17t57.5 17q25 17 25 41t-25 41z" />
    <glyph glyph-name="seven.sup" horiz-adv-x="573" 
d="M84 700l266 553h-336v181h547v-191l-262 -543h-215z" />
    <glyph glyph-name="eight.sup" horiz-adv-x="624" 
d="M313 690q-124 0 -206 64t-82 161q0 98 84 164q-72 60 -72 148q0 92 79 153.5t197 61.5q117 0 195 -62t78 -153q0 -90 -70 -148q84 -72 84 -166q0 -96 -82 -159.5t-205 -63.5zM227 934q-4 -36 41 -50t89 0.5t38 47.5q0 25 -22.5 40t-59.5 15q-38 0 -62 -15t-24 -38z
M242 1212q0 -45 71 -45q30 0 49 12.5t19 32.5q0 19 -19.5 31t-48.5 12q-71 0 -71 -43z" />
    <glyph glyph-name="nine.sup" horiz-adv-x="624" 
d="M25 842l174 82q27 -47 98 -47q49 0 80 19.5t31 49.5v37q-40 -29 -109 -29q-110 0 -186 70q-78 72 -78 176t80.5 173t201.5 69q124 0 203 -70q82 -70 82 -172v-250q0 -109 -86 -186q-86 -74 -215 -74q-93 0 -166.5 41t-109.5 111zM240 1200q0 -37 40 -51.5t79.5 0
t39.5 49.5q3 35 -39 50t-83.5 1t-36.5 -49z" />
    <glyph glyph-name="zero.sub" horiz-adv-x="630" 
d="M23 51v219q0 116 81 191q82 76 209 76q129 0 211 -76q84 -78 84 -191v-219q0 -113 -86 -190q-82 -76 -209 -76t-209 76q-81 75 -81 190zM219 272v-223q0 -32 28 -55t66 -23q41 0 70 23t29 55v223q3 47 -47.5 66.5t-100.5 0t-45 -66.5z" />
    <glyph glyph-name="one.sub" horiz-adv-x="509" 
d="M217 305l-108 -47l-70 164l233 106h142v-733h-197v510z" />
    <glyph glyph-name="two.sub" horiz-adv-x="604" 
d="M365 299q0 21 -19.5 36t-48.5 15q-66 0 -104 -84l-183 88q41 85 117.5 134t169.5 49q115 0 192 -68q80 -68 80 -162q0 -120 -161 -262l-72 -63h237v-187h-536v144l254 237q74 68 74 123z" />
    <glyph glyph-name="three.sub" horiz-adv-x="616" 
d="M367 297q0 23 -22.5 38t-59.5 15q-75 0 -90 -45l-175 60q36 78 110 125t169 47q117 0 194.5 -67t77.5 -169q0 -78 -63 -123q84 -53 84 -149q0 -106 -82 -175t-207 -69q-106 0 -185 53t-104 139l183 64q0 -30 31.5 -50t68 -19t65.5 18q42 31 18.5 68.5t-83.5 37.5h-55v146
h34q38 0 64.5 15.5t26.5 39.5z" />
    <glyph glyph-name="four.sub" horiz-adv-x="657" 
d="M365 -205v125h-345v189l355 419h186v-422h76v-186h-76v-125h-196zM365 240l-111 -134h111v134z" />
    <glyph glyph-name="five.sub" horiz-adv-x="630" 
d="M604 43q0 -112 -81.5 -185t-205.5 -73q-108 0 -189 59t-110 158l197 53q27 -84 100 -84q37 0 61.5 20.5t24.5 49.5q0 32 -31.5 54t-78.5 22h-215l43 411h418v-180h-258l-7 -51h68q111 0 188 -74q76 -70 76 -180z" />
    <glyph glyph-name="six.sub" horiz-adv-x="624" 
d="M588 379l-178 -82q-27 53 -95 53q-41 0 -68.5 -20t-27.5 -49v-41q38 32 111 32q109 0 186 -71q80 -71 80 -174q0 -102 -82 -172t-205 -70t-205 70q-81 69 -81 172v249q0 112 82.5 186.5t207.5 74.5q93 0 166.5 -42t108.5 -116zM367 70q-23 17 -57.5 17t-59.5 -17
q-23 -17 -23 -41t23 -41q25 -17 59.5 -17t57.5 17q25 17 25 41t-25 41z" />
    <glyph glyph-name="seven.sub" horiz-adv-x="573" 
d="M84 -205l266 553h-336v180h547v-190l-262 -543h-215z" />
    <glyph glyph-name="eight.sub" horiz-adv-x="624" 
d="M313 -215q-124 0 -206 64t-82 161q0 98 84 164q-72 60 -72 148q0 92 79 153.5t197 61.5q117 0 195 -62t78 -153q0 -90 -70 -148q84 -72 84 -166q0 -96 -82 -159.5t-205 -63.5zM227 29q-4 -36 41 -50t89 0.5t38 47.5q0 25 -22.5 40t-59.5 15q-38 0 -62 -15t-24 -38z
M242 307q0 -45 71 -45q30 0 49 12.5t19 32.5q0 19 -19.5 31t-48.5 12q-71 0 -71 -43z" />
    <glyph glyph-name="nine.sub" horiz-adv-x="624" 
d="M25 -63l174 81q27 -47 98 -47q49 0 80 20t31 50v37q-40 -29 -109 -29q-110 0 -186 70q-78 72 -78 176t80.5 173t201.5 69q124 0 203 -70q82 -70 82 -172v-250q0 -110 -86 -184q-85 -76 -215 -76q-93 0 -166.5 41t-109.5 111zM240 295q0 -37 40 -51.5t79.5 0t39.5 49.5
q3 35 -39 50t-83.5 1t-36.5 -49z" />
    <glyph glyph-name="exclamdown.case" horiz-adv-x="434" 
d="M59 1186q0 67 46 113.5t112 46.5q69 0 114.5 -46t45.5 -114q0 -69 -45.5 -115.5t-114.5 -46.5q-66 0 -112 46.5t-46 115.5zM41 0l45 885h260l47 -885h-352z" />
    <glyph glyph-name="questiondown.case" horiz-adv-x="1153" 
d="M412 438q0 -56 53.5 -93.5t134.5 -37.5q69 0 120 31t68 82l336 -92q-47 -153 -188 -248q-137 -94 -330 -94q-229 0 -379 129q-151 133 -151 327q0 88 35.5 163.5t89.5 115.5q114 81 194 94l37 8l17 68h278l35 -252q-56 -6 -123 -25q-220 -58 -227 -176zM748 1192
q0 -69 -46 -115.5t-112 -46.5q-69 0 -114.5 46.5t-45.5 115.5q0 68 45.5 114t114.5 46q66 0 112 -46.5t46 -113.5z" />
    <glyph glyph-name="dagger.case" horiz-adv-x="778" 
d="M20 770v213h267v348h205v-348h266v-213h-266v-770h-205v770h-267z" />
    <glyph glyph-name="daggerdbl.case" horiz-adv-x="778" 
d="M287 328h-267v213h267v250h-267v213h267v327h205v-327h266v-213h-266v-250h266v-213h-266v-328h-205v328z" />
    <glyph glyph-name="slash.case" horiz-adv-x="1054" 
d="M248 -205h-248l807 1741h248z" />
    <glyph glyph-name="backslash.case" horiz-adv-x="1054" 
d="M248 1536l807 -1741h-248l-807 1741h248z" />
    <glyph glyph-name="parenleft.case" horiz-adv-x="641" 
d="M297 1501l29 35h295q-1 -2 -7.5 -9.5t-10 -12.5t-12.5 -17.5t-17.5 -26t-21.5 -36.5t-28 -50q-51 -93 -85.5 -187t-63.5 -234q-59 -298 0 -592q25 -128 71 -247.5t75 -172t71 -119.5l29 -37h-295q-1 1 -7.5 8t-10 11.5t-12.5 16t-17.5 24.5t-21.5 35t-28 49
q-51 87 -85.5 181t-63.5 236q-61 310 0 617q28 155 67 246q86 205 150 282z" />
    <glyph glyph-name="parenright.case" horiz-adv-x="643" 
d="M49 1499l-29 37h295q1 -1 9 -9.5t13.5 -16l16.5 -22.5t25.5 -39t32.5 -56q52 -89 86.5 -183.5t62.5 -234.5q63 -307 2 -617q-56 -291 -219 -528l-29 -35h-295q46 59 97 154q52 95 87 189t62 231q61 295 2 592q-19 99 -47 186t-64.5 160t-55.5 106t-52 86z" />
    <glyph glyph-name="bracketleft.case" horiz-adv-x="700" 
d="M678 -205h-592v1741h594v-274h-299v-1192h297v-275z" />
    <glyph glyph-name="bracketright.case" horiz-adv-x="698" 
d="M612 -205h-592v275h297v1192h-297v274h592v-1741z" />
    <glyph glyph-name="braceleft.case" horiz-adv-x="739" 
d="M639 1536h80v-279h-78q-63 0 -107.5 -33.5t-44.5 -82.5v-115q0 -299 -172 -360q172 -61 172 -361v-115q0 -49 44.5 -82.5t107.5 -33.5h78v-279h-80q-184 0 -311 127q-125 125 -125 314v108q0 47 -43.5 93t-93.5 67l-46 20v281q5 2 14.5 6l19 8t18.5 8q30 15 80 62
q51 45 51 98v109q0 188 125 313q127 127 311 127z" />
    <glyph glyph-name="braceright.case" horiz-adv-x="739" 
d="M20 1257v279h80q185 0 312 -127q125 -125 125 -313v-109q0 -47 42.5 -93t92.5 -67l47 -20v-283q-49 -21 -51 -22q-26 -10 -82 -60q-49 -46 -49 -98v-108q0 -189 -125 -314q-127 -127 -312 -127h-80v279h78q63 0 107.5 33.5t44.5 82.5v115q0 300 172 361q-172 64 -172 360
v115q0 49 -44.5 82.5t-107.5 33.5h-78z" />
    <glyph glyph-name="guillemotleft.case" horiz-adv-x="1021" 
d="M389 297l-369 369l369 368l172 -174l-192 -194l192 -195zM807 297l-367 369l367 368l174 -174l-195 -194l195 -195z" />
    <glyph glyph-name="guillemotright.case" horiz-adv-x="1021" 
d="M633 1034l368 -368l-368 -369l-172 174l192 195l-192 194zM215 1034l367 -368l-367 -369l-174 174l195 195l-195 194z" />
    <glyph glyph-name="guilsinglleft.case" horiz-adv-x="602" 
d="M389 297l-369 369l369 368l172 -174l-192 -194l192 -195z" />
    <glyph glyph-name="guilsinglright.case" horiz-adv-x="602" 
d="M213 1034l369 -368l-369 -369l-172 174l192 195l-192 194z" />
    <glyph glyph-name="hyphen.case" horiz-adv-x="737" 
d="M94 543v245h549v-245h-549z" />
    <glyph glyph-name="endash.case" horiz-adv-x="1228" 
d="M94 543v245h1041v-245h-1041z" />
    <glyph glyph-name="emdash.case" horiz-adv-x="2048" 
d="M94 543v245h1860v-245h-1860z" />
    <glyph glyph-name="bar.case" horiz-adv-x="327" 
d="M266 -205h-205v1741h205v-1741z" />
    <glyph glyph-name="brokenbar.case" horiz-adv-x="327" 
d="M266 1536v-721h-205v721h205zM61 -205v723h205v-723h-205z" />
    <glyph glyph-name="zero.dnom" horiz-adv-x="630" 
d="M23 256v219q0 116 81 191t209 75q130 0 211 -75q84 -78 84 -191v-219q0 -113 -86 -190q-82 -76 -209 -76t-209 76q-81 75 -81 190zM219 477v-223q0 -32 28 -55t66 -23q41 0 70 23t29 55v223q3 47 -47.5 66.5t-100.5 0t-45 -66.5z" />
    <glyph glyph-name="one.dnom" horiz-adv-x="509" 
d="M217 510l-108 -47l-70 164l233 106h142v-733h-197v510z" />
    <glyph glyph-name="two.dnom" horiz-adv-x="604" 
d="M365 504q0 21 -19.5 36t-48.5 15q-66 0 -104 -84l-183 88q41 85 117.5 133.5t169.5 48.5q116 0 192 -67q80 -68 80 -162q0 -120 -161 -262l-72 -64h237v-186h-536v143l254 238q74 68 74 123z" />
    <glyph glyph-name="three.dnom" horiz-adv-x="616" 
d="M367 502q0 23 -22.5 38t-59.5 15q-75 0 -90 -45l-175 59q36 78 110 125t169 47q117 0 194.5 -66.5t77.5 -168.5q0 -78 -63 -123q84 -53 84 -150q0 -106 -82 -174.5t-207 -68.5q-106 0 -185 53t-104 139l183 64q0 -30 31.5 -50t68 -19t65.5 18q42 31 18.5 68.5t-83.5 37.5
h-55v145h34q38 0 64.5 16t26.5 40z" />
    <glyph glyph-name="four.dnom" horiz-adv-x="657" 
d="M365 0v125h-345v188l355 420h186v-422h76v-186h-76v-125h-196zM365 444l-111 -133h111v133z" />
    <glyph glyph-name="five.dnom" horiz-adv-x="630" 
d="M604 248q0 -112 -81.5 -185t-205.5 -73q-108 0 -189 59t-110 158l197 53q27 -84 100 -84q37 0 61.5 20.5t24.5 49.5q0 32 -31.5 54t-78.5 22h-215l43 411h418v-180h-258l-7 -51h68q111 0 188 -74q76 -70 76 -180z" />
    <glyph glyph-name="six.dnom" horiz-adv-x="624" 
d="M588 584l-178 -82q-27 53 -95 53q-41 0 -68.5 -20.5t-27.5 -49.5v-41q39 33 111 33q109 0 186 -71q80 -71 80 -175q0 -102 -82 -172q-81 -69 -205 -69t-205 69t-81 172v250q0 112 82.5 186t207.5 74q94 0 167 -41.5t108 -115.5zM367 274q-23 17 -57.5 17t-59.5 -17
q-23 -17 -23 -40.5t23 -40.5q25 -17 59.5 -17t57.5 17q25 17 25 40.5t-25 40.5z" />
    <glyph glyph-name="seven.dnom" horiz-adv-x="573" 
d="M84 0l266 553h-336v180h547v-190l-262 -543h-215z" />
    <glyph glyph-name="eight.dnom" horiz-adv-x="624" 
d="M313 -10q-124 0 -206 64t-82 161q0 98 84 164q-72 60 -72 147q0 92 79 153.5t197 61.5q117 0 195 -62t78 -153q0 -89 -70 -147q84 -72 84 -166q0 -96 -82 -159.5t-205 -63.5zM227 233q-4 -36 41 -50t89 0.5t38 47.5q0 25 -22.5 40.5t-59.5 15.5q-38 0 -62 -15.5
t-24 -38.5zM242 512q0 -45 71 -45q30 0 49 12.5t19 32.5q0 19 -19.5 31t-48.5 12q-71 0 -71 -43z" />
    <glyph glyph-name="nine.dnom" horiz-adv-x="624" 
d="M25 141l174 82q27 -47 98 -47q49 0 80 20t31 50v37q-40 -29 -109 -29q-110 0 -186 70q-78 72 -78 176t80 172.5t202 68.5q125 0 203 -69q82 -70 82 -172v-250q0 -110 -86 -187q-85 -73 -215 -73q-93 0 -166.5 40.5t-109.5 110.5zM240 500q0 -37 40 -51.5t79.5 0
t39.5 49.5q3 35 -39 50t-83.5 1t-36.5 -49z" />
    <glyph glyph-name="logo" horiz-adv-x="880" 
d="M41 1061v209h47q145 0 248 -103q102 -102 102 -247q0 -146 -102 -248q-103 -103 -248 -103h-47v211q186 0 186 140q0 141 -186 141zM442 1061v209h47q145 0 248 -103t103 -247q0 -145 -103 -248t-248 -103h-47v211q189 0 189 140q0 141 -189 141zM109 442h-56v41h152v-41
h-55v-237h-41v237zM285 328l-74 155h47l47 -102l49 102h47l-73 -155v-123h-43v123zM467 205h-41v278h78q37 0 63.5 -25.5t26.5 -62.5t-26.5 -62.5t-63.5 -25.5h-37v-102zM504 442h-37v-94h37q20 0 33.5 13.5t13.5 33.5q0 19 -13.5 33t-33.5 14zM743 205h-122v278h122v-41
h-79v-98h63v-41h-63v-57h79v-41z" />
    <glyph glyph-name="bullet.case" horiz-adv-x="616" 
d="M31 666q0 117 80 200q82 82 196 82q123 0 199 -82q80 -80 80 -200q0 -119 -80 -199q-77 -80 -199 -80q-113 0 -196 80q-80 83 -80 199z" />
    <glyph glyph-name="zero.num" horiz-adv-x="630" 
d="M23 854v219q0 116 81 191t209 75q130 0 211 -75q84 -78 84 -191v-219q0 -113 -86 -190q-82 -76 -209 -76t-209 76q-81 75 -81 190zM219 1075v-223q0 -32 28 -55t66 -23q41 0 70 23t29 55v223q3 47 -47.5 66.5t-100.5 0t-45 -66.5z" />
    <glyph glyph-name="one.num" horiz-adv-x="509" 
d="M217 1108l-108 -47l-70 164l233 106h142v-733h-197v510z" />
    <glyph glyph-name="two.num" horiz-adv-x="604" 
d="M365 1102q0 21 -19.5 36t-48.5 15q-66 0 -104 -84l-183 88q41 85 117.5 133.5t169.5 48.5q116 0 192 -67q80 -68 80 -162q0 -120 -161 -262l-72 -64h237v-186h-536v143l254 238q74 68 74 123z" />
    <glyph glyph-name="three.num" horiz-adv-x="616" 
d="M367 1100q0 23 -22.5 38t-59.5 15q-75 0 -90 -45l-175 59q36 78 110 125t169 47q117 0 194.5 -66.5t77.5 -168.5q0 -78 -63 -123q84 -53 84 -150q0 -106 -82 -174.5t-207 -68.5q-106 0 -185 53t-104 139l183 64q0 -30 31.5 -50t68 -19t65.5 18q42 31 18.5 68.5
t-83.5 37.5h-55v145h34q38 0 64.5 16t26.5 40z" />
    <glyph glyph-name="four.num" horiz-adv-x="657" 
d="M365 598v125h-345v188l355 420h186v-422h76v-186h-76v-125h-196zM365 1042l-111 -133h111v133z" />
    <glyph glyph-name="five.num" horiz-adv-x="630" 
d="M604 846q0 -112 -81.5 -185t-205.5 -73q-108 0 -189 59t-110 158l197 53q27 -84 100 -84q37 0 61.5 20.5t24.5 49.5q0 32 -31.5 54t-78.5 22h-215l43 411h418v-180h-258l-7 -51h68q111 0 188 -74q76 -70 76 -180z" />
    <glyph glyph-name="six.num" horiz-adv-x="624" 
d="M588 1182l-178 -82q-27 53 -95 53q-41 0 -68.5 -20.5t-27.5 -49.5v-41q39 33 111 33q109 0 186 -71q80 -71 80 -175q0 -102 -82 -172q-81 -69 -205 -69t-205 69t-81 172v250q0 112 82.5 186t207.5 74q94 0 167 -41.5t108 -115.5zM367 872q-23 17 -57.5 17t-59.5 -17
q-23 -17 -23 -40.5t23 -40.5q25 -17 59.5 -17t57.5 17q25 17 25 40.5t-25 40.5z" />
    <glyph glyph-name="seven.num" horiz-adv-x="573" 
d="M84 598l266 553h-336v180h547v-190l-262 -543h-215z" />
    <glyph glyph-name="eight.num" horiz-adv-x="624" 
d="M313 588q-124 0 -206 64t-82 161q0 98 84 164q-72 60 -72 147q0 92 79 153.5t197 61.5q117 0 195 -62t78 -153q0 -89 -70 -147q84 -72 84 -166q0 -96 -82 -159.5t-205 -63.5zM227 831q-4 -36 41 -50t89 0.5t38 47.5q0 25 -22.5 40.5t-59.5 15.5q-38 0 -62 -15.5
t-24 -38.5zM242 1110q0 -45 71 -45q30 0 49 12.5t19 32.5q0 19 -19.5 31t-48.5 12q-71 0 -71 -43z" />
    <glyph glyph-name="nine.num" horiz-adv-x="624" 
d="M25 739l174 82q27 -47 98 -47q49 0 80 20t31 50v37q-40 -29 -109 -29q-110 0 -186 70q-78 72 -78 176t80 172.5t202 68.5q125 0 203 -69q82 -70 82 -172v-250q0 -109 -86 -186q-86 -74 -215 -74q-93 0 -166.5 40.5t-109.5 110.5zM240 1098q0 -37 40 -51.5t79.5 0
t39.5 49.5q3 35 -39 50t-83.5 1t-36.5 -49z" />
    <glyph glyph-name="afii10021.1" horiz-adv-x="1540" 
d="M1511 0h-1482v322h153q99 44 99 356v653h1036v-1009h194v-322zM573 322h394v686h-336v-318q0 -216 -58 -368z" />
    <glyph glyph-name="afii10040.1" horiz-adv-x="1488" 
d="M68 1331h350v-1009h495v1009h351v-1009h196v-322h-1392v1331z" />
    <glyph glyph-name="afii10043.1" horiz-adv-x="2068" 
d="M68 0v1331h350v-1009h348v1009h352v-1009h377v1009h350v-1009h195v-322h-1972z" />
    <glyph glyph-name="germandbls.1" horiz-adv-x="1026" 
d="M330 508v-508h-299v1155q0 120 94 199q95 80 237 80h109v-287h-78q-26 0 -44.5 -13.5t-18.5 -33.5v-322h536v-178l-98 -242q113 -57 177.5 -160t64.5 -227q0 -193 -164 -319q-163 -129 -408 -129v293q108 0 183 45.5t75 109.5q0 69 -74 116.5t-184 47.5v182l80 191h-188z
" />
    <glyph glyph-name="R.1" horiz-adv-x="1271" 
d="M68 1331h641q214 0 358 -123q143 -119 143 -301q0 -219 -198 -344q151 -121 178 -311l39 -252h-344l-35 260q-11 68 -63 114t-121 46h-248v-420h-350v1331zM709 1008h-291v-267h291q60 0 99.5 39.5t39.5 96.5q0 56 -39.5 93.5t-99.5 37.5z" />
    <glyph glyph-name="Racute.1" horiz-adv-x="1271" 
d="M418 0h-350v1331h641q214 0 358 -123q143 -119 143 -301q0 -219 -198 -344q151 -121 178 -311l39 -252h-344l-35 260q-11 68 -63 114t-121 46h-248v-420zM709 1008h-291v-267h291q60 0 99.5 39.5t39.5 96.5q0 56 -39.5 93.5t-99.5 37.5zM426 1452l-98 145l356 258
l139 -221z" />
    <glyph glyph-name="Rcaron.1" horiz-adv-x="1271" 
d="M418 420v-420h-350v1331h641q214 0 358 -123q143 -119 143 -301q0 -219 -198 -344q151 -121 178 -311l39 -252h-344l-35 260q-11 68 -63 114t-121 46h-248zM543 1452h-21l-309 260l98 139l221 -137l222 137l98 -139zM709 1008h-291v-267h291q60 0 99.5 39.5t39.5 96.5
q0 56 -39.5 93.5t-99.5 37.5z" />
    <glyph glyph-name="Rcommaaccent.1" horiz-adv-x="1271" 
d="M418 0h-350v1331h641q214 0 358 -123q143 -119 143 -301q0 -219 -198 -344q151 -121 178 -311l39 -252h-344l-35 260q-11 68 -63 114t-121 46h-248v-420zM709 1008h-291v-267h291q60 0 99.5 39.5t39.5 96.5q0 56 -39.5 93.5t-99.5 37.5zM504 -197q0 57 37.5 94t97.5 37
q65 0 108.5 -47.5t43.5 -117.5q0 -73 -52 -140q-65 -90 -141 -133l-74 76q83 65 86 96q-45 8 -75.5 46t-30.5 89z" />
    <glyph glyph-name="u.1" horiz-adv-x="849" 
d="M31 324v454h315v-409q-4 -55 38 -78t84 0t38 78v409h313v-473q0 -137 -112 -227q-115 -92 -281 -92q-167 0 -283 96q-112 97 -112 242z" />
    <glyph glyph-name="uacute.1" horiz-adv-x="849" 
d="M31 324v454h315v-409q-4 -55 38 -78t84 0t38 78v409h313v-473q0 -137 -112 -227q-115 -92 -281 -92q-167 0 -283 96q-112 97 -112 242zM319 940l-98 145l357 258l139 -221z" />
    <glyph glyph-name="ubreve.1" horiz-adv-x="849" 
d="M31 324v454h315v-409q-4 -55 38 -78t84 0t38 78v409h313v-473q0 -137 -112 -227q-115 -92 -281 -92q-167 0 -283 96q-112 97 -112 242zM125 1241h203q0 -39 28.5 -66.5t69.5 -27.5t69.5 27.5t28.5 66.5h203q0 -127 -88 -209q-85 -82 -213 -82q-127 0 -215 82
q-86 83 -86 209z" />
    <glyph glyph-name="ucircumflex.1" horiz-adv-x="849" 
d="M31 324v454h315v-409q-4 -55 38 -78t84 0t38 78v409h313v-473q0 -137 -112 -227q-115 -92 -281 -92q-167 0 -283 96q-112 97 -112 242zM426 1069l-221 -129l-99 139l310 260h20l309 -260l-98 -139z" />
    <glyph glyph-name="udieresis.1" horiz-adv-x="849" 
d="M31 324v454h315v-409q-4 -55 38 -78t84 0t38 78v409h313v-473q0 -137 -112 -227q-115 -92 -281 -92q-167 0 -283 96q-112 97 -112 242zM231 1264q66 0 111 -44.5t45 -111.5t-45 -112.5t-111 -45.5q-67 0 -111 45t-44 113t44 112t111 44zM621 1264q66 0 110.5 -44.5
t44.5 -111.5t-44.5 -112.5t-110.5 -45.5q-67 0 -111.5 45t-44.5 113t44.5 112t111.5 44z" />
    <glyph glyph-name="ugrave.1" horiz-adv-x="849" 
d="M31 324v454h315v-409q-4 -55 38 -78t84 0t38 78v409h313v-473q0 -137 -112 -227q-115 -92 -281 -92q-167 0 -283 96q-112 97 -112 242zM535 940l-398 182l139 221l357 -258z" />
    <glyph glyph-name="uhungarumlaut.1" horiz-adv-x="849" 
d="M31 324v454h315v-409q-4 -55 38 -78t84 0t38 78v409h313v-473q0 -137 -112 -227q-115 -92 -281 -92q-167 0 -283 96q-112 97 -112 242zM211 950l-139 107l239 342l201 -164zM586 950l-137 107l237 342l203 -164z" />
    <glyph glyph-name="umacron.1" horiz-adv-x="849" 
d="M31 324v454h315v-409q-4 -55 38 -78t84 0t38 78v409h313v-473q0 -137 -112 -227q-115 -92 -281 -92q-167 0 -283 96q-112 97 -112 242zM678 1004h-506v225h506v-225z" />
    <glyph glyph-name="uogonek.1" horiz-adv-x="849" 
d="M31 324v454h315v-409q-4 -55 38 -78t84 0t38 78v409h313v-473q0 -115 -81.5 -200t-213.5 -111q-98 -98 -98 -191q0 -69 59 -69q42 0 72 30l8 11l74 -99q0 -1 -29 -34q-21 -24 -78 -58q-59 -35 -118 -35q-80 0 -134.5 55.5t-54.5 139.5q0 120 109 250q-136 26 -219.5 117
t-83.5 213z" />
    <glyph glyph-name="uring.1" horiz-adv-x="849" 
d="M31 324v454h315v-409q-4 -55 38 -78t84 0t38 78v409h313v-473q0 -137 -112 -227q-115 -92 -281 -92q-167 0 -283 96q-112 97 -112 242zM262 1028q-65 65 -65 164t65 164q64 67 164 67t164 -67q65 -65 65 -164t-65 -164t-164 -65t-164 65zM373 1192q0 -33 26.5 -46.5t53 0
t26.5 46.5q0 34 -26.5 48t-53 0t-26.5 -48z" />
    <glyph glyph-name="utilde.1" horiz-adv-x="849" 
d="M31 324v454h315v-409q-4 -55 38 -78t84 0t38 78v409h313v-473q0 -137 -112 -227q-115 -92 -281 -92q-167 0 -283 96q-112 97 -112 242zM297 983h-203q0 117 60.5 193.5t154.5 76.5q59 0 115 -39q56 -36 78 -36q23 0 37 19t14 46h203q0 -117 -60.5 -193.5t-154.5 -76.5
q-59 0 -117 37q-56 39 -74 39q-23 0 -38 -18.5t-15 -47.5z" />
    <glyph glyph-name="y.1" horiz-adv-x="849" 
d="M283 -8l-283 786h309l113 -366l119 366h309l-440 -1239h-275z" />
    <glyph glyph-name="yacute.1" horiz-adv-x="849" 
d="M135 -461l148 453l-283 786h309l113 -366l119 366h309l-440 -1239h-275zM717 1122l-398 -182l-98 145l357 258z" />
    <glyph glyph-name="ycircumflex.1" horiz-adv-x="849" 
d="M283 -8l-283 786h309l113 -366l119 366h309l-440 -1239h-275zM426 1069l-221 -129l-99 139l310 260h20l309 -260l-98 -139z" />
    <glyph glyph-name="ydieresis.1" horiz-adv-x="849" 
d="M283 -8l-283 786h309l113 -366l119 366h309l-440 -1239h-275zM621 1264q66 0 110.5 -44.5t44.5 -111.5t-44.5 -112.5t-110.5 -45.5q-67 0 -111.5 45t-44.5 113t44.5 112t111.5 44zM231 1264q66 0 111 -44.5t45 -111.5t-45 -112.5t-111 -45.5q-67 0 -111 45t-44 113
t44 112t111 44z" />
    <glyph glyph-name="ygrave.1" horiz-adv-x="849" 
d="M283 -8l-283 786h309l113 -366l119 366h309l-440 -1239h-275zM535 940l-398 182l139 221l357 -258z" />
    <glyph glyph-name="afii10085.1" horiz-adv-x="849" 
d="M283 -8l-283 786h309l113 -366l119 366h309l-440 -1239h-275z" />
    <glyph glyph-name="afii10110.1" horiz-adv-x="849" 
d="M135 -461l148 453l-283 786h309l113 -366l119 366h309l-440 -1239h-275zM125 1243h223q0 -38 23 -66t55 -28q33 0 54.5 26.5t21.5 67.5h223q0 -134 -86 -223q-85 -88 -213 -88q-127 0 -215 88q-86 89 -86 223z" />
    <glyph glyph-name="g.1" 
d="M362 -14q-145 0 -247 114q-101 116 -101 291q0 174 101 287q102 117 247 117q96 0 175 -52v37h299v-895q0 -156 -117 -258q-114 -102 -291 -102q-80 0 -139 20l73 262q25 -14 62 -14q47 0 80 24.5t33 59.5v160q-77 -51 -175 -51zM330 387q0 -44 29.5 -76t70.5 -32
t71.5 32t30.5 76q0 49 -30 83t-72 34q-41 0 -70.5 -34t-29.5 -83z" />
    <glyph glyph-name="gbreve.1" 
d="M362 -14q-145 0 -247 114q-101 116 -101 291q0 174 101 287q102 117 247 117q96 0 175 -52v37h299v-895q0 -156 -117 -258q-114 -102 -291 -102q-80 0 -139 20l73 262q25 -14 62 -14q47 0 80 24.5t33 59.5v160q-77 -51 -175 -51zM125 1241h203q0 -39 28.5 -66.5
t69.5 -27.5t69.5 27.5t28.5 66.5h203q0 -127 -88 -209q-85 -82 -213 -82q-127 0 -215 82q-86 83 -86 209zM330 387q0 -44 29.5 -76t70.5 -32t71.5 32t30.5 76q0 49 -30 83t-72 34q-41 0 -70.5 -34t-29.5 -83z" />
    <glyph glyph-name="gcircumflex.1" 
d="M362 -14q-145 0 -247 114q-101 116 -101 291q0 174 101 287q102 117 247 117q96 0 175 -52v37h299v-895q0 -156 -117 -258q-114 -102 -291 -102q-80 0 -139 20l73 262q25 -14 62 -14q47 0 80 24.5t33 59.5v160q-77 -51 -175 -51zM205 940l-99 139l310 260h20l309 -260
l-98 -139l-221 129zM330 387q0 -44 29.5 -76t70.5 -32t71.5 32t30.5 76q0 49 -30 83t-72 34q-41 0 -70.5 -34t-29.5 -83z" />
    <glyph glyph-name="gcommaaccent.1" 
d="M14 391q0 174 101 287q102 117 247 117q96 0 175 -52v37h299v-895q0 -156 -117 -258q-114 -102 -291 -102q-80 0 -139 20l73 262q25 -14 62 -14q47 0 80 24.5t33 59.5v160q-77 -51 -175 -51q-145 0 -247 114q-101 116 -101 291zM418 954q-65 0 -108.5 48t-43.5 118
q0 73 49 140q66 89 144 133l73 -76q-83 -65 -86 -96q45 -8 76 -47t31 -89q0 -57 -37.5 -94t-97.5 -37zM330 387q0 -44 29.5 -76t70.5 -32t71.5 32t30.5 76q0 49 -30 83t-72 34q-41 0 -70.5 -34t-29.5 -83z" />
    <glyph glyph-name="gdotaccent.1" 
d="M14 391q0 174 101 287q102 117 247 117q96 0 175 -52v37h299v-895q0 -156 -117 -258q-114 -102 -291 -102q-80 0 -139 20l73 262q25 -14 62 -14q47 0 80 24.5t33 59.5v160q-77 -51 -175 -51q-145 0 -247 114q-101 116 -101 291zM426 958q-73 0 -122.5 49t-49.5 121
q0 75 49 123.5t123 48.5t123 -49t49 -123q0 -72 -50 -121t-122 -49zM330 387q0 -44 29.5 -76t70.5 -32t71.5 32t30.5 76q0 49 -30 83t-72 34q-41 0 -70.5 -34t-29.5 -83z" />
    <glyph glyph-name="t.1" horiz-adv-x="571" 
d="M8 520v178l219 230h179v-148h143v-260h-143v-180q0 -23 18 -38t45 -15h80v-287h-156q-121 0 -205 72q-84 75 -84 180v268h-96z" />
    <glyph glyph-name="tbar.1" horiz-adv-x="571" 
d="M104 520h-96v178l219 230h179v-148h143v-260h-143v-41h102v-143h-102q3 -49 63 -49h80v-287h-156q-121 0 -205 72q-84 75 -84 180v84h-61v143h61v41z" />
    <glyph glyph-name="tcaron.1" horiz-adv-x="749" 
d="M8 520v178l219 230h179v-148h143v-260h-143v-180q0 -23 18 -38t45 -15h80v-287h-156q-121 0 -205 72q-84 75 -84 180v268h-96zM729 1139q0 -74 -51 -142q-65 -88 -141 -131l-74 76q83 65 86 96q-45 8 -76 47t-31 89q0 57 38 94t98 37q65 0 108 -48t43 -118z" />
    <glyph glyph-name="tcommaaccent.1" horiz-adv-x="571" 
d="M8 520v178l219 230h179v-148h143v-260h-143v-180q0 -23 18 -38t45 -15h80v-287h-156q-121 0 -205 72q-84 75 -84 180v268h-96zM496 -231q0 -73 -52 -140q-65 -90 -141 -133l-74 76q83 65 86 96q-45 8 -75.5 46t-30.5 89q0 57 37.5 94t97.5 37q65 0 108.5 -47.5
t43.5 -117.5z" />
    <glyph glyph-name="uni021B.1" horiz-adv-x="571" 
d="M8 520v178l219 230h179v-148h143v-260h-143v-180q0 -23 18 -38t45 -15h80v-287h-156q-121 0 -205 72q-84 75 -84 180v268h-96zM496 -231q0 -73 -52 -140q-65 -90 -141 -133l-74 76q83 65 86 96q-45 8 -75.5 46t-30.5 89q0 57 37.5 94t97.5 37q65 0 108.5 -47.5
t43.5 -117.5z" />
    </font>
</defs>
</svg>
